#VERSION:0.83;
#TITLE:垓;
#SUBTITLE:;
#ARTIST:cosMo@暴走P feat.96 & 肥塚良彦;
#TITLETRANSLIT:Gai;
#SUBTITLETRANSLIT:;
#ARTISTTRANSLIT:cosMo@BousouP feat.96 & Yoshihiko Koezuka;
#GENRE:Rock Fusion;
#ORIGIN:;
#CREDIT:;
#BANNER:[Round 4] - Gai.png;
#BACKGROUND:[Round 4] - Gai-bg.png;
#PREVIEWVID:;
#JACKET:[Round 4] - Gai-jacket.png;
#CDIMAGE:;
#DISCIMAGE:;
#LYRICSPATH:;
#CDTITLE:cdtitle.png;
#MUSIC:[Round 4] - Gai.ogg;
#OFFSET:0.932964;
#SAMPLESTART:6.474443;
#SAMPLELENGTH:11.851851;
#SELECTABLE:YES;
#BPMS:0.000=162.000;
#STOPS:;
#DELAYS:;
#WARPS:;
#TIMESIGNATURES:0.000=4=4;
#TICKCOUNTS:0.000=4;
#COMBOS:0.000=1;
#SPEEDS:0.000=1.000=0.000=0;
#SCROLLS:0.000=1.000;
#FAKES:;
#LABELS:0.000=Song Start;
#BGCHANGES:0.000=[Round 4] - Gai.avi=1.000=1=0=0=StretchNoLoop==CrossFade==,
336.000=[Round 4] - Gai-bg.png=1.000=1=0=1===CrossFade==,
99999=-nosongbg-=1.000=0=0=0 // don't automatically add -songbackground-
;
#KEYSOUNDS:;
#ATTACKS:
;

//---------------dance-single - ----------------
#NOTEDATA:;
#CHARTNAME:13-18;
#STEPSTYPE:dance-single;
#DESCRIPTION:;
#CHARTSTYLE:;
#DIFFICULTY:Challenge;
#METER:13;
#RADARVALUES:1.102046,1.053663,0.611501,0.297911,1.595390,984.000000,906.000000,78.000000,38.000000,0.000000,0.000000,0.000000,0.000000,0.000000,1.102046,1.053663,0.611501,0.297911,1.595390,984.000000,906.000000,78.000000,38.000000,0.000000,0.000000,0.000000,0.000000,0.000000;
#CREDIT:;
#NOTES:
0000
0000
0000
0000
,
0000
0000
0000
0000
,
1000
0010
1000
0010
0000
1010
0000
1010
0000
1010
0000
0100
0001
0000
1010
0000
,
0001
0010
0001
0010
0000
0011
0000
0011
0000
0011
0000
0100
1000
0000
1010
0000
,
0101
0000
0000
0000
,
1000
0001
1000
0000
0010
0000
1000
0010
1000
0001
0010
0001
0000
1100
0000
0021
,
0000
0000
0031
0010
0001
0100
0000
0102
0000
1003
0010
0100
0001
0010
0100
1000
,
0001
0100
0010
0000
0001
0000
1000
0100
0010
0100
0001
1000
0000
1100
0000
0210
,
0000
0000
1300
0100
0001
0100
1000
0020
0000
1030
0010
0001
0010
1000
0100
0010
,
0001
1000
0001
0000
0010
0000
0001
0010
0001
1000
0010
1000
0000
0101
0000
1020
,
0000
0000
1030
0010
1000
0100
0000
2100
0000
3001
0010
0100
1000
0010
0100
0001
,
1000
0100
0001
0000
1000
0000
0010
0100
0010
0001
1000
0010
0000
0110
0000
0201
,
0000
0000
0301
0100
1000
0100
0001
0020
0000
0031
0010
1000
0010
0001
1000
0010
,
0200
0000
0000
0000
0010
0000
0000
0000
0010
0000
0000
0000
0310
0000
0100
0001
,
0010
0000
0100
0010
0100
0010
0100
0010
0100
0010
0100
0010
0100
0010
0100
0010
,
0100
1000
0010
0000
0100
0000
0010
1000
0100
0010
0100
1000
0000
1100
0000
0102
,
0000
0000
0013
0001
0100
0001
0100
0020
0000
1030
0100
0010
0001
0100
0010
1000
,
0001
0010
0001
0000
0010
0000
0100
0010
0100
1000
0001
0100
0000
0110
0000
1020
,
0000
0000
0031
0000
0010
0100
0010
2000
0000
3010
1000
0001
1000
0100
1000
0001
,
0100
0010
0100
0001
1000
0100
0010
0100
1000
0010
0100
0010
0001
0010
0100
0010
,
0000
1000
0010
0100
0001
0010
0100
2000
0000
3001
0100
0010
1000
0100
0010
0001
,
1000
0010
1000
0100
1000
0010
0100
0001
0010
0100
0010
1000
0010
0100
0010
0002
,
0000
0000
1003
0010
0001
0010
1000
0100
0010
0100
0010
0100
0010
0100
1000
0001
,
0100
0010
0100
0010
0000
0110
0000
0110
0000
0110
0000
0100
0010
0000
0110
0000
,
1000
0000
1010
0000
0000
1001
0000
0000
0011
0000
0000
0110
0000
0000
1100
0000
,
2001
0000
0000
0100
0000
0000
0001
0000
0000
0000
0000
0000
0000
0000
3001
1000
,
0020
0000
0000
0000
0000
0000
0000
0000
0030
0000
1000
0000
0000
1000
0000
0000
,
1001
0000
0000
0102
0000
0000
1000
0000
0000
0000
0000
0000
1003
0000
0001
0000
,
1000
0000
0000
0000
0100
0000
0000
0000
1000
0000
0000
0000
0001
0000
0000
0000
0100
0000
0000
0000
0001
0000
0000
0000
1000
0000
0000
0000
0010
0000
0000
0000
1000
0000
0000
0000
0001
0000
0000
1000
0000
0000
0001
0000
0000
1000
0000
0000
,
0100
0000
0000
0011
0000
0000
1000
0000
0000
0000
1000
0000
0100
0000
0010
0001
,
0100
0000
0000
1010
0000
0000
0001
0000
0000
0000
0001
0100
0010
1000
0100
0010
,
0001
0000
1000
0100
0010
0100
0010
0100
1000
0000
0001
0100
0010
0100
0001
0000
,
1000
0000
0001
0010
0100
0010
0100
0010
0001
0000
1000
0010
0100
0001
0010
0100
,
1000
0000
0001
0100
0010
0100
0010
0100
1000
0100
1000
0100
0010
0100
0010
0100
,
0001
0000
0000
0000
0000
0000
1000
0000
0010
0000
1000
0000
0010
0000
0000
1000
0000
0000
0010
0000
0000
0100
0000
0000
0001
0000
0000
0010
0000
0000
0100
0000
0000
1000
0000
0000
0001
0000
0000
0000
0000
0000
0000
0000
0000
0000
0000
0000
,
0001
0000
0010
0000
0001
0000
1000
0010
1000
0010
0100
0000
0001
0000
2001
0000
,
0000
3001
1000
0000
0001
0000
0010
0100
0010
0000
0100
0000
1000
0010
0100
0001
,
1000
0000
0010
0000
1000
0000
0001
0010
0001
0010
0100
0000
1000
0010
0100
0001
,
0010
0100
0010
0000
0011
0000
1000
0010
1000
0000
0000
1010
0000
0000
0101
0000
,
1000
0000
0010
0000
0001
0000
0010
0100
0010
0100
0001
0000
1000
0000
1200
0000
,
0000
1300
0100
0000
1000
0000
0010
0100
0010
0000
0100
0000
0001
0010
0100
1000
,
0001
0000
0010
0000
1000
0000
0010
0100
0010
0100
1000
0000
0001
0010
0100
1000
,
0001
0100
0010
0000
1000
0100
0010
0001
0100
1000
0100
0001
0010
1000
0010
0001
,
1000
0000
0001
0100
0010
0100
1000
0000
1000
0100
0010
0100
0001
0000
1000
0010
,
0100
0010
0001
0000
0001
0010
0100
0010
1000
0100
0010
0001
0100
0010
1000
0000
,
0000
0000
1000
0100
0010
0100
0001
0000
0001
0100
0010
0100
1000
0000
0001
0010
,
0100
0010
1000
0000
1000
0010
0100
0010
0001
0100
1000
0001
0010
1000
0001
0000
,
0000
0000
1000
0010
1000
0001
1000
0100
1000
0010
1000
0001
0010
0100
0010
1000
,
0010
0000
0001
0000
1000
0010
0100
1000
0100
0010
1000
0001
0010
0100
0001
0100
,
0010
0000
0001
0100
0001
0100
0001
0100
0010
1000
0010
1000
0010
1000
0010
1000
,
0100
1000
0100
1000
0100
1000
0100
1000
0100
0001
1000
0010
0001
1000
0010
0000
,
0101
0000
1000
0010
1000
0000
0001
0000
0010
0001
0000
0010
0001
0000
1000
0010
,
1000
0000
0001
0100
0001
0000
1000
0000
0100
1000
0000
0100
1000
0000
0001
0100
,
0001
0000
1000
0100
0010
0000
0100
0000
1000
0001
0000
1000
0001
0000
1000
0010
,
0100
0000
0001
0100
0010
0000
1000
0100
0010
0001
0100
0010
1000
0000
0001
0000
,
0010
0000
0100
1000
0010
0000
0100
0001
0010
0000
0100
1000
0010
0000
0100
0001
,
1000
0000
0100
1000
0001
0000
0010
0001
1000
0000
0010
1000
0001
0010
0100
1000
,
0001
0100
0100
0100
0100
0100
0100
0100
,
0101
0000
1001
0000
1000
0100
0000
0110
0000
0010
0001
0100
0010
1000
0100
0010
,
0001
0000
1000
0100
1000
0010
2000
0000
0000
3000
1010
0000
1000
0010
1000
0100
,
1000
0000
0001
0100
0001
0010
0002
0000
0000
0003
0011
0000
0001
0010
0001
0100
,
0010
0000
1000
0100
0001
0100
2000
0000
0000
3000
1001
0000
0001
0100
0010
1000
,
0001
0010
0001
0010
0001
0000
1200
0000
0000
0310
0001
0100
0010
1000
0100
0010
,
0001
0000
0100
0001
0010
0001
2000
0000
0000
3000
1001
0000
1000
0100
0010
0001
,
1000
0000
0100
1000
0010
1000
0002
0000
0000
0003
1001
0000
0001
0100
0010
1000
,
0001
0000
0010
1000
0010
0001
0020
0000
0000
0030
0110
0000
0100
1000
0001
0100
,
0010
1000
0010
1000
0010
0000
0102
0000
0000
1003
0100
0010
0001
0100
1000
0100
,
0001
0000
0000
0000
0001
0010
0000
0110
0000
1100
0000
0001
0010
0100
1000
0100
,
0010
0100
0001
0100
0010
0100
0001
0100
1000
0000
0000
1100
0000
0000
0011
0000
,
1001
0000
0000
0000
1000
0010
0000
0110
0000
0101
0000
1000
0010
0100
0010
0100
,
0001
0000
0100
0000
0110
0000
1000
0010
0100
0001
0000
0010
0001
0000
1000
0010
,
1000
0000
0100
0000
0010
0000
0001
0000
1000
0010
0000
0010
1000
0001
0010
0002
,
0000
0000
1003
0010
1000
0100
0000
2100
0000
3001
0010
0100
1000
0010
0100
0001
,
1000
0100
0010
0000
1000
0000
0001
0100
0010
0100
1000
0001
0000
0101
0000
0210
,
0000
0000
0301
0100
1000
0100
0001
0020
0000
0031
0010
1000
0010
0001
0100
0010
,
1000
0001
1000
0000
0010
0000
1000
0010
1000
0001
0010
0001
1000
0010
0000
0210
,
0000
0000
0301
1000
0001
0010
0000
0210
0000
1300
0010
0100
0001
0010
0100
1000
,
0001
0100
1000
0000
0001
0000
1000
0100
0010
0100
0001
0010
0000
1100
0000
0012
,
0000
0000
1003
0100
0001
1000
0010
0002
0000
1003
0010
0001
1000
0100
0001
1000
,
0001
0010
0001
0010
0000
0011
0000
0011
0000
0011
0000
0100
1000
0000
0011
0000
,
1000
0010
1000
0010
0000
1010
0000
1010
0000
1010
0000
0100
0001
0000
1010
0000
,
0000
2002
0000
0000
,
0000
0000
3000
0000
,
0000
0000
0000
0000
,
0003
0000
0000
0000
;

//---------------dance-single - ----------------
#NOTEDATA:;
#CHARTNAME:11-16;
#STEPSTYPE:dance-single;
#DESCRIPTION:;
#CHARTSTYLE:;
#DIFFICULTY:Hard;
#METER:11;
#RADARVALUES:0.898212,1.020736,0.587982,0.415507,1.085806,802.000000,727.000000,75.000000,53.000000,0.000000,0.000000,0.000000,0.000000,0.000000,0.898212,1.020736,0.587982,0.415507,1.085806,802.000000,727.000000,75.000000,53.000000,0.000000,0.000000,0.000000,0.000000,0.000000;
#CREDIT:;
#NOTES:
0000
0000
0000
0000
,
0000
0000
0000
0000
,
1000
0010
1000
0010
0000
1000
0000
1000
0000
1000
0000
0010
1000
0000
1000
0000
,
0001
0010
0001
0010
0000
0001
0000
0001
0000
0001
0000
0010
0001
0000
0001
0000
,
1001
0000
0000
0000
,
1000
0000
0100
0000
0010
0000
0001
0000
0100
0010
0000
0100
0000
0101
0000
2010
,
0000
0000
3001
0010
0001
0010
0000
0210
0000
1300
0001
0200
0000
0301
1000
0100
,
0010
0000
1000
0000
0010
0000
0001
0000
1000
0100
1000
0010
0000
1010
0000
0102
,
0000
0000
1003
0010
1000
0010
1000
0002
0000
1003
0100
1000
0100
1000
0100
0010
,
0001
0000
0100
0000
0010
0000
1000
0000
0100
0010
0000
0100
0000
1100
0000
0012
,
0000
0000
1003
0010
1000
0010
0000
0210
0000
0301
1000
0200
0000
1300
0001
0100
,
0010
0000
0001
0000
0010
0000
1000
0000
0001
0100
0001
0010
0000
0011
0000
2100
,
0000
0000
3001
0010
0001
0010
0001
2000
0000
3001
0100
0001
0100
0001
0100
0001
,
2000
0000
0000
0000
0000
0000
0000
0000
0000
0000
0000
0000
0000
0000
3001
1000
,
0001
0000
0010
0100
0010
0100
0010
0100
0010
0100
0010
0100
0010
0100
0010
0100
,
0010
0000
0001
0000
0100
0000
1000
0000
0200
0000
0000
0310
0000
1010
0000
2010
,
0000
0000
3001
0000
1001
0000
0000
2100
0000
0000
3100
0010
0100
1000
0001
0000
,
0200
0000
0010
0000
0010
0000
0310
0000
2000
0000
0000
3001
0000
0011
0000
0021
,
0000
0000
0130
0000
1100
0000
0000
0101
0000
0000
0001
1000
0100
0000
0010
0000
,
0001
0100
0001
0000
1000
0100
1000
0000
0001
0100
0001
0010
0000
1001
0000
1001
,
0000
0000
0001
0100
0001
1000
0000
1200
0000
0000
1300
0001
1000
0000
0010
0000
,
1000
0010
1000
0000
0001
0010
0001
0000
1000
0100
1000
0010
0000
1001
0000
1002
,
0000
0000
1003
0000
0010
0100
0010
2000
0000
0000
0001
0000
3001
0000
1000
0000
,
0100
0010
0100
0010
0000
0100
0000
0100
0000
0100
0000
0010
0100
0000
0100
0000
,
0010
0000
0011
0000
0000
1001
0000
0000
1010
0000
0000
0110
0000
0000
0101
0000
,
2001
0000
0000
0100
0000
0000
0001
0000
0000
0000
0000
0000
0000
0000
3001
1000
,
0020
0000
0000
0000
0000
0000
0000
0000
0030
0000
1000
0000
0000
1000
0000
0000
,
1001
0000
0000
2100
0000
0000
0001
0000
0000
0000
0000
0000
3001
0000
1000
0000
,
0001
0000
0000
0000
0010
0000
0000
0000
0001
0000
0000
0000
0100
0000
0000
0000
0001
0000
0000
0000
0100
0000
0000
0000
0010
0000
0000
0000
1000
0000
0000
0000
0010
0000
0000
0000
1000
0000
0000
0001
0000
0000
0010
0000
0000
0001
0000
0000
,
0010
0000
0000
1100
0000
0000
0001
0000
0000
0000
0001
0000
0100
0000
0010
1000
,
0010
0000
0000
0101
0000
0000
1000
0000
0000
0000
0010
1000
0010
1000
0010
1000
,
0001
0000
1000
0100
0000
0100
0010
0000
0100
0000
0010
0000
0001
0000
0100
0000
,
1000
0000
0100
0001
0000
0001
0010
0000
0100
0000
0010
0000
0001
1000
0001
0000
,
1000
0000
0100
0010
0000
0010
0100
0000
0001
0000
0100
0000
1000
0000
0001
0000
,
0101
0000
0000
0101
0000
0000
1001
0000
2010
0000
0000
0000
3001
0000
0000
0000
,
0010
0001
0010
2100
0000
3010
1000
0201
,
0000
0000
0010
0000
0310
0000
1000
0001
1000
0000
0100
0010
0100
0000
1000
0000
,
0001
0100
1000
1200
0000
0310
0100
0102
,
0000
0000
1000
0000
1003
0000
0001
0010
0001
0000
0000
1001
0000
0000
1010
0000
,
0010
1000
0010
0102
0000
0013
0001
1200
,
0000
0000
0010
0000
0310
0000
0001
1000
0001
0000
0100
0010
0100
0000
0001
0000
,
1000
0100
0001
0201
0000
0310
0100
2100
,
0000
3010
1010
0000
1001
0000
0011
0000
,
0001
0000
1000
0010
1000
0010
0100
0000
0001
0010
0001
0010
0100
0000
0010
0001
,
0010
0001
0100
0000
0010
1000
0010
1000
0100
0000
0000
0011
0000
0000
1100
0000
,
0000
0000
0001
0100
0001
1000
0100
0000
1000
0100
1000
0001
0100
0000
0010
1000
,
0001
0010
0001
0000
0010
0001
1000
0010
1000
0000
0000
0101
0000
0000
1010
0000
,
0000
0000
0001
0010
0001
0000
1000
0000
0001
0100
0001
0000
1000
0100
0010
0000
,
0001
0000
0100
0000
0010
1000
0100
0010
0001
0000
0010
0100
1000
0001
0100
0000
,
0010
0000
1000
0010
1000
0010
1000
0010
1000
0001
1000
0001
1000
0001
1000
0001
,
0010
0001
0010
0001
0010
0001
0010
0001
1000
0100
0010
0001
0100
0010
1000
0000
,
0001
0000
0010
0000
0001
0000
0010
0000
0100
0010
0000
0100
1000
0000
0001
0000
,
1000
0000
0010
0000
1000
0000
0010
0000
0100
0010
0000
0100
0001
0000
1000
0000
,
0100
0000
0010
0000
0100
0000
0010
0000
0001
1000
0000
0010
0100
0000
0010
0000
,
1000
0000
0001
0010
0001
0000
1000
0010
1000
0010
1000
0000
0001
0000
0000
0000
,
1001
0000
0001
0100
0001
0000
0100
0001
0100
0000
0010
1000
0010
0000
1000
0010
,
1000
0000
0100
1000
0100
0000
1000
0100
1000
0000
0001
0010
0001
0000
0010
0001
,
1000
0100
0010
0100
0010
0100
0010
0100
,
0001
0000
1000
0000
0010
0001
0000
0100
0000
0210
0000
0000
0310
0000
1000
0000
,
0001
0000
1000
0100
0010
0001
0020
0000
0000
0000
0130
0000
0010
0000
0001
0000
,
1000
0000
0001
0100
0010
1000
0020
0000
0000
0000
1030
0000
0010
0000
0001
0000
,
0010
0000
1000
0001
0010
0100
0020
0000
0000
0000
0130
0000
1000
0000
0001
0000
,
0100
0010
0100
0010
0100
0000
0020
0000
0000
1030
0100
0000
0010
0000
0001
0000
,
1000
0000
0001
0100
0001
0010
0002
0000
0000
0000
0013
0000
0001
0000
0100
0000
,
0001
0000
1000
0100
1000
0010
2000
0000
0000
0000
3001
0000
0010
0000
1000
0000
,
0010
0000
0001
1000
0010
0100
0020
0000
0000
0000
0130
0000
0001
0000
1000
0000
,
0100
0010
0100
0010
0100
0000
0020
0000
0000
0031
0100
0000
0010
0000
1000
0001
,
1000
0000
0000
0000
0001
0010
0000
0100
0000
1000
0000
0010
0100
0010
0100
0000
,
0001
0010
0001
0000
1000
0010
1000
0000
0011
0000
0000
0110
0000
0000
1100
0000
,
1001
0000
0000
0000
1000
0010
0000
0100
0000
0001
0000
0010
0100
0000
1000
0000
,
0001
0000
0100
0000
1000
0000
0001
0000
0011
0000
0000
0110
0000
0000
1010
0000
,
1001
0000
0000
0000
0000
0000
0000
0000
0000
0000
0000
0000
0000
0000
0000
1002
,
0000
0000
1003
0010
1000
0010
0000
2001
0000
3001
1000
0200
0000
1300
0001
0100
,
0010
0000
0001
0000
0010
0000
1000
0000
0001
0100
0001
0010
0000
0011
0000
2100
,
0000
0000
3001
0010
0001
0010
0001
2000
0000
3001
0100
0001
0100
0001
0100
0010
,
1000
0000
0100
0000
0001
0000
1000
0000
0010
0001
0000
0100
0000
0101
0000
2010
,
0000
0000
3001
0010
0001
0010
0000
2100
0000
3001
0100
0020
0000
1030
0100
0010
,
0001
0000
1000
0000
0010
0000
0001
0000
0010
0100
0010
0100
0000
1010
0000
0102
,
0000
0000
1003
0100
1000
0100
1000
0002
0000
1003
0010
1000
0010
1000
0010
1000
,
0001
0010
0001
0010
0000
0001
0000
0001
0000
0001
0000
0010
0001
0000
0001
0000
,
1000
0010
1000
0010
0000
1000
0000
1000
0000
1000
0000
0010
1000
0000
1000
0000
,
0000
2002
0000
0000
,
0000
0000
3000
0000
,
0000
0000
0000
0000
,
0003
0000
0000
0000
;

//---------------dance-single - ----------------
#NOTEDATA:;
#CHARTNAME:09-14;
#STEPSTYPE:dance-single;
#DESCRIPTION:;
#CHARTSTYLE:;
#DIFFICULTY:Medium;
#METER:9;
#RADARVALUES:0.748137,0.856101,0.689898,0.431187,0.642860,668.000000,580.000000,88.000000,55.000000,0.000000,0.000000,0.000000,0.000000,0.000000,0.748137,0.856101,0.689898,0.431187,0.642860,668.000000,580.000000,88.000000,55.000000,0.000000,0.000000,0.000000,0.000000,0.000000;
#CREDIT:;
#NOTES:
0000
0000
0000
0000
,
0000
0000
0000
0000
,
1000
0000
0010
1000
0000
0010
0000
1000
0000
0010
0000
1000
0010
0000
1000
0000
,
0001
0000
0010
0001
0000
0010
0000
0001
0000
0010
0000
0001
0010
0000
0001
0000
,
1001
0000
0000
0000
,
1000
0000
0100
0000
0010
0000
0001
0000
0100
0001
0000
0001
0000
0110
0000
2010
,
0000
0000
3001
0000
0010
0001
0000
0012
0000
0000
1003
0010
0000
0010
1000
0000
,
0100
0000
0001
0000
0100
0000
1000
0000
0010
1000
0000
1000
0000
0110
0000
0102
,
0000
0000
0013
0000
0100
1000
0000
1200
0000
0000
0310
0000
0001
0000
1000
0000
,
0001
0000
0100
0000
0010
0000
1000
0000
0100
1000
0000
1000
0000
0110
0000
0012
,
0000
0000
1003
0000
0010
1000
0000
2010
0000
0000
3001
0010
0000
0010
0001
0000
,
0100
0000
1000
0000
0001
0000
0010
0000
1000
0001
0000
0001
0000
0110
0000
2100
,
0000
0000
3010
0000
0100
0001
0000
0201
0000
0000
0310
0000
1000
0000
0001
0000
,
0020
0000
0000
0000
0000
0000
0000
0000
0000
0000
0000
0000
0030
0000
0100
0010
,
0100
0000
0000
0000
,
1000
0000
0100
0000
1000
0000
0010
0000
0002
0000
0000
0013
0000
0110
0000
2010
,
0000
0000
3001
0000
0010
0000
0000
0012
0000
0000
1003
0000
0010
0000
0100
0000
,
0002
0000
0000
0000
1003
0000
0100
0000
0002
0000
0000
0103
0000
0110
0000
2100
,
0000
0000
3001
0000
0100
0000
0000
0120
0000
0000
1030
0000
0010
0000
0100
0000
,
0001
0000
0010
0000
0100
0000
0001
0000
0100
0000
0010
0001
0000
0101
0000
2001
,
0000
0000
3010
0000
1000
0100
0000
2100
0000
0000
3100
0000
0010
0000
0001
0000
,
1000
0000
0010
0000
0100
0000
1000
0000
0100
0000
0010
1000
0000
1100
0000
1002
,
0000
0000
0013
0000
0001
0100
0000
0201
0000
0000
0310
0000
0100
0000
0010
0000
,
1001
0000
0000
1001
0000
1001
0000
1001
0000
1001
0000
0001
1000
0000
1001
0000
,
0000
0000
0011
0000
0000
1100
0000
0000
1010
0000
0000
0101
0000
0000
0011
0000
,
2100
0000
0000
0001
0000
0000
0001
0000
0000
0000
0000
0000
0000
0000
3010
1000
,
0020
0000
0000
0000
0000
0000
0000
0000
0030
0000
1000
0000
0000
1000
0000
0000
,
0101
0000
0000
0102
0000
0000
1000
0000
0000
0000
0000
0000
0000
0000
0013
0000
,
0001
0000
0000
0010
0000
0000
0100
0000
1000
0000
0000
0001
0010
0000
0100
0000
,
1100
0000
0000
1100
0000
0000
0001
0000
0000
0000
1000
0000
0010
0000
0100
0000
,
0101
0000
0000
0101
0000
0000
1000
0000
0000
0000
1000
0100
0010
0000
0100
0000
,
1000
0000
0001
0100
0000
0001
0100
0000
0010
0000
1000
0000
0010
0000
0100
0000
,
0001
0000
0010
0100
0000
0010
0100
0000
1000
0000
0001
0000
1000
0001
1000
0000
,
0010
0000
0100
0001
0000
1000
0100
0000
1000
0000
0100
0000
0010
0000
0001
0000
,
0011
0000
0000
0011
0000
0000
1001
0000
2010
0000
0000
0000
3001
0000
0000
0000
,
1000
0010
1000
0200
0000
1300
0100
0002
,
0000
0000
0100
0000
0103
0000
1000
0100
2000
0000
0000
3020
0000
0000
1030
0000
,
0001
0010
0001
0200
0000
0301
0100
2000
,
0000
0000
0100
0000
3100
0000
0010
1000
0010
0000
0000
0101
0000
0000
0011
0000
,
1000
0100
1000
0020
0000
1030
0010
0002
,
0000
0000
0010
0000
0013
0000
1000
0010
2000
0000
0000
3200
0000
0000
0310
0000
,
0001
0100
0001
0020
0000
0031
0010
2000
,
0000
3010
1010
0000
0110
0000
0011
0000
,
1000
0010
0001
1000
0100
0001
1000
0010
,
0001
0000
1000
0000
0100
0000
0001
0000
0101
0000
0000
0110
0000
0000
1010
0000
,
0000
0001
0010
1000
0001
0100
1000
0001
,
0010
0000
1000
0000
0001
0000
0100
0000
1100
0000
0000
0110
0000
0000
0011
0000
,
0000
0000
1000
0010
1000
0000
0100
0000
0010
0000
0001
0000
0100
0001
0100
0000
,
1000
0000
0001
0000
0010
1000
0010
0000
1000
0000
0001
0000
0010
0001
0010
0000
,
0100
1000
1000
1000
0010
0100
0100
0100
,
0001
0000
0010
0000
0010
0000
0010
0000
1000
0000
0001
0000
0100
0010
0100
0000
,
1000
0000
0000
0001
0010
0000
0100
0000
1000
0000
0000
1000
0010
0000
0100
0000
,
0001
0000
0000
0001
0010
0000
0100
0000
1000
0000
0001
0000
0001
0000
0100
0000
,
0010
0000
0000
0010
1000
0000
0100
0000
0010
0000
0000
0010
0001
0000
0100
0000
,
0010
0000
0000
0010
1000
0000
0100
0000
0001
0000
0100
0000
1000
0000
0010
0000
,
1010
0000
0000
1000
0010
0000
0000
0010
0001
0000
0000
0001
0010
0000
0000
0010
,
1000
0000
0000
1000
0100
0000
0000
0100
0001
0000
0000
0001
0100
0000
0000
0100
,
1000
0010
0001
0010
1000
0100
0001
0100
,
1000
0000
0010
0000
0100
0001
0000
0010
0000
1200
0000
0000
0310
0000
0001
0000
,
1000
0000
0010
0100
0010
0000
0102
0000
0000
0000
1003
0000
0010
0000
0100
0000
,
0001
0000
0010
0100
0010
0000
2100
0000
0000
0000
3001
0000
0010
0000
0100
0000
,
1000
0000
0010
1000
0001
0000
0012
0000
0000
0000
0013
0000
0001
0000
1000
0000
,
0010
0100
0010
0000
0100
0000
0120
0000
0000
0000
1030
0000
0100
0000
0010
0000
,
0001
0000
0100
0010
0100
0000
2010
0000
0000
0000
3100
0000
0010
0000
0001
0000
,
1000
0000
0100
0010
0100
0000
0012
0000
0000
0000
0103
0000
0010
0000
1000
0000
,
0001
0000
0010
0001
1000
0000
2010
0000
0000
0000
3010
0000
1000
0000
0001
0000
,
0010
0100
0010
0000
0100
0000
0210
0000
0000
0000
1300
0000
0010
0000
0100
0000
,
0001
0000
0000
0000
1000
0010
0000
1000
0000
0010
0000
1000
0100
0000
0010
0000
,
0001
0000
0100
0000
0001
0000
0100
0000
0101
0000
0000
1001
0000
0000
1001
0000
,
1100
0000
0000
0000
0001
0010
0000
0001
0000
0010
0000
0001
0100
0000
0010
0000
,
1000
0000
0100
0000
0010
0000
0001
0000
1100
0000
0000
0110
0000
0000
0011
0000
,
1001
0000
0000
0000
0000
0000
0000
0000
0000
0000
0000
0000
0000
0000
0000
1002
,
0000
0000
1003
0000
0010
1000
0000
2010
0000
0000
3001
0010
0000
0010
0001
0000
,
0100
0000
1000
0000
0100
0000
0001
0000
0010
0001
0000
0001
0000
0110
0000
2100
,
0000
0000
3010
0000
0100
0001
0000
0201
0000
0000
0310
0000
1000
0000
0001
0000
,
1000
0000
0100
0000
0001
0000
1000
0000
0010
0100
0000
0010
0000
0011
0000
2001
,
0000
0000
3001
0000
0100
0010
0000
0210
0000
0000
0310
1000
0000
1000
0001
0000
,
0100
0000
1000
0000
0001
0000
0010
0000
0100
0010
0000
1000
0000
1010
0000
2001
,
0000
0000
3001
0000
0010
0100
0000
0210
0000
0000
1300
0000
0010
0000
0100
0000
,
0001
0000
0010
0001
0000
0010
0000
0001
0000
0010
0000
0001
0010
0000
0001
0000
,
1000
0000
0010
1000
0000
0010
0000
1000
0000
0010
0000
1000
0010
0000
1000
0000
,
0000
2002
0000
0000
,
0000
0000
3000
0000
,
0000
0000
0000
0000
,
0003
0000
0000
0000
;

//---------------dance-single - ----------------
#NOTEDATA:;
#CHARTNAME:08-11;
#STEPSTYPE:dance-single;
#DESCRIPTION:;
#CHARTSTYLE:;
#DIFFICULTY:Easy;
#METER:8;
#RADARVALUES:0.529743,0.559759,0.352789,0.595821,0.250872,473.000000,428.000000,45.000000,76.000000,0.000000,0.000000,0.000000,0.000000,0.000000,0.529743,0.559759,0.352789,0.595821,0.250872,473.000000,428.000000,45.000000,76.000000,0.000000,0.000000,0.000000,0.000000,0.000000;
#CREDIT:;
#NOTES:
0000
0000
0000
0000
,
0000
0000
0000
0000
,
1000
0000
0000
0010
0000
1000
0000
0010
0000
1000
0000
0000
0010
0000
1000
0000
,
0001
0000
0000
0010
0000
0001
0000
0010
0000
0001
0000
0000
0010
0000
0001
0000
,
1000
0000
0000
0000
,
0001
0000
0100
0000
0010
0000
1000
0000
0100
0000
0000
0000
1000
0000
0000
2020
,
0000
0000
3030
0000
0001
0000
0000
0022
0000
0000
0033
0000
1000
0000
0000
0000
,
0100
0000
0010
0000
0001
0000
0100
0000
0010
0000
0000
0000
1000
0000
0000
2020
,
0000
0000
3030
0000
0100
0000
0000
0202
0000
0000
0303
0000
0010
0000
0000
0000
,
1000
0000
0100
0000
0010
0000
0001
0000
0100
0000
0000
0000
0001
0000
0000
0022
,
0000
0000
0033
0000
1000
0000
0000
2020
0000
0000
3030
0000
0001
0000
0000
0000
,
0100
0000
0001
0000
0010
0000
0100
0000
1000
0000
0000
0000
0001
0000
0000
0022
,
0000
0000
0033
0000
0100
0000
0000
2200
0000
0000
3300
0000
0001
0000
0100
0000
,
0020
0000
0000
0000
,
0030
0000
0000
0000
,
1000
0000
0010
0000
1000
0000
0100
0000
0020
0000
0000
0000
0130
0000
0000
2002
,
0000
0000
3003
0000
0010
0000
0000
2002
0000
0000
3003
0000
0100
0000
0000
0000
,
0001
0000
1000
0000
0001
0000
1000
0000
0001
0000
0000
0000
1000
0000
0000
2200
,
0000
0000
3300
0000
0001
0000
0000
0202
0000
0000
0303
0000
1000
0000
0000
0000
,
0001
0000
0010
0000
0100
0000
1000
0000
0010
0000
0100
0000
0001
0000
0000
0220
,
0000
0000
0330
0000
1000
0000
0000
0220
0000
0000
0330
0000
0001
0000
0000
0000
,
1000
0000
0100
0000
0010
0000
0001
0000
0100
0000
0010
0000
1000
0000
0000
2002
,
0000
0000
3003
0000
0100
0000
0000
2002
0000
0000
3003
0000
0001
0000
0000
0000
,
0010
0000
0000
0100
0000
0010
0000
0100
0000
0010
0000
0000
0100
0000
0010
0000
,
0000
0000
0001
0000
0000
0100
0000
0000
1000
0000
0000
0100
0000
0000
0001
0000
,
0020
0000
0000
0001
0000
0000
0001
0000
0000
0000
0000
0000
0000
0000
0000
0000
,
0200
0000
0330
0000
,
1001
0000
0000
1020
0000
0000
1000
0000
0000
0000
0000
0000
0000
0000
0000
0000
,
0130
0001
1000
0100
,
0010
0000
0000
0010
0000
0000
0001
0000
0000
0000
0010
0000
0001
0000
1000
0000
,
0010
0000
0000
0010
0000
0000
1000
0000
0000
0000
0010
0000
1000
0000
0001
0000
,
1000
0000
0000
0100
0000
0000
0210
0000
0000
0000
1300
0000
0100
0000
0010
0000
,
0001
0000
0000
0100
0000
0000
0210
0000
0000
0000
0301
0000
0100
0000
0010
0000
,
1000
0000
0000
0001
0000
0000
1002
0000
0000
0000
1003
0000
0001
0000
0010
0000
,
0100
0000
0000
0100
0000
0000
0100
0000
0010
0000
0000
0000
1001
0000
0000
0000
,
0001
0100
0001
0200
0000
0310
1000
0200
,
0000
0010
0310
0001
0100
0000
0101
0000
,
1000
0100
1000
0200
0000
0310
0001
0200
,
0000
0310
0010
1000
0001
0000
1001
0000
,
0001
0010
0001
0020
0000
0130
1000
0020
,
0000
1000
1030
0001
0010
0000
0011
0000
,
1000
0010
1000
0020
0000
0130
0001
0010
,
0001
0011
1001
1010
,
0000
1000
0010
0000
0001
0010
0000
1000
,
0010
0000
0000
0000
0001
0000
0010
0000
2000
0000
0000
3100
0000
0000
1100
0000
,
0000
1000
0100
0000
0001
0100
0000
1000
,
0100
0000
0000
0000
0001
0000
0100
0000
2000
0000
0000
3010
0000
0000
1010
0000
,
0000
0001
0100
0001
1000
0100
1000
0010
,
1000
0000
0001
0010
0001
0010
0100
0000
,
1000
0001
0100
0001
1000
0100
1000
0100
,
0010
0001
0010
0001
1000
0100
0010
0001
,
0100
0000
0100
0000
0001
0100
1000
0000
,
0100
0000
0100
0000
1000
0100
0001
0000
,
0010
0000
0010
0000
0001
0010
1000
0000
,
0010
0000
0010
0000
1000
0010
0001
0000
,
1000
0010
0001
0000
0001
0010
1000
0000
,
1000
0100
0001
0000
0001
0100
1000
0000
,
1001
0000
0001
1000
0001
1000
0001
1000
,
0001
0000
0100
0000
0010
0000
0000
1000
0000
2000
0000
0000
3010
0000
0100
0000
,
0001
1000
0100
0020
0000
0130
0010
0001
,
1000
0001
0100
0020
0000
0130
0010
1000
,
0001
0010
0100
0002
0000
0103
0010
0001
,
1000
0010
1000
0020
0000
1000
1030
0000
,
1000
0001
0100
0020
0000
0130
0010
1000
,
0001
1000
0100
0020
0000
0130
0010
0001
,
1000
0010
0100
2000
0000
3100
0010
1000
,
0001
0010
0001
0020
0000
0001
0031
0000
,
1001
0000
0000
0000
1000
0000
0000
0010
0000
0010
0000
0000
0100
0000
0001
0000
,
0010
0000
0000
0000
0010
0000
0000
0000
0011
0000
0000
0100
0000
0000
0010
0000
,
1100
0000
0000
0000
0001
0000
0000
0100
0000
0100
0000
0000
0010
0000
1000
0000
,
0100
0000
0000
0000
1001
0000
0000
0000
0010
0000
0000
0010
0000
0000
0010
0000
,
1001
0000
0000
0000
0000
0000
0000
0000
0000
0000
0000
0000
0000
0000
0000
2002
,
0000
0000
3003
0000
0010
0000
0000
2002
0000
0000
3003
0000
0001
0000
0000
0000
,
0100
0000
0010
0000
1000
0000
0100
0000
0010
0000
0000
0000
0001
0000
0000
0022
,
0000
0000
0033
0000
0100
0000
0000
2200
0000
0000
3300
0000
0010
0000
0000
0000
,
0001
0000
0100
0000
1000
0000
0100
0000
0001
0000
0000
0000
0010
0000
0000
2200
,
0000
0000
3300
0000
0010
0000
0000
0202
0000
0000
0303
0000
0010
0000
0000
0000
,
1000
0000
0100
0000
0001
0000
0100
0000
1000
0000
0000
0000
0010
0000
0000
2002
,
0000
0000
3003
0000
0100
0000
0000
2002
0000
0000
3003
0000
0001
0000
0010
0000
,
0001
0000
0000
0010
0000
0001
0000
0010
0000
0001
0000
0000
0010
0000
0001
0000
,
1000
0000
0000
0010
0000
1000
0000
0010
0000
1000
0000
0000
0010
0000
1000
0000
,
0000
2002
0000
0000
,
0000
0000
3000
0000
,
0000
0000
0000
0000
,
0003
0000
0000
0000
;

//---------------dance-single - ----------------
#NOTEDATA:;
#CHARTNAME:05-07;
#STEPSTYPE:dance-single;
#DESCRIPTION:;
#CHARTSTYLE:;
#DIFFICULTY:Beginner;
#METER:5;
#RADARVALUES:0.381908,0.428051,0.415507,0.305750,0.000000,341.000000,288.000000,53.000000,39.000000,0.000000,0.000000,0.000000,0.000000,0.000000,0.381908,0.428051,0.415507,0.305750,0.000000,341.000000,288.000000,53.000000,39.000000,0.000000,0.000000,0.000000,0.000000,0.000000;
#CREDIT:;
#NOTES:
0000
0000
0000
0000
,
0000
0000
0000
0000
,
1010
1000
1000
1000
,
0011
0001
0001
0001
,
1001
0000
0000
0000
,
0001
0100
0001
0000
0100
0000
0001
0000
,
0011
1000
1010
0001
,
1000
0100
0010
0000
0001
0000
0100
0000
,
0110
1000
0110
0001
,
1000
0100
1000
0000
0100
0000
1000
0000
,
1010
0001
0011
1000
,
0001
0100
0010
0000
1000
0000
0100
0000
,
0110
0001
0110
1000
,
2002
0000
0000
0000
,
3003
0000
0000
0000
,
1000
0010
0100
0000
0001
0000
0010
0000
,
0011
0100
1100
0010
,
0001
1000
0001
0000
0100
0000
0010
0000
,
1010
0100
0101
1000
,
0001
0100
0010
0000
0001
0000
0010
0000
,
1010
1000
1100
0100
,
1000
0100
0010
0000
1000
0000
0010
0000
,
0011
0001
0101
0100
,
0110
0010
0010
0010
,
0000
2002
0000
0000
0000
0000
3003
0000
,
2100
0000
0000
0000
,
0001
0000
0000
3000
,
0102
0000
0000
0000
,
1000
1000
1000
0003
,
1001
0000
0100
0000
,
1001
0000
0010
0000
,
1000
0100
0001
0100
,
1000
0010
0001
0010
,
1000
0100
0010
0001
,
1001
0110
2002
3003
,
1000
0000
0010
0200
0000
0000
0310
2000
,
0000
3010
1000
1000
,
0001
0000
0010
0200
0000
0000
0310
0002
,
0000
0013
0001
0001
,
0100
0000
1000
0200
0000
0000
0301
0200
,
0000
0310
1000
1000
,
0100
0000
0001
0200
0000
0000
1300
0200
,
0000
0310
0110
1001
,
0000
0001
0000
0000
0100
0000
0000
0010
,
0000
1000
1010
0011
,
0000
1000
0000
0000
0100
0000
0000
0010
,
0000
0001
0011
1010
,
0000
0001
0100
0001
,
0010
0100
1000
0010
,
1000
1000
0100
0100
,
0010
0010
0001
1000
,
0010
0000
0010
0000
0010
0100
0010
0000
,
0100
0000
0100
0000
0100
0010
0100
0000
,
0001
0000
0001
0000
0001
1000
0001
0000
,
1000
0000
1000
0000
1000
0001
1000
0000
,
0001
0010
0001
0000
1000
0010
1000
0000
,
0001
0010
0001
0000
1000
0010
1000
0000
,
0002
1000
1000
1003
,
0001
0010
1000
0100
,
0001
0000
0001
0020
0000
0000
0130
0000
,
1000
0000
1000
0020
0000
0000
1030
0000
,
0010
0000
0001
0020
0000
0000
1030
0000
,
0100
0000
0100
0020
0000
0000
0031
0000
,
1000
0000
1000
0200
0000
0000
0310
0000
,
0001
0000
0001
0200
0000
0000
0301
0000
,
0010
0000
1000
0020
0000
0000
0031
0000
,
1000
0000
1000
0020
0000
0000
0130
0000
,
0202
0000
0000
0303
,
1000
1000
0101
0011
,
2200
0000
0000
3300
,
0001
0001
1100
1010
,
1001
0000
0000
0000
,
1001
0010
1001
0100
,
0001
0100
0010
0000
1000
0000
0100
0000
,
0110
0001
0110
1000
,
0001
0100
0001
0000
0100
0000
0000
0000
,
0202
0303
0022
0033
,
1000
0100
1000
0000
0100
0000
0000
0000
,
2200
3300
2020
3030
,
0011
0001
0001
0001
,
1010
1000
1000
1000
,
0000
2002
0000
0000
,
0000
0000
3000
0000
,
0000
0000
0000
0000
,
0003
0000
0000
0000
;
