#TITLE:Finale;
#SUBTITLE:;
#ARTIST:Dolphin;
#TITLETRANSLIT:;
#SUBTITLETRANSLIT:;
#ARTISTTRANSLIT:;
#GENRE:;
#CREDIT:;
#BANNER:[Round 4] - Finale.png;
#BACKGROUND:[Round 4] - Finale-bg.png;
#LYRICSPATH:;
#CDTITLE:CDtitle.png;
#MUSIC:[Round 4] - Finale.ogg;
#OFFSET:-2.034998;
#SAMPLESTART:32.248001;
#SAMPLELENGTH:15.840000;
#SELECTABLE:YES;
#BPMS:0.000000=124.999992
;
#STOPS:
;
#BGCHANGES:;
#KEYSOUNDS:;
#ATTACKS:;

//---------------dance-single - ----------------
#NOTES:
     dance-single:
     :
     Hard:
     7:
     0.290427,0.402888,0.044518,0.200331,0.033388,274.000000,268.000000,6.000000,27.000000,0.000000,0.000000,0.290427,0.402888,0.044518,0.200331,0.033388,274.000000,268.000000,6.000000,27.000000,0.000000,0.000000:
0000
0000
0000
0000
,
0000
0000
0000
0000
,
0000
0000
0000
0000
,
0000
0000
0000
0000
,
1000
0001
0010
0001
0000
1000
0100
1000
,
0000
0001
0010
0001
0000
1000
0100
1000
,
0000
0001
0100
0001
0000
1000
0010
1000
,
0000
0001
1000
0001
0000
1000
0200
0000
,
0310
0010
0001
1000
,
0001
0001
0100
0010
,
1000
1000
0010
0100
,
0001
0001
0010
0100
,
0010
0010
0001
1000
,
0100
0100
1000
0010
,
0100
0100
0010
1000
,
0001
0010
0100
1000
0001
0010
0100
1000
,
0002
0000
0103
0000
0010
1000
0001
0000
,
0010
0000
0100
0000
0010
0001
1000
0000
,
0001
0000
0100
0000
0010
1000
0100
0000
,
0010
0000
0100
0000
0010
0001
0100
0000
,
0001
0000
1000
0000
0100
1000
0010
0000
,
0100
0000
0001
0000
0010
0100
1000
0000
,
0100
0000
1000
0000
0010
0100
0001
0000
,
0010
0000
0100
0000
0010
0001
1000
0000
,
0001
0100
0001
0100
0020
0000
1030
0000
,
0100
1000
0100
1000
0020
0000
0230
0000
,
0301
1000
0010
0000
0100
0000
0001
0000
,
0010
0100
1000
0000
0100
0000
0020
0000
,
0032
0000
0103
0000
0010
1000
0001
0000
,
1000
0000
0001
0000
0010
0100
1000
0000
,
0100
0000
0010
0000
0100
0010
0001
0000
,
1000
0000
0000
1000
0000
0000
1000
0000
0000
0000
0001
1000
0001
0000
1000
0000
,
1020
0000
0000
0000
0000
0000
0000
0130
,
0000
0000
0000
0000
,
0210
0000
0000
0000
0000
0000
0000
0301
,
0000
0000
0000
0000
,
0021
0000
0000
0000
0000
0000
0000
0130
,
0000
0000
0010
0100
,
2100
0000
0000
0000
0000
3100
0010
0002
,
0000
0000
0000
0000
1003
0000
0001
0010
,
0100
0000
0000
0010
0000
0000
0001
0000
0000
0000
1000
0000
0000
0000
0010
0000
,
0000
0000
1000
0000
0001
0000
0000
0000
0010
0000
0000
0100
0000
0000
0010
0000
,
0001
0000
0100
0010
0000
0100
0010
2000
,
0000
0002
0000
0000
3003
0000
1000
0100
,
0010
0000
0000
0100
0000
0000
1000
0000
0000
0000
0001
0000
0000
0000
0100
0000
,
0000
0000
0001
0000
0010
0000
0000
0000
0100
0000
0000
0010
0000
0000
0001
0000
,
1000
0000
0000
0010
0000
0000
0100
0000
0000
0000
0010
0000
1000
0000
0200
0000
,
0000
0000
0000
0310
,
1001
0000
0000
0000
0000
0000
0000
0001
,
0000
0000
0000
0000
,
0100
0000
0000
0000
0000
0000
0000
0001
,
0000
0000
0000
0000
0000
1000
0100
0010
,
0100
0000
0000
0000
0000
0000
0000
0010
,
0000
0000
0000
0000
,
0001
0000
0000
0000
0000
0000
0000
1000
,
0000
0000
0000
0000
0000
0001
0100
1000
,
0200
0000
0010
0000
0310
0000
0010
1000
,
0200
0310
0020
0031
,
2000
0000
0010
0000
3001
0000
0001
0200
,
0010
0001
0310
0020
,
2030
0000
0100
0000
3100
0000
1000
0020
,
0000
0130
0002
0000
1003
0000
0001
0020
,
0000
0000
0000
0000
0000
0000
0031
2000
,
0000
0000
3002
0000
,
0103
0010
1000
0010
0000
0100
0010
0100
,
0001
0100
0010
0100
0000
0010
1000
0010
,
1000
0100
0010
0100
0000
0010
0001
0010
,
0100
0000
0000
0100
0000
0000
0100
0000
0000
0000
1000
0001
1000
0000
1001
0000
;

//---------------dance-single - ----------------
#NOTES:
     dance-single:
     :
     Medium:
     5:
     0.241669,0.352527,0.096456,0.081616,0.000000,228.000000,215.000000,13.000000,11.000000,0.000000,0.000000,0.241669,0.352527,0.096456,0.081616,0.000000,228.000000,215.000000,13.000000,11.000000,0.000000,0.000000:
0000
0000
0000
0000
,
0000
0000
0000
0000
,
0000
0000
0000
0000
,
0000
0000
0000
0000
,
1000
0001
0010
0001
,
1000
0100
1000
0001
,
0100
0001
0010
0100
,
0010
0000
0001
0000
1000
0001
0100
0000
,
1001
0001
1000
1000
,
0001
1000
0001
0001
,
1000
0001
1000
1000
,
0001
1000
0001
0001
,
0010
0100
0010
0010
,
0100
0010
0100
0100
,
0010
0100
0010
0010
,
0011
1100
0011
2100
,
3010
0100
0001
0010
,
0001
0000
0000
1000
0000
0000
0010
0000
,
1000
0100
1000
0010
,
0100
0000
0000
0001
0000
0000
0010
0000
,
0100
0010
0001
1000
,
0001
0000
0000
0100
0000
0000
1000
0000
,
0100
0010
1000
0001
,
1000
0000
0000
0010
0000
0000
0001
0000
,
0010
0100
0010
0000
0100
0000
1001
0000
,
0001
1000
0001
0000
1000
0000
1010
0000
,
1000
0001
1000
0000
0001
0000
0011
0000
,
0001
0100
0001
0000
0100
0000
0110
0000
,
1010
0000
1000
0000
0001
0010
0001
0000
,
1000
0000
0001
0000
1000
0010
1000
0000
,
0001
0000
1000
0000
0100
0010
0100
0000
,
2000
0000
3020
0000
,
0130
0000
0000
0000
0000
0000
0000
0001
,
0000
0000
0000
0000
,
1000
0000
0000
0000
0000
0000
0000
0100
,
0000
0000
0000
0000
,
0010
0000
0000
0000
0000
0000
0000
0100
,
0000
0000
1000
0001
,
0100
0000
0000
0000
0000
0010
0100
0001
,
0000
0000
1000
0001
,
1000
0010
1000
0000
0010
0000
0100
0000
,
0001
0100
0001
0000
0100
0000
0010
0000
,
1000
0001
0010
0000
0100
0000
0010
0000
,
0001
1000
0100
0000
1000
0000
0010
0000
,
0100
0001
0100
0000
0001
0000
1000
0000
,
0100
1000
0100
0000
1000
0000
0010
0000
,
0100
0010
1000
0000
0001
0000
0010
0000
,
0100
0010
0001
0000
1000
0000
1001
0000
,
0110
0000
0000
0000
0000
0000
0000
0100
,
0000
0000
0000
0000
,
0010
0000
0000
0000
0000
0000
0000
1000
,
0000
0000
0000
0000
,
0001
0000
0000
0000
0000
0000
0000
1000
,
0000
0000
0000
0000
,
0100
0000
0000
0000
0000
0000
0000
1000
,
0000
0000
0000
0000
0000
0001
0100
0010
,
2000
0000
0000
0000
0000
0000
3001
0200
,
0000
0000
0000
0310
0000
0000
0100
0000
,
1002
0000
0000
0000
0000
0000
1003
0200
,
0000
0300
0000
0010
,
0200
0000
0000
0000
0000
0000
0301
1000
,
0000
0000
0001
0000
0100
0000
0010
2000
,
0000
0000
0000
0000
0000
0000
3001
0200
,
0000
0000
0320
0000
,
0130
0010
1000
1000
,
0001
0100
0010
0010
,
0100
0001
1000
1000
,
0001
0000
1000
0000
0000
0010
0100
0001
;

//---------------dance-single - ----------------
#NOTES:
     dance-single:
     :
     Easy:
     3:
     0.135674,0.175939,0.037098,0.059357,0.000000,128.000000,123.000000,5.000000,8.000000,0.000000,0.000000,0.135674,0.175939,0.037098,0.059357,0.000000,128.000000,123.000000,5.000000,8.000000,0.000000,0.000000:
0000
0000
0000
0000
,
0000
0000
0000
0000
,
0000
0000
0000
0000
,
0000
0000
0000
0000
,
1000
0000
0000
0000
,
0001
0000
0000
0000
,
0100
0000
0000
0000
,
0010
0000
0000
0100
,
1001
0000
1000
0000
,
1000
0000
1000
0000
,
0001
0000
0001
0000
,
0001
0000
0001
0000
,
0100
0000
0100
0000
,
0100
0000
0100
0000
,
0010
0000
0010
0000
,
1000
0100
0010
0001
,
2000
0000
3000
0001
,
0100
0000
0000
0001
0000
0000
0010
0000
,
0200
0000
0300
0010
,
0001
0000
0000
1000
0000
0000
0100
0000
,
2000
0000
3000
0100
,
1000
0000
0000
0010
0000
0000
0100
0000
,
0002
0000
0003
0010
,
0001
0000
0000
1000
0000
0000
0010
0000
,
0200
0000
0300
0010
,
1000
0000
0000
0001
0000
0000
0010
0000
,
0002
0000
0000
1003
0000
0000
0000
0000
,
0100
0000
0000
0010
,
1000
0000
0000
0001
,
0010
0100
0010
0001
,
1000
0000
0000
0001
0000
0000
0000
0000
,
0100
0000
0010
0000
,
1001
0000
0000
0000
0000
0000
0000
1000
,
0000
0000
0000
0000
,
0010
0000
0000
0000
0000
0000
0000
0100
,
0000
0000
0000
0000
,
0001
0000
0000
0000
0000
0000
0000
0010
,
0000
0000
0000
0000
,
0100
0000
0000
0000
0000
0000
0000
0010
,
0000
0000
0001
0000
,
1000
0000
0001
0000
,
0100
0000
0010
0000
,
1000
0000
0001
0000
,
0010
0000
0001
0000
,
1000
0000
0100
0000
,
1000
0000
0010
0000
,
0100
0000
0001
0000
,
1000
0000
0000
0100
,
1001
0000
0000
0000
0000
0000
0000
1000
,
0000
0000
0000
0000
,
0010
0000
0000
0000
0000
0000
0000
1000
,
0000
0000
0000
0000
,
0001
0000
0000
0000
0000
0000
0000
0100
,
0000
0000
0000
0000
,
0001
0000
0000
0000
0000
0000
0000
0010
,
0000
0000
0000
0100
,
1002
0000
0000
1003
,
0001
0000
0100
0001
,
0010
0000
0000
0100
,
0000
0000
0000
0010
,
0001
0000
0000
1000
,
0100
1000
0010
0100
,
0002
0000
0000
1003
,
0001
0000
1000
0000
,
0110
0000
0010
0000
,
0100
0000
0001
0000
,
1000
0000
0100
0000
,
1000
0000
0001
1000
;

//---------------dance-single - ----------------
#NOTES:
     dance-single:
     :
     Beginner:
     1:
     0.076317,0.125671,0.022259,0.000000,0.000000,72.000000,69.000000,3.000000,0.000000,0.000000,0.000000,0.076317,0.125671,0.022259,0.000000,0.000000,72.000000,69.000000,3.000000,0.000000,0.000000,0.000000:
// measure 0
0000
0000
0000
0000
,  // measure 1
0000
0000
0000
0000
,  // measure 2
0000
0000
0000
0000
,  // measure 3
0000
0000
0000
0000
,  // measure 4
1000
0000
0000
0000
,  // measure 5
0001
0000
0000
0000
,  // measure 6
1000
0000
0000
0000
,  // measure 7
0001
0000
0000
0000
,  // measure 8
0110
0000
0000
0000
,  // measure 9
0100
0000
0000
0000
,  // measure 10
0100
0000
0000
0000
,  // measure 11
0100
0000
0000
0000
,  // measure 12
0001
0000
0000
0000
,  // measure 13
0001
0000
0000
0000
,  // measure 14
0001
0000
0000
0000
,  // measure 15
1000
0000
0000
0010
,  // measure 16
0010
0000
0000
0100
,  // measure 17
0100
0000
0000
0000
,  // measure 18
1000
0000
0000
0001
,  // measure 19
0001
0000
0000
0000
,  // measure 20
0100
0000
0000
0010
,  // measure 21
0010
0000
0000
0000
,  // measure 22
1000
0000
0000
0100
,  // measure 23
0100
0000
0000
0000
,  // measure 24
0010
0000
0000
0001
,  // measure 25
0001
0000
0000
0000
,  // measure 26
1000
0000
0000
0000
,  // measure 27
0001
0000
0000
0100
,  // measure 28
0100
0000
0000
0000
,  // measure 29
0010
0000
0000
0000
,  // measure 30
1000
0000
0000
0000
,  // measure 31
0001
0000
1000
0000
,  // measure 32
1001
0000
0000
0000
,  // measure 33
0000
0000
0000
0000
,  // measure 34
0010
0000
0000
0000
,  // measure 35
0000
0000
0000
0000
,  // measure 36
0100
0000
0000
0000
,  // measure 37
0000
0000
0000
0000
,  // measure 38
0001
0000
0000
0000
,  // measure 39
0000
0000
0000
0000
,  // measure 40
1000
0000
0000
0000
,  // measure 41
0001
0000
0000
0000
,  // measure 42
0100
0000
0000
0000
,  // measure 43
0010
0000
0000
0000
,  // measure 44
1000
0000
0000
0000
,  // measure 45
0100
0000
0000
0000
,  // measure 46
1000
0000
0000
0000
,  // measure 47
0001
0000
0000
0100
,  // measure 48
0110
0000
0000
0000
,  // measure 49
0000
0000
0000
0000
,  // measure 50
0010
0000
0000
0000
,  // measure 51
0000
0000
0000
0000
,  // measure 52
1000
0000
0000
0000
,  // measure 53
0000
0000
0000
0000
,  // measure 54
0001
0000
0000
0000
,  // measure 55
0000
0000
0000
0100
,  // measure 56
0010
0000
0000
0000
,  // measure 57
1000
0000
0000
0000
,  // measure 58
0001
0000
0000
0000
,  // measure 59
0010
0000
0000
0000
,  // measure 60
0001
0000
0000
0000
,  // measure 61
1000
0000
0001
0000
,  // measure 62
1000
0000
0000
0000
,  // measure 63
0010
0000
0010
0000
,  // measure 64
0010
0000
0000
0000
,  // measure 65
0100
0000
0000
0000
,  // measure 66
0100
0000
0000
0000
,  // measure 67
0100
0000
0000
0001
;
