#VERSION:0.83;
#TITLE:YOU AND I;
#SUBTITLE:;
#ARTIST:Dreamcatcher;
#TITLETRANSLIT:;
#SUBTITLETRANSLIT:;
#ARTISTTRANSLIT:;
#GENRE:;
#ORIGIN:;
#CREDIT:;
#BANNER:[Round 3] - YOU AND I.png;
#BACKGROUND:[Round 3] - YOU AND I-bg.png;
#PREVIEWVID:;
#JACKET:[Round 3] - YOU AND I-jacket.png;
#CDIMAGE:;
#DISCIMAGE:;
#LYRICSPATH:;
#CDTITLE:cdtitle.png;
#MUSIC:[Round 3] - YOU AND I.ogg;
#OFFSET:2.409000;
#SAMPLESTART:39.646999;
#SAMPLELENGTH:15.000000;
#SELECTABLE:YES;
#BPMS:0.000=97.000,
66.000=48.500,
66.500=194.000,
163.000=97.000,
175.000=48.500,
176.000=24.250,
176.500=48.500,
185.000=97.000,
187.000=194.000;
#STOPS:66.500=0.464,
176.500=1.856;
#DELAYS:;
#WARPS:;
#TIMESIGNATURES:0.000=4=4;
#TICKCOUNTS:0.000=4;
#COMBOS:0.000=1;
#SPEEDS:0.000=1.000=0.000=0;
#SCROLLS:0.000=1.000;
#FAKES:;
#LABELS:0.000=Song Start;
#BGCHANGES:3.625=[Round 3] - YOU AND I.avi=1.000=0=0=0=StretchNoLoop====,
99999=-nosongbg-=1.000=0=0=0 // don't automatically add -songbackground-
;
#KEYSOUNDS:;
#ATTACKS:
;

//---------------dance-single - ----------------
#NOTEDATA:;
#CHARTNAME:9646_ESP;
#STEPSTYPE:dance-single;
#DESCRIPTION:;
#CHARTSTYLE:Dance;
#DIFFICULTY:Hard;
#METER:9;
#RADARVALUES:0.511971,0.775082,0.164474,0.562673,0.160145,414.000000,395.000000,19.000000,65.000000,0.000000,0.000000,0.000000,0.000000,0.000000,0.511971,0.775082,0.164474,0.562673,0.160145,414.000000,395.000000,19.000000,65.000000,0.000000,0.000000,0.000000,0.000000,0.000000;
#CREDIT:9646;
#NOTES:
// measure 0
0000
0000
0000
0000
,  // measure 1
0000
0000
0000
0000
,  // measure 2
0000
0000
0000
0000
,  // measure 3
0000
0000
0000
0000
,  // measure 4
0000
0000
0000
0000
,  // measure 5
0010
0010
0000
0100
0010
0000
0100
1000
0001
0000
1000
0000
0020
0000
0000
0000
,  // measure 6
0130
0100
0000
0010
0100
0000
0010
1000
0001
0000
0010
0000
0200
0000
0000
0000
,  // measure 7
0310
0000
0100
1000
0001
0000
1000
0000
0020
0000
0032
0000
0013
0000
1000
0000
,  // measure 8
0002
0000
0003
0010
0100
0000
0020
0000
0032
0000
2003
0000
0002
0000
3000
0000
,  // measure 9
1003
0100
1000
0000
0001
0100
0001
0000
2000
0000
3000
0000
0002
0000
0003
0000
,  // measure 10
1000
0100
1000
0000
0001
0100
0001
0000
0020
0000
0030
0000
0200
0000
0300
0000
,  // measure 11
2000
0000
3001
0100
0001
0100
0010
1000
0002
0000
0013
0000
1000
0000
0010
0000
,  // measure 12
0002
0003
0001
1000
0002
0003
0002
0000
,  // measure 13
0103
0010
1000
0000
0100
0010
0001
0000
2000
0000
0000
0000
3020
0000
0030
0000
,  // measure 14
0100
0010
1000
0000
0100
0010
0001
0000
0020
0000
0000
0000
0230
0000
0300
0000
,  // measure 15
0011
0000
1000
0100
1100
0000
0101
0000
0110
0000
1000
0100
0020
0000
0031
0000
,  // measure 16
1000
0000
0000
0000
0100
0000
0000
0000
1000
0000
0000
0000
0100
0000
0000
0000
1000
0000
0000
0000
0010
0000
0000
0000
0100
0000
0000
0000
0001
0000
0000
0000
0020
0000
0000
0000
0000
0000
0130
1000
0001
0000
0000
0000
0000
0000
0000
0000
0120
0000
0000
0000
0000
0000
0000
0000
0000
0000
0000
0000
0000
0000
0000
0000
,  // measure 17
1030
0001
0010
0100
1000
0001
1000
0010
,  // measure 18
1000
0010
0001
0010
1000
0001
0010
0100
,  // measure 19
0010
0100
0001
0100
1000
0001
2000
0010
,  // measure 20
3010
0001
0010
0010
1000
0000
1002
0000
,  // measure 21
0013
0100
1000
0010
1000
0010
0100
1000
,  // measure 22
0100
0010
1000
0100
0010
0100
1000
0001
,  // measure 23
1000
0001
0010
0100
1000
0001
1000
0010
,  // measure 24
0100
0000
0010
1000
0010
0000
0100
0000
0001
0000
0010
0000
0120
0000
0000
0000
,  // measure 25
0031
1000
0010
0100
0010
0100
0001
0010
,  // measure 26
0001
0010
1000
0010
0100
0001
0100
1000
,  // measure 27
0100
1000
0001
0010
0100
1000
0001
0100
,  // measure 28
0001
1000
0010
0100
0020
0000
0130
0000
,  // measure 29
1001
0000
0001
0010
1000
0002
0103
2000
,  // measure 30
0100
0000
3001
0100
0010
0000
1000
0100
,  // measure 31
0100
0000
0001
0000
0100
0000
0100
0000
1000
0000
0100
0010
0100
0000
1000
0000
,  // measure 32
0001
1000
0010
0100
0001
1000
0002
0000
,  // measure 33
0100
0100
0103
0020
,  // measure 34
0100
0100
0130
2000
,  // measure 35
0001
0001
3001
0020
,  // measure 36
0100
0100
0130
2000
,  // measure 37
3100
0002
0013
2000
,  // measure 38
3010
0000
0002
0000
0103
0000
1000
0100
,  // measure 39
1000
0000
0001
0010
0001
0000
0110
0000
,  // measure 40
1100
1001
0101
0120
,  // measure 41
0000
2030
0100
3020
,  // measure 42
0001
0000
2030
0000
3010
0100
0002
0000
,  // measure 43
0000
0000
0000
0000
0000
0000
0000
0000
0100
0000
0000
0000
0000
0000
0000
0000
1003
0000
0000
0000
0100
0000
0000
0000
0020
0000
0000
0000
0000
0000
0130
2000
,  // measure 44
0002
3003
2000
0000
3002
0000
0203
0000
,  // measure 45
0320
0100
2030
0000
3002
0000
0023
0000
,  // measure 46
0230
0000
0310
0001
1000
0000
0010
0001
0000
0010
2000
0000
3001
0000
0010
0000
,  // measure 47
0001
0010
1000
0010
0100
0001
0100
1000
,  // measure 48
0100
1000
0001
0010
0100
1000
0001
0100
,  // measure 49
0001
1000
0010
0100
0020
0000
0130
0000
,  // measure 50
1001
0000
0001
0010
1000
0002
0103
2000
,  // measure 51
0100
0000
3001
0100
0010
0000
1000
0100
,  // measure 52
0100
0000
0001
0000
0100
0000
0100
0000
1000
0000
0100
0010
0100
0000
1000
0000
,  // measure 53
0001
1000
0010
0100
0001
1000
2001
0000
,  // measure 54
3100
0000
0010
0001
1000
0000
0010
0100
,  // measure 55
0010
0100
0001
0010
0100
1000
0002
0000
,  // measure 56
0013
0000
0100
1000
0001
1000
0010
0001
,  // measure 57
0010
0000
1000
0010
1000
0000
0001
0000
0010
0000
0100
0000
0210
0000
0000
0000
,  // measure 58
0310
0000
0100
0000
1000
0000
0001
0000
1000
0000
0010
0100
0010
0000
0100
0000
,  // measure 59
0001
0100
0010
1000
0100
0010
0002
0000
,  // measure 60
0000
0000
0000
0000
0003
0000
1100
1000
,  // measure 61
0001
0101
0100
0010
2002
0000
3003
0000
;

//---------------pump-single - ----------------
#NOTEDATA:;
#CHARTNAME:;
#STEPSTYPE:pump-single;
#DESCRIPTION:;
#CHARTSTYLE:;
#DIFFICULTY:Hard;
#METER:1;
#RADARVALUES:0.166947,0.283934,0.077909,0.242382,0.112535,135.000000,126.000000,9.000000,28.000000,0.000000,0.000000,0.000000,0.000000,0.000000,0.166947,0.283934,0.077909,0.242382,0.112535,135.000000,126.000000,9.000000,28.000000,0.000000,0.000000,0.000000,0.000000,0.000000;
#CREDIT:;
#NOTES:
00000
00000
00000
00000
,
00000
00000
00000
00000
,
00000
00000
00000
00000
,
00000
00000
00000
00000
,
00000
00000
00000
00000
,
00100
00100
00000
00100
00100
00000
00010
10000
00100
00000
01000
00000
00002
00000
00003
00000
,
00100
00100
00000
00100
00100
00000
00001
01000
00100
00000
10000
00000
00020
00000
00030
00000
,
00001
00000
00010
01000
00100
00000
00010
00000
00001
00000
00010
00000
00100
00000
02000
00000
,
13000
00000
00000
00100
00001
00000
00100
00000
00010
00000
00001
00000
00200
00000
00300
00000
,
10000
00100
10000
00000
00010
00100
00010
00000
02000
00000
00000
00000
00002
00000
03003
00000
,
01000
00100
01000
00000
00001
00100
00001
00000
20000
00000
00000
00000
00020
00000
30030
00000
,
00200
00000
00310
01000
00001
10000
00100
01000
00020
00000
00230
00000
00302
00000
00023
00000
,
00230
00300
20000
32000
03200
00300
00200
00300
,
00010
00100
00010
00000
10000
00100
10000
00000
00002
00000
00000
00000
02000
00000
03003
00000
,
00001
00100
00001
00000
01000
00100
01000
00000
00020
00000
00000
00000
20000
00000
30030
00000
,
10010
00000
10001
00001
01001
00000
01010
00000
10100
00000
00101
00000
01100
00000
00110
00000
,
10000
00000
00000
00000
00100
00000
00000
00000
10000
00000
00000
00000
00010
00000
00000
00000
00100
00000
00000
00000
00001
00000
00000
00000
01000
00000
00000
00000
00100
00000
00000
00000
00020
00000
00000
00000
00000
00000
00031
10000
00100
00000
00000
00000
00000
00000
00000
00000
01020
00000
00000
00000
00000
00000
00000
00000
00000
00000
00000
00000
00000
00000
00000
00000
,
10030
00001
00100
00001
10000
00100
02000
00000
,
03010
00000
00100
00001
02000
00000
03010
00000
,
00100
00010
10000
00100
01000
00001
00200
00000
,
00310
00020
10030
00000
;

//---------------dance-single - ----------------
#NOTEDATA:;
#CHARTNAME:9646_DSP;
#STEPSTYPE:dance-single;
#DESCRIPTION:;
#CHARTSTYLE:Dance;
#DIFFICULTY:Medium;
#METER:7;
#RADARVALUES:0.406856,0.587993,0.103878,0.683864,0.103878,329.000000,317.000000,12.000000,79.000000,0.000000,0.000000,0.000000,0.000000,0.000000,0.406856,0.587993,0.103878,0.683864,0.103878,329.000000,317.000000,12.000000,79.000000,0.000000,0.000000,0.000000,0.000000,0.000000;
#CREDIT:9646;
#NOTES:
0000
0000
0000
0000
,
0000
0000
0000
0000
,
0000
0000
0000
0000
,
0000
0000
0000
0000
,
0000
0000
0000
0000
,
1000
0010
0000
1000
0010
0000
0100
0001
1000
0000
0100
0000
0020
0000
0000
0000
,
0031
0010
0000
0001
0010
0000
0100
1000
0001
0000
0100
0000
0020
0000
0000
0000
,
1030
0000
0100
0010
0001
0000
1000
0000
0020
0000
0032
0000
0013
0000
2000
0000
,
3001
0000
0000
1000
0001
0000
0020
0000
0230
0000
2300
0000
0002
0000
3003
0000
,
1000
0100
1000
0000
0001
1000
0001
0000
2000
0000
3000
0000
0020
0000
0030
0000
,
0100
0001
0100
0000
0001
1000
0001
0000
0020
0000
0030
0000
0200
0000
0300
0000
,
2000
0000
3001
0010
0100
0000
0100
0000
0010
0000
0001
0000
1000
0000
0010
0000
,
0020
0000
0030
0100
0200
0300
0020
0000
,
0130
1000
0100
0000
0001
0100
0001
0000
0020
0000
0000
0000
0230
0000
0300
0000
,
0100
0001
0100
0000
1000
0100
1000
0000
0020
0000
0000
0000
0230
0000
0300
0000
,
0110
0000
0010
0010
1000
0000
0001
0000
0010
0000
0010
0100
0020
0000
0031
0000
,
2000
0000
0100
0000
3001
0100
0010
1000
0002
0000
1003
0000
1200
0000
0000
0000
,
0310
0000
0100
1000
0010
0100
0020
0000
,
0031
0000
0010
1000
0001
0000
0020
0000
,
0130
1000
0001
0100
0010
1000
0002
0000
,
0103
2000
3100
0012
,
1003
0000
0010
0100
0001
0100
0020
0000
,
1030
0000
0100
0010
0100
0000
2000
0000
,
3001
0020
0000
0130
1000
0001
2000
0000
,
3010
0000
0100
0001
0010
0000
1100
0000
,
0001
0000
0100
0010
0001
0010
0200
0000
,
0310
0000
1000
0100
0020
0000
0032
0000
,
1003
0010
0000
0001
0010
0000
2000
0000
,
3010
0000
0100
0001
0020
0000
0130
0000
,
1001
0000
1000
0010
0001
2000
0000
0000
,
3200
0302
0013
0110
,
1000
0100
0000
0001
0100
0000
1000
0001
,
1000
0010
0100
2010
,
0010
0001
0001
3200
,
0010
0010
0001
2300
,
0100
0001
0001
3020
,
0100
0100
1000
2030
,
3100
0001
0001
0200
,
1300
0010
0010
1000
,
1000
0001
0001
0100
,
1010
0001
0110
2000
,
0000
3020
0000
0032
,
0000
0000
0203
0000
1300
0001
0002
0000
,
0000
0000
0003
0000
0010
0100
0200
0000
,
2000
3300
0002
0000
0023
0000
0230
0000
,
1300
1000
0020
0000
0032
0000
0203
0000
,
2300
3000
0100
0010
0100
0000
0010
0001
0000
1000
0010
0000
0200
0000
0000
0000
,
0310
0000
1000
0100
0020
0000
0032
0000
,
1003
0010
0000
0001
0010
0000
2000
0000
,
3010
0000
0100
0001
0020
0000
0130
0000
,
1001
0000
1000
0010
0001
2000
0000
0000
,
3200
0302
0013
0110
,
1000
0100
0000
0001
0100
0000
1000
0001
,
1000
0010
0000
0100
0001
1000
0002
0000
,
0013
2000
3100
0002
,
0103
0010
0000
1000
0001
0000
0020
0000
,
0130
0000
0010
0100
0010
0001
1000
0100
,
0010
0002
0000
0013
0100
0000
2100
0000
,
3001
0000
2000
0000
3010
0000
0010
0100
,
1000
0100
0010
0001
1000
0100
0020
0000
,
0000
0000
0000
0000
0030
0000
1000
0100
,
0100
0001
0100
0100
0020
0000
0030
0000
;

//---------------dance-single - ----------------
#NOTEDATA:;
#CHARTNAME:9646_BSP;
#STEPSTYPE:dance-single;
#DESCRIPTION:;
#CHARTSTYLE:Dance;
#DIFFICULTY:Easy;
#METER:5;
#RADARVALUES:0.294321,0.427632,0.112535,0.476108,0.008657,238.000000,225.000000,13.000000,55.000000,0.000000,0.000000,0.000000,0.000000,0.000000,0.294321,0.427632,0.112535,0.476108,0.008657,238.000000,225.000000,13.000000,55.000000,0.000000,0.000000,0.000000,0.000000,0.000000;
#CREDIT:9646;
#NOTES:
0000
0000
0000
0000
,
0000
0000
0000
0000
,
0000
0000
0000
0000
,
0000
0000
0000
0000
,
0000
0000
0000
0000
,
0010
0000
0110
0000
1000
0001
0020
0030
,
0100
0000
0110
0000
0001
1000
0020
0030
,
0001
0000
0001
0000
1000
0100
0001
1000
,
0001
0000
0001
0000
0010
1000
2000
3000
,
0001
0000
0001
0000
0002
0003
0200
0300
,
1000
0000
1000
0000
2000
3000
0020
0030
,
0200
1000
0010
0001
,
0302
0003
2000
3000
,
0001
0000
0001
0000
0002
0003
0020
0030
,
1000
0000
1000
0000
2000
3000
0200
0300
,
0001
0001
0010
0010
0100
1000
0001
0001
,
1000
0001
0100
0010
2000
3000
1002
0000
,
0013
1000
0010
0001
,
0001
0100
0010
1000
,
0100
0001
0100
2000
,
3000
0002
0003
0102
,
1003
0100
0001
0100
,
0100
1000
0001
0010
,
0100
1000
0010
0200
,
0300
0001
1000
1002
,
0013
0100
1000
0010
,
0010
0001
1000
0100
,
0100
0001
0100
0010
,
1000
0002
0000
0013
,
0110
0001
1000
0020
,
0031
0010
1000
0100
,
0000
0010
0000
0000
0001
0000
0002
0000
,
1000
0103
0010
2000
,
0100
0100
0100
0001
,
0001
0010
0010
3002
,
0100
0100
0100
1000
,
1000
0010
0010
1003
,
1100
0010
0100
0001
,
0101
0010
0100
2000
,
3010
0002
0103
1000
,
0100
0010
0001
2000
,
0000
3200
0000
0302
,
0000
0023
1030
2000
,
0000
3000
0001
0002
,
2000
3003
0002
0000
0023
0000
0230
0000
,
2300
3001
0002
0000
0203
0000
0320
0000
,
2030
0000
3100
0001
0100
0000
0000
1000
0000
0000
0010
0000
0010
0000
0000
0000
,
0001
0001
1000
0100
,
0100
0001
0100
0010
,
1000
0002
0000
0013
,
0110
0001
1000
0020
,
0031
0010
1000
0100
,
0000
0010
0000
0000
0001
0000
0002
0000
,
1000
0103
0010
1002
,
0013
0100
1000
2000
,
3010
0100
0010
2000
,
3100
0001
0001
1000
,
0010
0001
0010
0220
,
0330
2000
3010
0001
,
0001
0100
1000
0022
,
0000
0000
0033
1100
,
1000
0001
0000
0100
0020
0000
0030
0000
;

//---------------dance-single - ----------------
#NOTEDATA:;
#CHARTNAME:9646_BEG;
#STEPSTYPE:dance-single;
#DESCRIPTION:;
#CHARTSTYLE:Dance;
#DIFFICULTY:Beginner;
#METER:2;
#RADARVALUES:0.129848,0.213816,0.000000,0.251039,0.000000,105.000000,105.000000,0.000000,29.000000,0.000000,0.000000,0.000000,0.000000,0.000000,0.129848,0.213816,0.000000,0.251039,0.000000,105.000000,105.000000,0.000000,29.000000,0.000000,0.000000,0.000000,0.000000,0.000000;
#CREDIT:9646;
#NOTES:
0000
0000
0000
0000
,
0000
0000
0000
0000
,
0000
0000
0000
0000
,
0000
0000
0000
0000
,
0000
0000
0000
0000
,
0010
0000
0200
0300
,
0010
0000
0200
0300
,
1000
0000
0010
0000
,
0001
0000
0010
0000
,
2000
0000
3000
0000
,
0002
0000
0003
0000
,
2000
0000
0000
0000
,
3000
0000
2000
3000
,
0001
0001
0002
0003
,
1000
1000
2000
3000
,
0010
0010
0010
0010
,
0100
0000
0010
0000
0020
0030
1000
0000
,
0000
1000
0000
0100
,
0000
0001
0000
0100
,
0000
0100
0000
1000
,
0000
0001
0000
1000
,
0000
0010
0000
0001
,
0000
0001
0000
1000
,
0000
0100
0000
0001
,
0000
0001
0000
1000
,
0000
1000
0000
0100
,
0000
0001
0000
0010
,
0000
0010
0000
1000
,
0000
0002
0000
0003
,
0000
0010
0000
2000
,
0000
3000
0000
0002
,
0000
0000
0000
0003
,
0000
0100
0000
2000
,
0000
3000
0000
0002
,
0000
0003
0000
0020
,
0000
0030
0000
0200
,
0000
0300
0000
1000
,
0000
1000
0000
0001
,
0000
0001
0000
0100
,
0000
0100
0000
0010
,
0010
0010
0010
0020
,
0000
0030
0000
0200
,
0000
0300
0001
2000
,
0000
3000
0100
0020
,
0000
0030
0002
0000
0003
0000
2000
0000
,
3000
0020
0030
0200
,
0300
0010
1000
0100
,
0000
0001
0000
0010
,
0000
0010
0000
1000
,
0000
0002
0000
0003
,
0000
0010
0000
2000
,
0000
3000
0000
0002
,
0000
0000
0000
0003
,
0000
0100
0000
0100
,
0000
1000
0000
0001
,
0000
0001
0000
1000
,
0000
0010
0000
0001
,
0000
0100
0000
1000
,
0000
1000
0000
0010
,
0000
0001
0000
0020
,
0000
0000
0030
1000
,
0000
1000
0000
0000
0002
0000
0003
0000
;
