#VERSION:0.83;
#TITLE:Snailchan Adventure;
#SUBTITLE:;
#ARTIST:Snail's House;
#TITLETRANSLIT:;
#SUBTITLETRANSLIT:;
#ARTISTTRANSLIT:;
#GENRE:;
#ORIGIN:;
#CREDIT:;
#BANNER:[Round 3] - Snailchan Adventure.png;
#BACKGROUND:[Round 3] - Snailchan Adventure-bg.jpg;
#PREVIEWVID:;
#JACKET:[Round 3] - Snailchan Adventure-jacket.png;
#CDIMAGE:Snailchan jacket.jpg;
#DISCIMAGE:;
#LYRICSPATH:;
#CDTITLE:;
#MUSIC:[Round 3] - Snailchan Adventure.ogg;
#OFFSET:0.000000;
#SAMPLESTART:91.395370;
#SAMPLELENGTH:15.172417;
#SELECTABLE:YES;
#BPMS:0.000=174.000,
161.000=87.000,
173.000=174.000;
#STOPS:1.000=0.345,
2.000=0.345,
3.000=0.345,
4.000=0.345,
69.000=0.345,
70.000=0.345,
71.000=0.345,
72.000=0.345,
289.000=0.345,
290.000=0.345,
291.000=0.345,
292.000=0.345,
325.000=0.172;
#DELAYS:;
#WARPS:;
#TIMESIGNATURES:0.000=4=4;
#TICKCOUNTS:0.000=4;
#COMBOS:0.000=1;
#SPEEDS:0.000=1.000=0.000=0;
#SCROLLS:0.000=1.000;
#FAKES:;
#LABELS:0.000=Song Start;
#BGCHANGES:0.000=[Round 3] - Snailchan Adventure.avi=1.000=0=0=0=StretchNoLoop====,
99999=-nosongbg-=1.000=0=0=0 // don't automatically add -songbackground-
;
#KEYSOUNDS:;
#ATTACKS:
;

//---------------dance-single - ----------------
#NOTEDATA:;
#CHARTNAME:;
#STEPSTYPE:dance-single;
#DESCRIPTION:;
#CHARTSTYLE:;
#DIFFICULTY:Beginner;
#METER:3;
#RADARVALUES:0.223692,0.325053,0.047934,0.071901,0.000000,196.000000,190.000000,6.000000,9.000000,4.000000,0.000000,0.000000,0.000000,0.000000,0.223692,0.325053,0.047934,0.071901,0.000000,196.000000,190.000000,6.000000,9.000000,4.000000,0.000000,0.000000,0.000000,0.000000;
#CREDIT:;
#NOTES:
// measure 0
0000
M000
M000
000M
,  // measure 1
000M
0100
0000
0100
,  // measure 2
0000
0010
0000
0010
,  // measure 3
0000
1001
0001
0000
,  // measure 4
0001
0000
1000
0000
,  // measure 5
1000
0010
0010
0010
,  // measure 6
0000
0100
0100
0100
,  // measure 7
0000
0001
1000
0000
,  // measure 8
1000
0000
0001
0000
,  // measure 9
0001
0000
0100
0000
,  // measure 10
0020
0000
0000
0130
,  // measure 11
0000
1001
1000
0000
,  // measure 12
0100
0000
0001
0000
,  // measure 13
0100
0010
0010
0010
,  // measure 14
0000
0100
0100
0100
,  // measure 15
0000
0001
0001
0000
,  // measure 16
0000
1000
1000
0000
,  // measure 17
0000
1000
0001
0100
,  // measure 18
0010
2000
0000
3002
,  // measure 19
0000
0203
0000
0000
,  // measure 20
0300
0000
0010
0000
,  // measure 21
0010
0000
1000
0000
,  // measure 22
0001
0000
0100
0000
,  // measure 23
0100
0000
0001
0000
,  // measure 24
1000
0000
0100
0000
,  // measure 25
0100
0000
0010
0000
,  // measure 26
0010
0000
0001
0000
,  // measure 27
1000
0001
0000
0100
,  // measure 28
0100
0100
0010
0000
,  // measure 29
0001
0000
0010
0000
,  // measure 30
1000
0000
0100
0000
,  // measure 31
0001
0000
0100
0000
,  // measure 32
1000
0000
0001
0000
,  // measure 33
0100
0000
0010
0000
,  // measure 34
0000
1000
1000
1000
,  // measure 35
0000
0200
0000
0300
,  // measure 36
0000
0001
0001
0001
,  // measure 37
0000
0200
0000
0300
,  // measure 38
0000
1000
0000
0001
,  // measure 39
0000
0100
0000
0000
,  // measure 40
0000
1000
1000
0001
,  // measure 41
0001
0100
0100
0010
,  // measure 42
0010
1000
0001
0100
,  // measure 43
0010
1001
0000
0000
,  // measure 44
0000
0100
0100
0100
,  // measure 45
0000
0000
0001
0000
,  // measure 46
0100
0000
0010
0000
,  // measure 47
1000
0010
0010
0010
,  // measure 48
0000
0100
0100
0100
,  // measure 49
0000
1000
0100
0000
,  // measure 50
0100
0000
0010
0000
,  // measure 51
1000
0000
0001
0000
,  // measure 52
0200
0000
0000
0300
,  // measure 53
0000
0001
0001
0001
,  // measure 54
0000
1000
1000
1000
,  // measure 55
0000
0010
0000
0110
,  // measure 56
0000
0100
0000
0110
,  // measure 57
0000
1000
0001
1000
,  // measure 58
0001
0100
0000
0010
,  // measure 59
0000
1000
1000
1000
,  // measure 60
0000
0200
0000
0300
,  // measure 61
0000
1001
0001
0000
,  // measure 62
1000
0000
0100
0000
,  // measure 63
0010
0001
0001
0100
,  // measure 64
0000
1000
1000
0100
,  // measure 65
0000
0000
0001
0000
,  // measure 66
0100
0000
1000
0000
,  // measure 67
0010
0000
0100
0000
,  // measure 68
0020
0000
0000
0030
,  // measure 69
1000
0000
0001
0000
,  // measure 70
1000
0001
0100
0000
,  // measure 71
0100
0000
0010
0000
,  // measure 72
0010
1000
0100
0001
,  // measure 73
0010
1000
1000
1000
,  // measure 74
0000
0001
0001
0001
,  // measure 75
0000
0100
0100
0100
,  // measure 76
0000
0010
0010
0010
,  // measure 77
0000
1000
1000
0100
,  // measure 78
0000
0001
0001
0010
,  // measure 79
0000
1000
0000
0100
,  // measure 80
0000
0001
0000
0010
,  // measure 81
0000
0000
0000
0100
0000
0000
0000
0000
;

//---------------dance-single - ----------------
#NOTEDATA:;
#CHARTNAME:;
#STEPSTYPE:dance-single;
#DESCRIPTION:;
#CHARTSTYLE:;
#DIFFICULTY:Easy;
#METER:5;
#RADARVALUES:0.314995,0.455074,0.047934,0.103857,0.000000,276.000000,270.000000,6.000000,13.000000,4.000000,0.000000,0.000000,0.000000,0.000000,0.314995,0.455074,0.047934,0.103857,0.000000,276.000000,270.000000,6.000000,13.000000,4.000000,0.000000,0.000000,0.000000,0.000000;
#CREDIT:;
#NOTES:
0000
M000
000M
0M00
,
00M0
1000
1000
0001
,
0001
0100
0100
0010
,
0010
1000
1000
1000
,
0000
0100
0100
0100
,
0000
0010
0010
0010
,
0000
0001
0001
0001
,
0000
1000
1000
0010
,
0000
0100
0100
0001
,
0000
1000
0010
0100
,
0001
2000
0000
3000
,
0000
0001
0100
0001
,
0000
1000
0100
1000
,
0000
0010
0010
0010
,
0010
0100
0100
0100
,
0100
0001
0010
0000
,
0000
1000
0010
0000
,
0000
0100
0010
1000
,
0001
0010
0010
0100
,
0100
0020
0000
0000
,
0030
1000
0100
1000
,
0100
0001
0100
0001
,
0100
0010
1000
0010
,
1000
0010
0001
0010
,
0001
1000
0100
0010
,
0100
0001
0100
0010
,
0100
1000
1000
0001
,
0001
0100
0100
0000
,
0000
0001
0100
0010
,
1000
0001
0010
0100
,
1000
0001
0010
1000
,
0010
0001
0100
1000
,
0100
0001
0001
1000
,
1000
0010
0010
0100
,
0000
0001
0010
1000
,
0100
0002
0000
0000
,
0003
1000
0010
0001
,
0100
2000
0000
0000
,
3000
0001
0001
1000
,
1000
0100
0000
0000
,
0000
0001
0100
0010
,
0001
1000
0100
0010
,
1000
0011
1100
1010
,
0101
1001
0000
0100
,
0000
0010
0010
0100
,
0100
0001
0001
0100
,
0000
1000
1000
0100
,
0000
0001
0010
1000
,
0000
1000
0100
0001
,
0000
1000
1000
0010
,
0000
0001
0001
0010
,
0000
1000
0100
0001
,
0100
0200
0000
0300
,
0000
0001
0001
1000
,
1000
0100
0010
0100
,
0010
0001
0100
1000
,
0100
0001
0010
0100
,
0000
1000
0100
0001
,
0010
0200
0300
0020
,
0030
0000
1000
0010
1000
0000
0001
0010
,
0001
0200
0000
0300
,
0000
1000
1000
0001
,
0001
0100
0100
0010
,
0000
0001
0100
0010
,
1000
0001
0010
0100
,
1000
0001
0010
1000
,
0000
1000
0100
0001
,
0000
0010
0010
0100
,
0200
0000
0001
0000
,
1300
0100
0010
0000
,
0100
0001
1000
0001
,
1000
0100
0010
0100
,
0010
0001
0100
1000
,
0010
0100
0100
0001
,
1000
0100
0100
1000
,
0001
0010
0010
0001
,
0100
0010
0010
1000
,
0100
2000
0001
0001
,
3001
0002
0010
0010
,
0013
0020
0100
0100
,
0130
0200
0001
0010
,
1300
0000
0000
1001
0000
0000
0000
0000
;

//---------------dance-single - ----------------
#NOTEDATA:;
#CHARTNAME:;
#STEPSTYPE:dance-single;
#DESCRIPTION:;
#CHARTSTYLE:;
#DIFFICULTY:Medium;
#METER:7;
#RADARVALUES:0.463362,0.489077,0.087879,0.239670,0.043940,406.000000,395.000000,11.000000,30.000000,2.000000,0.000000,0.000000,0.000000,0.000000,0.463362,0.489077,0.087879,0.239670,0.043940,406.000000,395.000000,11.000000,30.000000,2.000000,0.000000,0.000000,0.000000,0.000000;
#CREDIT:;
#NOTES:
0000
M000
000M
1000
,
0001
1000
1000
0010
,
0010
0100
0100
0001
,
0001
0000
1000
0000
0100
0000
0010
0100
,
0010
0000
0001
0000
0100
0000
0010
0100
,
0010
0000
1000
0001
1000
0000
0100
0000
,
0100
0000
0001
1000
0001
0000
0010
0000
,
0010
0000
0001
0000
0100
0000
0010
1000
,
0010
0000
1000
0000
0100
0000
0010
0001
,
0010
0000
0001
0000
1000
0000
0010
1000
,
0001
0200
0000
0000
0000
0000
0010
0000
,
0310
0000
0001
0000
0010
0000
0100
1000
,
0100
0000
1000
0000
0010
0000
0100
0001
,
0100
0000
0001
0010
0001
0000
1000
0001
,
1000
0000
0010
1000
0010
0000
0100
0010
,
0100
0000
0001
1000
0001
0200
0000
0000
,
0300
0001
0010
0001
1000
0200
0000
0000
,
0300
0000
0000
0000
0220
0330
0000
0000
2002
3003
0000
0000
2020
3030
0000
0000
,
0202
0303
0000
0000
0010
0000
0000
0010
0000
0000
0010
0000
0100
0000
0000
0100
,
0000
0100
0010
0000
0000
0000
0000
0000
,
0000
1000
0100
1000
,
0100
1000
0001
0000
0100
0000
0010
0100
,
0001
1000
0100
0000
0010
0000
0100
0000
,
0010
0001
1000
0000
0010
0000
0100
0010
,
1000
0001
0000
0100
0010
0000
1000
0000
,
0001
0100
1000
0000
1000
0000
0100
0000
,
0001
0000
1000
0100
0001
0000
0001
0100
,
1000
0020
0000
0030
,
0000
0000
0001
0100
0001
0000
1000
0001
,
1000
0000
0100
1000
0100
0000
1000
0001
,
1000
0000
0001
0010
0001
0000
1000
0010
,
1000
0000
0001
0100
0010
1000
0001
0000
,
1001
0000
1000
0100
0010
0000
0001
0000
,
1000
0000
0001
0100
0010
0000
1000
0000
,
0001
0000
1000
0010
1000
0010
0100
0001
,
0100
0001
0020
0000
0000
0000
0030
0000
,
0000
0000
0001
1000
0001
0010
0100
1000
,
0100
1000
0020
0000
0000
0000
0030
0000
,
0000
0100
0100
0010
,
0010
0200
0000
0000
,
0300
0001
0100
0010
,
1000
0001
0100
1000
,
0010
0101
1100
1010
,
0011
2000
0100
0100
,
0100
3002
0010
0010
,
0013
0000
1000
0000
0001
0000
1000
0100
,
1000
0000
0001
0000
0010
0000
0001
1000
,
0001
0000
0100
0000
0100
0000
0100
0010
,
0100
0000
0010
0000
0010
0000
0010
0100
,
0010
0000
1000
0100
1000
0000
0001
0010
,
0001
0000
1000
0010
1000
0000
0001
0100
,
0001
0000
1000
0000
1000
0000
0100
0010
,
0100
0020
0000
0000
0000
0000
0000
0000
,
0030
0000
0001
0010
0001
0010
0001
0010
,
0001
0000
1000
0100
1000
0100
1000
0100
,
1000
0000
0010
1000
0010
1000
0010
1000
,
0010
0000
0100
0001
0100
0001
0100
0001
,
0100
0000
0001
0100
0001
0100
0010
0100
,
0010
0000
0000
1000
0000
0000
0000
0000
0000
0100
0000
0010
0000
0000
0000
0000
,
0000
0000
0001
0100
0010
1000
0100
0010
,
0001
1000
0000
0010
0000
0000
0200
0000
0000
0000
0300
0000
0000
0000
0000
0000
,
0000
0000
0001
0000
0100
0000
0010
1000
,
0001
0000
1000
0000
0100
0000
0010
0001
,
1000
0000
0010
1000
0001
0000
0010
0001
,
0100
0000
0100
0001
1000
0000
0100
1000
,
0010
0000
0100
0000
0100
0000
0001
1000
,
0001
0000
0010
0000
0010
0000
1000
0001
,
1000
0000
0010
1000
0001
1000
0100
1000
,
0001
0200
0000
0000
0000
0000
0310
0000
,
0010
0000
1000
0010
1000
0000
0001
0100
,
0001
0000
1001
0000
1000
0000
0100
0010
,
0100
0000
0010
0000
0001
0000
1000
0010
,
0100
0000
0001
0000
2000
3000
0000
0000
0200
0300
0000
0000
0002
0003
0000
0000
,
0020
0030
0000
0000
1000
0000
0000
0000
1000
0000
0000
0000
0100
0000
0000
0000
,
0100
0001
0001
0010
,
0010
2000
3100
0002
,
0103
2000
3010
0002
,
0013
1000
1000
0010
,
0010
0000
0000
0000
0100
0000
0000
0100
0000
0000
0100
0000
0001
0000
0000
0001
,
0000
0000
0001
0000
1000
0000
0000
1000
0000
0000
1000
0000
0010
0000
0000
0010
,
0000
0010
0100
0001
1000
0100
0010
0001
,
1000
0010
0000
0022
0000
0033
0000
0000
;

//---------------dance-single - ----------------
#NOTEDATA:;
#CHARTNAME:;
#STEPSTYPE:dance-single;
#DESCRIPTION:;
#CHARTSTYLE:;
#DIFFICULTY:Hard;
#METER:9;
#RADARVALUES:0.642544,0.914342,0.199725,0.487329,0.507302,563.000000,538.000000,25.000000,61.000000,4.000000,0.000000,0.000000,0.000000,0.000000,0.642544,0.914342,0.199725,0.487329,0.507302,563.000000,538.000000,25.000000,61.000000,4.000000,0.000000,0.000000,0.000000,0.000000;
#CREDIT:;
#NOTES:
0000
M00M
0MM0
1001
,
0110
0000
0000
0000
1000
0000
0000
1000
0000
0000
1000
0000
0010
0000
0000
0010
,
0000
0000
0010
0000
0100
0000
0000
0100
0000
0000
0100
0000
0001
0000
0000
0001
,
0000
0000
0001
0000
1000
0000
0010
0000
1000
0001
0000
0010
0000
0000
0001
0000
,
1000
0000
0100
0000
0000
0000
1000
0000
0001
0100
0000
0020
0000
0000
0000
0000
,
0130
0000
0001
0010
0001
0010
0100
1000
,
0100
0000
0010
0000
0001
0000
1000
0000
0010
0000
0100
0000
0001
0100
0001
0000
,
1000
0000
0010
0000
0100
0001
0000
1000
0000
0001
0000
0010
0000
0001
0000
1000
,
0000
0100
0000
0010
0000
0000
0100
0010
0000
0001
0000
2000
0000
0000
0000
0000
,
3001
0000
1000
0010
0100
0010
1000
0100
,
0001
0200
0000
0000
0000
0000
0010
0000
,
0310
0000
0000
0000
0001
0000
0010
0000
0001
1000
0000
0010
0000
0000
1000
0000
,
0001
1000
0001
0100
0000
0000
0001
0000
1000
0100
0000
0000
1002
0000
0000
0000
,
0013
0000
0001
0100
0001
0100
1000
0100
,
1000
0100
1000
0010
1000
0010
0001
0010
,
0001
0010
0100
0010
0001
2000
0000
0000
,
3100
0000
1000
0010
0100
0001
2000
0000
,
3010
0000
0000
0000
0202
0303
0000
0000
2200
3300
0000
0000
2020
3030
0000
0000
,
0022
0033
0000
0000
1000
0000
0000
1000
0000
0000
1000
0000
0001
0000
0000
0001
,
0000
0001
0200
0000
0000
0000
0300
0000
,
0000
0000
0000
0000
1001
0000
0000
0000
1000
0010
0000
0100
0000
0000
0001
0000
,
1000
0000
0001
0010
0000
0000
0001
0000
0100
0000
0001
0000
1000
0000
0100
0000
,
0010
0000
0001
1000
0000
0000
0020
0000
0000
0000
0130
0001
0100
0010
0000
1000
,
0000
0001
0000
0000
0020
0000
0000
0000
0000
0000
0030
0000
0010
0001
0010
0001
,
1000
0010
1000
0010
0000
0000
0100
0000
0001
0100
0000
0001
0000
1000
0000
0100
,
0010
0100
0010
0100
0010
0000
0001
1000
0000
0001
0000
0100
0000
0010
0000
0100
,
0000
0000
0001
0010
1000
0010
0001
1000
,
0100
1000
0000
0001
0000
0200
0000
0000
0000
0000
0000
0000
0010
0000
0000
0000
,
0310
0000
0110
0001
1000
0010
0100
0001
,
1000
0100
0010
0001
0010
0100
1000
0001
,
0100
0010
0100
0001
0010
0100
0010
0001
,
1000
0010
0100
0001
0100
0010
1000
0100
,
0001
0000
0100
0000
1000
0000
0001
0000
1000
0000
0001
0000
0100
0001
0100
0001
,
0100
0010
0000
0100
0000
0000
0000
0000
0000
0001
0000
1000
0000
0000
0000
0000
,
0000
0000
0010
1000
0100
1000
0001
0100
,
0001
0010
0000
0010
0000
0000
0200
0000
0000
0000
0000
0000
0300
0000
0000
0000
,
0000
0000
1000
0001
1000
0010
0100
0001
,
1000
0010
0000
0010
0000
0000
0200
0000
0000
0000
0000
0000
0310
0000
1000
0000
,
0001
0010
0100
0010
0001
1000
0010
0100
,
0001
0020
0100
0100
0100
0100
0100
0100
,
0100
0130
2000
0000
3002
0000
0203
0000
,
0320
2030
3200
0302
,
0023
0000
0000
0030
0102
0000
0000
0003
2010
0000
0000
3000
1200
0000
0000
0300
,
0021
0000
0000
0030
0001
0000
0000
0100
0000
0000
0001
0000
1000
0000
0000
0100
,
0000
0000
1000
0000
0010
0000
0000
1000
0000
0000
0010
0000
0100
0000
0000
0010
,
0000
0000
0100
0000
0001
0000
0010
0000
0001
1000
0000
0010
0000
0000
1000
0000
,
0001
0000
0100
0000
0000
0000
0001
0000
1000
0100
0000
0020
0000
0000
0000
0000
,
0130
0000
1000
0010
1000
0010
0100
0001
,
0100
0000
0010
0000
1000
0000
0001
0000
0010
0000
0100
0000
1000
0100
1000
0000
,
0001
0000
0010
0000
0100
1000
0000
0001
0000
1000
0000
0010
0000
1000
0000
0001
,
0000
0100
0000
0010
0000
0000
0100
0010
0000
1000
0000
0002
0000
0000
0000
0000
,
0013
0000
0100
1000
0100
0010
0001
0100
,
0010
0200
0000
0000
0000
0000
0000
0000
,
0300
0000
0001
0010
0100
0010
0001
1000
,
0010
0100
0001
1000
0010
1000
0001
0100
,
0010
0100
1000
0100
0001
0010
1000
0010
,
0100
1000
0001
0100
0010
1000
0100
0010
,
0001
0000
0000
0000
1000
0100
0010
0100
0010
0001
0010
0001
1000
0010
0100
0001
,
0010
0100
0000
0020
0000
0000
0000
0000
0000
0032
0000
2003
0000
0000
0000
0000
,
3000
0000
0001
0010
1000
0001
0100
0010
,
1000
0010
0000
0001
0000
0000
0200
0000
0000
0000
0000
0000
0300
0000
0000
0000
,
0000
0000
0000
0000
0001
0000
1000
0000
0001
0100
0000
0010
0000
0000
1000
0000
,
0100
0000
0001
0000
0000
0000
0100
0010
0000
0001
0000
0000
2000
0000
0000
0000
,
3001
0000
1000
0100
1000
0100
0001
0100
,
0001
0100
0001
0010
0001
0010
1000
0010
,
1000
0000
0010
0000
0000
0000
0100
0000
0001
0100
0000
0010
0000
1000
0000
0100
,
0000
1000
0000
0002
0000
0000
0103
0001
0000
0020
0000
0000
0230
0000
0000
0000
,
0001
0000
1300
0010
0001
1000
0100
0001
,
0010
0200
0000
0000
0001
0000
0000
0000
,
1300
0000
0001
0100
1000
0100
0001
0100
,
1000
0000
0110
0000
1000
0000
0001
0010
,
0100
0000
1000
0100
0010
0001
0100
0010
,
1000
0000
0001
0000
0202
0303
0000
0000
2020
3030
0000
0000
0022
0033
0000
0000
,
2200
3300
0000
0000
0001
0000
0000
0100
0000
0000
0001
0000
1000
0000
0000
0100
,
0000
0000
1000
0000
0001
0000
0000
0010
0000
0000
0001
0000
1000
0000
0000
0010
,
0000
0000
1000
0000
0002
0000
0000
0023
0000
0000
0230
0000
2300
0000
0000
3020
,
0000
0230
0301
0100
1000
0100
0001
0010
,
1000
0000
0010
0000
0100
0000
0000
1000
0000
0000
0100
0000
0010
0000
0000
0001
,
0000
0000
0010
0000
0001
0000
0000
0001
0000
0000
0001
0000
1000
0000
0000
1000
,
0000
0000
1000
0000
1010
0000
0000
1010
0000
0000
1010
0000
0101
0000
0000
0101
,
0000
0000
0101
0000
1000
0001
1000
0100
0010
0100
0010
0001
1000
0010
0100
0001
,
1000
0001
0010
0100
0000
0000
2002
0000
0000
0000
0000
0000
3003
0000
0000
0000
;
