#VERSION:0.83;
#TITLE:Look So Beautiful;
#SUBTITLE:;
#ARTIST:Street;
#TITLETRANSLIT:;
#SUBTITLETRANSLIT:;
#ARTISTTRANSLIT:;
#GENRE:;
#ORIGIN:;
#CREDIT:;
#BANNER:Look So Beautiful.png;
#BACKGROUND:Look So Beautiful-bg.png;
#PREVIEWVID:;
#JACKET:Look So Beautiful-jacket.png;
#CDIMAGE:;
#DISCIMAGE:;
#LYRICSPATH:;
#CDTITLE:;
#MUSIC:Look So Beautiful.ogg;
#OFFSET:0.000000;
#SAMPLESTART:14.979999;
#SAMPLELENGTH:14.999999;
#SELECTABLE:YES;
#BPMS:0.000=128.000;
#STOPS:;
#DELAYS:;
#WARPS:;
#TIMESIGNATURES:0.000=4=4;
#TICKCOUNTS:0.000=4;
#COMBOS:0.000=1;
#SPEEDS:0.000=1.000=0.000=0;
#SCROLLS:0.000=1.000;
#FAKES:;
#LABELS:0.000=Song Start;
#BGCHANGES:;
#KEYSOUNDS:;
#ATTACKS:
;

//---------------dance-single - ----------------
#NOTEDATA:;
#CHARTNAME:;
#STEPSTYPE:dance-single;
#DESCRIPTION:;
#CHARTSTYLE:;
#DIFFICULTY:Hard;
#METER:7;
#RADARVALUES:0.379022,0.413121,0.220331,0.146887,0.050493,289.000000,265.000000,24.000000,16.000000,0.000000,0.000000,0.000000,0.000000,0.000000,0.379022,0.413121,0.220331,0.146887,0.050493,289.000000,265.000000,24.000000,16.000000,0.000000,0.000000,0.000000,0.000000,0.000000;
#CREDIT:;
#NOTES:
// measure 0
0000
0000
0000
0000
,  // measure 1
0000
0000
0000
0000
,  // measure 2
0000
0000
0000
0000
,  // measure 3
0000
0000
0000
0000
,  // measure 4
1000
0000
0001
0000
0100
0010
0100
0000
,  // measure 5
0001
0000
1000
0000
0100
0010
0100
0000
,  // measure 6
1000
0000
0001
0000
0100
0010
0100
0000
,  // measure 7
0001
1000
0110
0110
,  // measure 8
0001
0010
0100
1000
0001
0000
1000
0010
,  // measure 9
1000
0001
0001
0001
,  // measure 10
1000
0100
0010
0000
0100
0000
1000
0010
,  // measure 11
0000
0000
1000
0100
0001
0000
0100
0000
,  // measure 12
0000
0010
0002
0000
0103
0000
0001
0000
,  // measure 13
0010
0100
0010
0100
2000
0000
3001
0000
,  // measure 14
0100
0001
0010
0100
0010
0001
1000
0010
,  // measure 15
0100
0001
0011
0011
,  // measure 16
1001
0000
0000
0000
0000
0000
0000
0000
0000
0000
0000
0000
0000
0000
1000
0020
,  // measure 17
0000
0000
0000
0000
,  // measure 18
1030
0100
1000
0001
,  // measure 19
0100
0001
0010
0001
1000
0100
1000
0010
,  // measure 20
0100
0000
0000
0001
0000
0000
1000
0000
0000
0100
0000
0000
0010
0000
0000
0100
,  // measure 21
0000
0000
0000
0010
0000
0000
0000
0000
0000
0000
0000
0000
0000
0000
0000
0001
0000
0000
0000
0000
0000
1000
0000
0000
0000
0000
0000
0010
0000
0000
0000
0000
0000
1000
0000
0000
0100
0000
0000
0000
0010
0000
0000
0000
0001
0000
0000
0000
,  // measure 22
0000
2000
0000
0000
0000
0000
0000
3001
,  // measure 23
0101
1010
0101
1010
,  // measure 24
1001
1000
0001
0000
1000
0010
1000
0000
,  // measure 25
0010
0100
0010
0000
0100
0001
0100
0000
,  // measure 26
0001
0010
0001
0000
0010
0100
0010
0000
,  // measure 27
0100
1000
0100
0000
1000
0010
1000
0010
,  // measure 28
0100
0001
0100
0000
0001
1000
0001
0000
,  // measure 29
1000
0100
1000
0000
0100
0010
0100
0000
,  // measure 30
0010
0001
0010
0000
0001
1000
0001
0000
,  // measure 31
1001
0110
1001
0110
,  // measure 32
2001
0001
0001
0001
,  // measure 33
0010
0010
0010
0010
,  // measure 34
3200
0000
0310
0002
0000
1003
0020
0000
,  // measure 35
0100
0100
0100
0130
,  // measure 36
0001
1000
0000
1000
0001
0010
0000
0200
,  // measure 37
0000
0000
0300
0000
0010
0000
0001
1000
,  // measure 38
0010
0000
0100
0010
1000
0000
0001
0010
,  // measure 39
0110
1001
0110
1001
,  // measure 40
1000
0100
0010
0001
1000
0000
0001
0010
,  // measure 41
0001
1000
1000
1000
,  // measure 42
0001
0100
0010
0000
0100
0000
0001
1000
,  // measure 43
0000
0000
0001
0010
1000
0000
0010
0000
,  // measure 44
0000
0100
2000
0000
3001
0000
1000
0000
,  // measure 45
0100
0010
0100
0010
0002
0000
1003
0000
,  // measure 46
0010
1000
0100
0010
0100
1000
0010
1000
,  // measure 47
0001
1000
1100
0011
,  // measure 48
1000
0100
1000
0001
0100
0000
0010
1000
,  // measure 49
0001
1000
1000
1000
,  // measure 50
0100
0010
0100
0000
0010
0000
0001
1000
,  // measure 51
0000
0000
0001
0100
1000
0000
0100
0000
,  // measure 52
0000
0010
0200
0000
0301
0000
0010
0000
,  // measure 53
0100
0010
0100
0010
0002
0000
1003
0000
,  // measure 54
0001
0100
0010
1000
0100
0010
0001
0020
,  // measure 55
0000
0030
1001
0110
,  // measure 56
2002
3003
0000
0000
;

//---------------dance-single - ----------------
#NOTEDATA:;
#CHARTNAME:;
#STEPSTYPE:dance-single;
#DESCRIPTION:;
#CHARTSTYLE:;
#DIFFICULTY:Medium;
#METER:6;
#RADARVALUES:0.334431,0.411285,0.201970,0.055083,0.000000,255.000000,233.000000,22.000000,6.000000,0.000000,0.000000,0.000000,0.000000,0.000000,0.334431,0.411285,0.201970,0.055083,0.000000,255.000000,233.000000,22.000000,6.000000,0.000000,0.000000,0.000000,0.000000,0.000000;
#CREDIT:;
#NOTES:
0000
0000
0000
0000
,
0000
0000
0000
0000
,
0000
0000
0000
0000
,
0000
0000
0000
0000
,
1000
0100
1000
0001
,
1000
0001
0100
0001
,
1000
0001
0010
0001
,
1000
0001
1000
0001
1001
0000
1001
0000
,
1000
0000
0010
0100
0001
0000
0010
0000
,
0001
0100
0100
0100
,
0010
0100
0010
0000
0100
0000
0001
0000
,
1000
0000
0001
0010
0001
0000
0010
0000
,
0001
0100
0010
1000
,
0001
0100
0001
0100
0001
0000
1000
0000
,
0001
0010
1000
0010
,
0001
0100
0110
0110
,
0010
0000
0000
0000
,
0200
0000
0000
0000
,
0301
1000
0100
0010
,
0100
0000
1000
0000
0010
0000
0100
0001
,
0010
0000
0001
0000
0100
0000
0010
0100
,
0001
0000
1000
0000
0100
0000
0010
0100
,
1000
0000
0001
0000
1000
0010
0100
0000
,
0101
1010
0101
1010
,
0001
1000
0001
0000
1000
0000
0010
0000
,
0100
0010
0100
0000
0001
0000
0100
0000
,
0001
0010
0001
0000
0010
0000
0001
0000
,
1000
0010
1000
0000
0010
0000
0100
0000
,
0010
1000
0010
0000
1000
0000
0001
0000
,
0010
0100
0010
0000
0001
0000
0100
0000
,
0010
1000
0010
0000
1000
0000
0001
0000
,
1001
0110
1001
0110
,
2010
0010
0000
0010
,
0000
0010
0000
0010
,
3200
0000
0000
0320
0000
0000
0032
0000
,
0000
0000
0000
0003
,
1000
0000
0001
0000
0100
0010
0000
0200
,
0000
0000
0000
0300
0010
0000
1000
0001
,
0010
0000
0100
0010
0001
0000
0010
0100
,
1100
1010
1100
1010
,
0001
0000
0010
0100
1000
0000
0100
0000
,
1000
0001
0001
0001
,
0100
0001
0100
0000
0010
0000
1000
0100
,
0010
0000
0010
0001
0100
0000
0010
0000
,
1000
0001
0100
0000
0001
0000
1000
0000
,
0010
0100
0010
0100
0010
0000
1000
0000
,
0001
0010
1000
0010
,
0001
1000
1001
0110
,
0001
0000
0100
0010
1000
0000
0010
0000
,
0100
0001
0001
0001
,
0010
0001
0100
0000
0010
1000
0001
0000
,
1000
0000
0001
0010
1000
0000
0010
0000
,
0001
0100
0010
0000
1000
0000
0001
0000
,
1000
0100
1000
0100
1000
0000
0001
0000
,
0100
0010
1000
0000
0001
0010
0100
0000
,
0001
1000
0001
1000
1001
0000
0110
0000
,
1001
0000
0000
0000
;

//---------------dance-single - ----------------
#NOTEDATA:;
#CHARTNAME:;
#STEPSTYPE:dance-single;
#DESCRIPTION:;
#CHARTSTYLE:;
#DIFFICULTY:Easy;
#METER:3;
#RADARVALUES:0.204593,0.359874,0.220331,0.055083,0.000000,156.000000,132.000000,24.000000,6.000000,0.000000,0.000000,0.000000,0.000000,0.000000,0.204593,0.359874,0.220331,0.055083,0.000000,156.000000,132.000000,24.000000,6.000000,0.000000,0.000000,0.000000,0.000000,0.000000;
#CREDIT:;
#NOTES:
0000
0000
0000
0000
,
0000
0000
0000
0000
,
0000
0000
0000
0000
,
0000
0000
0000
0000
,
1000
0000
0000
0000
,
0001
0000
0000
0000
,
0100
0000
0000
0000
,
0010
0000
1001
1001
,
0001
1000
0100
0000
,
1000
0000
1000
0000
,
0001
0100
0001
0000
,
0100
0000
0010
0010
,
1000
0000
0001
0000
,
0010
0001
0010
0000
,
0001
0000
1000
0000
,
0100
0000
0110
0110
,
1001
0000
0000
0000
,
0020
0000
0000
0000
,
1030
0000
0001
0000
,
0010
0000
0001
0000
,
0100
0000
0010
0000
,
1000
0000
0001
1000
,
0001
0000
0010
0000
,
1001
0110
1001
0110
,
1001
0001
1000
0010
,
1000
0001
1000
0100
,
1000
0001
1000
0010
,
1000
0001
1000
0100
,
1000
0010
0100
0001
,
1000
0010
0100
0001
,
1000
0100
0010
0001
,
1001
0110
1001
0110
,
0002
0000
0000
0000
,
0000
0000
0000
0003
,
0200
0000
0000
0000
0000
0300
0020
0000
,
0000
0000
0000
0030
,
1000
0000
0001
0000
,
0200
0000
0310
0000
,
2000
0000
3001
0000
,
1001
0110
1001
0110
,
0001
1000
0010
0000
,
0000
1000
1000
0001
,
0100
0000
0010
0000
,
0000
1000
0010
0010
,
0100
0000
0001
0000
,
0010
0100
0010
0000
,
0100
0000
1000
0000
,
0001
0000
1001
0110
,
1001
0001
0100
0000
,
0000
0001
0001
0100
,
0010
0000
0100
0000
,
0000
0001
0100
0100
,
0010
0000
1000
0000
,
0100
0010
0100
0000
,
0010
0000
0001
0000
,
1000
0000
1001
0110
,
1001
0000
0000
0000
;

//---------------dance-single - ----------------
#NOTEDATA:;
#CHARTNAME:;
#STEPSTYPE:dance-single;
#DESCRIPTION:;
#CHARTSTYLE:;
#DIFFICULTY:Beginner;
#METER:1;
#RADARVALUES:0.112789,0.205642,0.073444,0.000000,0.000000,86.000000,78.000000,8.000000,0.000000,0.000000,0.000000,0.000000,0.000000,0.000000,0.112789,0.205642,0.073444,0.000000,0.000000,86.000000,78.000000,8.000000,0.000000,0.000000,0.000000,0.000000,0.000000,0.000000;
#CREDIT:;
#NOTES:
0000
0000
0000
0000
,
0000
0000
0000
0000
,
0000
0000
0000
0000
,
0000
0000
0000
0000
,
0010
0000
0000
0000
,
0100
0000
0000
0000
,
0001
0000
0000
0000
,
0000
0000
1000
1000
,
0001
0000
0000
0000
,
0100
0000
0000
0000
,
0010
0000
0000
0000
,
1000
0000
0001
0000
,
1000
0000
0000
0000
,
0010
0010
0010
0000
,
0100
0000
0000
0000
,
0001
0000
0010
0010
,
0100
0000
0000
0000
,
0010
0000
0000
0000
,
0001
0000
0000
0000
,
1000
0000
0000
0000
,
0010
0000
0000
0000
,
1000
0000
0000
0000
,
0100
0000
0000
0000
,
1000
0000
1000
0000
,
0001
0000
0000
0000
,
0100
0000
0000
0000
,
0001
0000
0000
0000
,
0010
0000
0000
0000
,
0100
0000
0000
0000
,
0010
0000
0000
0000
,
0001
0000
0000
0000
,
1000
0000
1000
0000
,
1001
0000
0000
0000
,
0000
0000
0000
0000
,
0010
0000
0000
0100
,
0000
0000
0000
0000
,
0001
0000
1000
0000
,
0001
0000
0100
0000
,
0010
0000
0010
0000
,
0110
0000
0000
0000
,
1000
1000
1000
0000
,
0000
0001
0000
0000
,
0100
0000
0000
0000
,
0000
0010
0100
0100
,
0000
0010
0000
0000
,
1000
1000
1000
0000
,
0001
0000
0000
0000
,
1000
0000
1001
0110
,
1001
0000
0000
0000
,
0001
0000
0000
0000
,
1000
0000
0000
0000
,
0010
0000
0100
0100
,
0010
0000
1000
0000
,
0001
0001
0001
0000
,
1000
0000
0000
0000
,
0001
0000
0110
0110
,
1001
0000
0000
0000
;
