#VERSION:0.83;
#TITLE:Dream Corridors;
#SUBTITLE:;
#ARTIST:Kradness & Camellia;
#TITLETRANSLIT:;
#SUBTITLETRANSLIT:;
#ARTISTTRANSLIT:;
#GENRE:;
#ORIGIN:;
#CREDIT:;
#BANNER:Dream Corridors-bn.png;
#BACKGROUND:Dream Corridors-bg.png;
#PREVIEWVID:;
#JACKET:Dream Corridors-jk.png;
#CDIMAGE:;
#DISCIMAGE:;
#LYRICSPATH:;
#CDTITLE:;
#MUSIC:Dream Corridors.ogg;
#OFFSET:0.032000;
#SAMPLESTART:73.120010;
#SAMPLELENGTH:12.000000;
#SELECTABLE:YES;
#BPMS:0.000=64.000,
32.000=128.000,
92.000=64.000,
94.000=128.000,
122.000=64.000,
124.000=128.000,
184.000=64.000,
186.000=128.000;
#STOPS:;
#DELAYS:;
#WARPS:;
#TIMESIGNATURES:0.000=4=4;
#TICKCOUNTS:0.000=4;
#COMBOS:0.000=1;
#SPEEDS:0.000=1.000=0.000=0;
#SCROLLS:0.000=1.000;
#FAKES:;
#LABELS:0.000=Song Start;
#BGCHANGES:;
#KEYSOUNDS:;
#ATTACKS:
;

//---------------dance-single - Axis----------------
#NOTEDATA:;
#CHARTNAME:Axis;
#STEPSTYPE:dance-single;
#DESCRIPTION:Axis;
#CHARTSTYLE:;
#DIFFICULTY:Challenge;
#METER:9;
#RADARVALUES:0.432401,0.486856,0.080004,0.486689,0.640030,454.000000,442.000000,12.000000,73.000000,43.000000,0.000000,3.000000,0.000000,0.000000,0.432401,0.486856,0.080004,0.486689,0.640030,454.000000,442.000000,12.000000,73.000000,43.000000,0.000000,3.000000,0.000000,0.000000;
#CREDIT:Axis;
#DISPLAYBPM:64.000000:128.000000;
#NOTES:
0000
0000
0000
0000
,
0000
0000
0000
0000
,
0000
0000
0000
0000
,
0000
0000
0000
0000
,
0000
0000
0001
0000
1000
0000
0001
0000
0020
0000
0000
0130
0010
0001
1000
0001
,
0200
0000
0000
0310
0100
0000
0001
0000
2000
0000
0000
3100
2000
0000
0000
0000
,
3000
0000
0001
0000
1000
0000
0001
0000
0200
0000
0000
0310
0100
0001
1000
0001
,
0020
0000
0000
0000
0130
0000
0010
0000
0002
0000
0000
0103
0001
0000
1001
1000
,
00M1
0000
1000
0100
1000
0000
0001
0100
0000
0010
0000
0010
0000
1000
0100
1000
,
0000
0000
0001
0100
0001
0000
1000
0100
0000
0010
0000
0010
0000
0001
0100
0001
,
2000
3000
0000
0000
0000
0000
2000
3000
0000
0000
0000
0000
0200
0300
0000
0000
0000
0000
0200
0300
0000
0000
0000
0000
0020
0000
0000
0000
0000
0000
0000
0000
,
0032
0003
0000
0000
0000
0000
0002
0003
0000
0000
0000
0000
0200
0300
0000
0000
0000
0000
0200
0300
0000
0000
0000
0000
0020
0000
0000
0000
0000
0000
0000
0000
,
0030
0000
1000
0010
1000
0000
0001
0010
0000
0100
0000
0100
0000
1000
0010
1000
,
0000
0000
0001
0010
0001
0000
1000
0010
0000
0100
0000
0100
0000
0001
0010
0001
,
2000
3000
0000
0000
0000
0000
2000
3000
0000
0000
0000
0000
0020
0030
0000
0000
0000
0000
0020
0030
0000
0000
0000
0000
0200
0000
0000
0000
0000
0000
0000
0000
,
0302
0003
0000
0000
0000
0000
0002
0003
0000
0000
0000
0000
0020
0030
0000
0000
0000
0000
0020
0030
0000
0000
0000
0000
0200
0000
0000
0000
0000
0000
0000
0000
,
1300
0000
0010
0100
0010
0000
1000
0100
0000
0010
0000
0010
0000
0001
0100
0001
,
1000
0000
0100
0010
0100
0000
1000
0010
0000
0100
0000
0100
0000
0001
0010
0001
,
2000
3000
0000
0000
0000
0000
2000
3000
0000
0000
0000
0000
0002
0003
0000
0000
0000
0000
0002
0003
0000
0000
0000
0000
0202
0303
0000
0000
0000
0000
0000
0000
,
0002
0003
0000
0000
0000
0000
0002
0003
0000
0000
0000
0000
2000
3000
0000
0000
0000
0000
2000
3000
0000
0000
0000
0000
2200
3300
0000
0000
0000
0000
0000
0000
,
1000
0000
0100
0010
0100
0000
1000
0010
0000
0100
0000
0100
0000
0001
0010
0001
,
1000
0000
0010
0100
0010
0000
1000
0100
0000
0010
0000
0010
0000
0001
0100
0001
,
1000
0000
0001
0100
0000
0100
0010
0000
1000
0000
0001
0010
0000
0010
0100
0000
,
2000
0000
0000
0000
0M00
00M0
000M
00M0
0M00
00M0
000M
00M0
3M00
00M0
000M
00M0
1100
0000
0000
0000
0100
0000
0000
0000
0010
0000
0000
0000
0001
0000
0100
0000
,
0000
0000
0100
0000
0000
0000
0010
0000
1000
0000
0000
0000
02MM
0300
0000
0000
02MM
0300
0000
0000
0010
0000
0001
0000
0010
0000
0000
0000
0001
0000
0100
0000
,
0000
0000
0100
0000
0000
0000
0010
0000
1000
0000
0000
0000
0001
0000
0000
0000
M2M2
0303
0000
0000
0100
0000
0000
0000
0010
0000
0000
0000
1000
0000
0100
0000
,
0000
0000
0100
0000
0000
0000
0010
0000
0001
0000
0000
0000
M2M0
0300
0000
0000
M2M0
0300
0000
0000
0010
0000
0000
0000
0010
0000
0000
0000
1000
0000
0200
0000
,
0000
0000
0000
0310
0100
0000
1000
0000
0001
0010
0000
0010
0100
0000
1000
0010
,
0000
0010
0000
0100
0001
0000
1000
0000
0000
0000
0100
0000
0100
0000
0000
0010
,
0000
0010
0000
0000
0001
0000
1000
0000
0000
0000
0010
0000
1000
0000
0001
0010
,
0000
0000
0010
0000
0000
0000
0001
0000
0100
0000
0000
0000
0010
0000
0000
0000
M000
0000
000M
0000
000M
0000
M000
000M
0000
000M
0100
M000
011M
0000
M000
0000
,
001M
0000
0000
0000
1000
0000
0000
0001
0010
0000
0010
0000
0100
0000
0100
0000
,
4000
0000
0000
0000
0000
0000
0000
0000
0000
0000
0000
0000
0000
0000
0000
0000
3001
0000
0000
0000
0000
0000
0000
0000
0200
0300
0000
0000
0020
0030
0000
0000
,
2000
3000
0000
0000
0000
0000
0000
0000
0001
0000
0000
0000
0000
0000
1000
0000
0100
0000
0000
0000
0100
0000
0000
0000
0010
0000
0000
0000
0010
0000
0000
0000
,
0004
0000
1003
1001
,
0011
0000
0000
0000
0001
0000
0000
1000
0010
0000
0010
0000
0100
0000
0100
0000
,
0004
0000
0000
0000
0000
0000
0000
0000
0000
0000
0000
0000
0000
0000
0000
0000
1003
0000
0000
0000
0000
0000
0000
0000
0200
0300
0000
0000
0020
0030
0000
0000
,
0002
0003
0000
0000
0000
0000
0000
0000
1000
0000
0000
0000
0000
0000
0001
0000
0100
0000
0000
0000
0100
0000
0000
0000
0010
0000
0000
0000
0010
0000
0000
0000
,
1000
0000
0100
0000
0100
0000
0010
0001
0000
0001
0000
0100
0010
0000
1000
0000
,
1010
0000
0010
0000
0100
0000
0001
0010
0000
0010
0000
0100
1000
0000
0001
0000
,
0100
0000
0000
0000
0010
0000
1000
0000
0010
0000
0000
0000
1000
0000
0100
0000
0000
0000
0100
0000
0000
0000
0010
0000
0002
0003
0000
0000
2000
3000
0000
0000
,
2200
3300
0000
0000
0100
0000
0000
0000
0010
0000
0000
0000
0001
0000
0100
0000
0000
0000
0100
0000
0000
0000
0010
0000
1000
0000
0000
0000
1000
0000
0000
0000
,
0001
0000
0010
0000
0010
0000
0001
0200
0000
0000
0000
0310
0100
0000
0001
0000
,
1000
0010
0000
0010
0100
0000
0001
0010
0000
0010
0000
0100
1000
0000
0001
0000
,
0000
0000
0100
0000
0100
0000
0000
0010
0000
0010
0000
0000
1000
0000
0001
0000
,
0000
0000
0010
0000
0100
0000
1000
0010
0000
0010
0000
0100
0001
0000
1000
0000
,
00M0
0000
0M00
0000
0M00
0000
00M0
0M00
0000
0M00
0001
00M0
1M01
0000
00M0
0000
1M00
0000
0000
0000
0001
0000
0000
0000
0010
0000
0000
0000
0001
0000
0000
0000
,
0100
0000
0001
0000
0010
0000
0100
2000
0000
0000
0000
0000
0000
0000
3001
0100
,
0000
0010
0000
0100
0000
0001
0000
1000
0200
0000
0000
0010
0000
0000
1000
0000
,
0000
0010
0000
0000
1300
0000
0000
0000
0002
0000
0000
0100
0000
0000
1000
0000
,
0000
0010
0000
0000
1003
0000
0000
0000
0001
0000
1000
0000
0010
0000
1000
0000
,
0100
0000
1000
0000
0010
0000
0100
0002
0000
0000
0000
0000
0000
0000
1003
0010
,
1000
0000
0100
0010
0000
0001
0000
0010
0200
0000
0000
1000
0000
0000
0010
0000
,
0000
1000
0000
0000
0310
0000
0000
0000
0002
0000
0000
0010
0000
0000
1000
0000
,
0000
0100
0000
0000
1003
0000
0000
0000
0001
0000
1000
0000
0100
0000
1000
0000
,
0010
0000
1000
0000
0100
0000
0010
0002
0000
0000
0000
0000
0000
0000
1003
0010
,
1000
0000
0010
0100
0000
0100
0000
0001
0020
0000
0000
0100
0000
0000
0001
0000
,
0000
0100
0000
0000
0031
0000
0000
0000
2000
0000
0000
0010
0000
0000
0001
0000
,
0000
0000
0000
0100
0000
0000
0000
0000
0000
0000
0000
0000
3001
0000
0000
0000
1000
0000
0001
0000
0000
1000
0000
0000
0010
0000
0000
0000
0000
0000
0100
0000
0000
0001
0000
0000
0000
0000
0000
0010
0000
0000
0000
0000
0000
0020
0000
0000
,
0000
0000
0000
0000
0031
1000
0001
1000
0100
0000
0010
0001
0000
0100
0000
0200
,
0000
0000
0310
1000
0002
0000
0000
0013
,
0200
0000
0000
0000
0000
0000
0000
0000
0000
0310
0000
0000
0001
0000
0001
0000
0001
0000
0100
0000
0100
0000
0100
0000
,
0010
0010
0010
1000
0000
0000
2002
0000
0000
0000
0000
0000
,
0000
0000
3003
0000
;

//---------------dance-single - ----------------
#NOTEDATA:;
#CHARTNAME:;
#STEPSTYPE:dance-single;
#DESCRIPTION:;
#CHARTSTYLE:;
#DIFFICULTY:Medium;
#METER:6;
#RADARVALUES:0.238106,0.338682,0.106672,0.206676,0.033335,250.000000,234.000000,16.000000,31.000000,0.000000,0.000000,0.000000,0.000000,0.000000,0.238106,0.338682,0.106672,0.206676,0.033335,250.000000,234.000000,16.000000,31.000000,0.000000,0.000000,0.000000,0.000000,0.000000;
#CREDIT:;
#NOTES:
0000
0000
0000
0000
,
0000
0000
0000
0000
,
0000
0000
0000
0000
,
0000
0000
0000
0000
,
0000
0000
0001
0000
0001
0000
1000
0000
2000
0000
0000
0000
3100
0010
0100
0010
,
0002
0000
1003
0010
2000
0000
3002
0000
,
0003
0000
0100
0000
0100
0000
0010
0000
0020
0000
0000
0000
1030
0001
1000
0001
,
0020
0000
0130
1000
0200
0000
0320
0000
,
0032
0000
0003
0000
,
2000
0000
3000
0000
,
0010
0000
0000
0100
0000
0000
0010
0000
,
1000
0000
0000
0001
0000
0000
1000
0000
,
0002
0000
0003
0010
,
0020
0030
0200
0300
,
1000
0000
0000
0001
0000
0000
1000
0000
,
0010
0000
0000
0100
0000
0000
0010
0000
,
1000
1000
1000
0001
,
0100
0100
0010
0010
,
1000
0000
0000
0100
0000
0000
0010
0000
,
0001
0000
0000
0100
0000
0000
0010
0000
,
1000
1000
0100
0010
,
0001
0001
0100
0010
,
1000
1000
0001
0001
,
0110
0000
1001
1000
,
0001
0000
0001
0100
0010
0000
0010
0000
,
1000
1000
0100
0100
,
1000
0000
1000
0100
0010
0000
0010
0000
,
0001
0001
1000
0100
,
1000
0010
1000
0010
1000
0000
0001
0000
,
1000
0100
1000
0100
2000
0000
3200
0000
,
0320
0032
0003
0000
,
1000
0000
0001
0000
1000
0100
0010
0100
,
2000
0000
3001
0000
,
1000
0000
0001
0000
1000
0010
0100
0010
,
2000
0000
3001
1001
,
0001
0000
1000
0000
0001
0100
0010
0100
,
0002
0000
1003
0000
,
0001
0000
1000
0000
0001
0010
0100
0010
,
0002
1000
1003
1001
,
0000
0000
1000
0000
0001
0100
0001
0000
,
0000
0000
1000
0000
0010
0100
0010
0000
,
0000
0000
1000
0000
0100
0010
0100
0000
,
0000
0000
1000
0100
1000
0100
1000
0000
,
0001
0001
1000
1000
,
0100
0100
0010
0010
,
0002
0203
0320
2030
,
3000
0000
1010
1000
,
1001
0001
0011
0000
,
0001
0010
0001
0000
0010
0000
0000
0001
,
0000
0000
1000
0000
0010
0000
0000
1000
,
0000
0001
0101
0001
,
1001
1000
1100
0000
,
1000
0100
1000
0000
0100
0000
0000
1000
,
0000
0000
0001
0000
0100
0000
0000
0001
,
0000
1000
1100
1000
,
1001
0001
0101
0000
,
0001
0100
0001
0000
0100
0000
0000
0001
,
0000
0000
1000
0000
0100
0000
0000
1000
,
0000
0000
0001
0000
1000
0100
1000
0100
,
1000
0000
0000
0000
0001
0100
0001
0100
,
0001
0000
0220
0330
,
2002
0000
0000
3003
0000
0000
0001
1000
0001
1000
0001
1000
,
0001
1000
0001
1000
0000
0000
2002
0000
0000
0000
0000
0000
,
0000
0000
3003
0000
;

//---------------dance-single - ----------------
#NOTEDATA:;
#CHARTNAME:;
#STEPSTYPE:dance-single;
#DESCRIPTION:;
#CHARTSTYLE:;
#DIFFICULTY:Hard;
#METER:8;
#RADARVALUES:0.299062,0.359850,0.133340,0.306681,0.143340,314.000000,294.000000,20.000000,46.000000,7.000000,0.000000,0.000000,0.000000,0.000000,0.299062,0.359850,0.133340,0.306681,0.143340,314.000000,294.000000,20.000000,46.000000,7.000000,0.000000,0.000000,0.000000,0.000000;
#CREDIT:;
#NOTES:
// measure 0
0000
0000
0000
0000
,  // measure 1
0000
0000
0000
0000
,  // measure 2
0000
0000
0000
0000
,  // measure 3
0000
0000
0000
0000
,  // measure 4
0000
0000
0001
0000
1000
0000
0001
0000
0200
0000
0000
0310
0100
0010
1000
0100
,  // measure 5
2000
0000
0000
3001
1000
0000
0100
0000
2000
0000
0000
3100
2000
0000
0000
0000
,  // measure 6
3000
0000
0001
0000
1000
0000
0001
0000
0020
0000
0000
0130
0010
0100
1000
0010
,  // measure 7
2000
0000
0000
0000
3001
0000
0100
0000
0002
0000
0000
1003
0002
0000
0000
0103
,  // measure 8
00M2
0000
0000
0000
,  // measure 9
2003
0000
0000
0000
,  // measure 10
3100
0000
0000
0010
0000
0000
0001
0000
0000
0010
0000
0000
0100
0000
0000
0000
,  // measure 11
1000
0000
0000
0010
0000
0000
0100
0000
0000
0010
0000
0000
1000
0000
0000
0000
,  // measure 12
0002
0000
0000
0203
,  // measure 13
0320
0000
2030
0000
,  // measure 14
3010
0000
0000
0100
0000
0000
0001
0000
0000
0100
0000
0000
0010
0000
0000
0000
,  // measure 15
1000
0000
0000
0100
0000
0000
0010
0000
0000
0100
0000
0000
1000
0000
0000
0000
,  // measure 16
0002
0010
1000
0023
,  // measure 17
0230
1000
0320
0001
,  // measure 18
0130
0000
0000
1000
0000
0000
0010
0000
0000
1000
0000
0000
0100
0000
0000
0000
,  // measure 19
0010
0000
0000
0001
0000
0000
0100
0000
0000
0001
0000
0000
0010
0000
0000
0000
,  // measure 20
0002
0100
2003
3020
,  // measure 21
0230
0001
0320
2030
,  // measure 22
3002
0010
2003
0100
,  // measure 23
30M1
0000
01M2
1000
,  // measure 24
0100
0000
1003
0100
0210
0000
1000
0000
,  // measure 25
0010
1300
2100
0001
,  // measure 26
0100
0000
3001
0100
0210
0000
0001
0000
,  // measure 27
0010
0301
0100
0100
,  // measure 28
0001
0010
0001
0010
0100
0000
0100
0000
,  // measure 29
1000
0010
1000
0010
0100
0000
0101
0000
,  // measure 30
1010
1100
M011
0000
,  // measure 31
M001
0000
1000
0000
0010
0100
0010
0100
,  // measure 32
0002
0100
2003
0100
,  // measure 33
3001
0000
1000
0000
0100
0010
0100
0010
,  // measure 34
0002
0100
1003
1001
,  // measure 35
0001
0000
1000
0000
0010
0100
0010
0100
,  // measure 36
0002
0010
2003
0010
,  // measure 37
3001
0000
1000
0000
0100
0010
0100
0010
,  // measure 38
0002
1000
1003
1001
,  // measure 39
0001
0000
1000
0000
0010
0100
0001
0100
,  // measure 40
0010
0000
1000
0000
0100
0010
0001
0010
,  // measure 41
0100
0000
1000
0000
0001
0100
0010
0100
,  // measure 42
0001
0000
1000
0001
0010
0100
1000
0001
,  // measure 43
0100
0000
0001
0000
0100
0010
1000
0100
,  // measure 44
0010
0000
0100
0000
0010
0100
1000
0001
,  // measure 45
0100
0000
0001
0000
1000
0100
0010
0001
,  // measure 46
M100
0000
M102
1003
,  // measure 47
2100
0000
0000
0000
3001
0000
0000
0011
0000
0000
0000
0000
0000
0000
0000
0000
,  // measure 48
0001
0000
0100
0000
0010
0000
1000
0000
0100
0000
0000
0010
0000
0000
0001
0000
,  // measure 49
0000
0010
0000
0000
0100
0000
0000
0000
1000
0000
0000
0010
0000
0000
0100
0000
,  // measure 50
0000
0010
0000
0000
1000
0000
0000
0000
2010
0000
0000
0000
3001
0000
0000
0000
,  // measure 51
0012
0000
0000
0000
1003
0000
0000
1100
0000
0000
0000
0000
0000
0000
0000
0000
,  // measure 52
1000
0000
0010
0000
0100
0000
0001
0000
0010
0000
0000
0100
0000
0000
1000
0000
,  // measure 53
0000
0100
0000
0000
0010
0000
0000
0000
0001
0000
0000
0100
0000
0000
0010
0000
,  // measure 54
0000
0100
0000
0000
0001
0000
0000
0000
0012
0000
0000
0000
1003
0000
0000
0000
,  // measure 55
2010
0000
0000
0000
3001
0000
0000
0101
0000
0000
0000
0000
0000
0000
0000
0000
,  // measure 56
0001
0000
0010
0000
0100
0000
1000
0000
0010
0000
0000
0100
0000
0000
0001
0000
,  // measure 57
0000
0100
0000
0000
0010
0000
0000
0000
1000
0000
0000
0100
0000
0000
0010
0000
,  // measure 58
0000
0100
0000
0000
1000
0000
0000
0000
0001
0000
1000
0000
0010
0000
1000
0000
,  // measure 59
0001
0000
1000
0100
0010
0100
1000
0001
,  // measure 60
0100
0000
0001
0010
0200
0000
0000
1000
,  // measure 61
2300
0000
0000
0000
0000
0000
0000
0000
0000
3001
0000
0000
1000
0000
0010
0000
1000
0000
0001
0000
0010
0000
0001
0000
,  // measure 62
1000
0100
0010
0001
0000
0000
0022
0000
0000
0000
0000
0000
,  // measure 63
0000
0000
0033
0000
;

//---------------dance-single - ----------------
#NOTEDATA:;
#CHARTNAME:;
#STEPSTYPE:dance-single;
#DESCRIPTION:;
#CHARTSTYLE:;
#DIFFICULTY:Easy;
#METER:4;
#RADARVALUES:0.158103,0.190509,0.026668,0.033335,0.000000,166.000000,162.000000,4.000000,5.000000,0.000000,0.000000,0.000000,0.000000,0.000000,0.158103,0.190509,0.026668,0.033335,0.000000,166.000000,162.000000,4.000000,5.000000,0.000000,0.000000,0.000000,0.000000,0.000000;
#CREDIT:;
#NOTES:
0000
0000
0000
0000
,
0000
0000
0000
0000
,
0000
0000
0000
0000
,
0000
0000
0000
0000
,
0001
0000
0001
0000
,
1000
1000
1000
0000
,
0010
0000
0010
0000
,
0100
0100
0100
0000
,
0001
0000
0000
0000
,
1000
0000
0000
0000
,
0100
0100
0100
0000
,
0010
0010
0010
0000
,
0001
0000
0000
1000
,
1000
0000
0000
0000
,
0010
0010
0010
0000
,
0100
0100
0100
0000
,
0001
0000
0000
1000
,
1000
0000
0100
0000
,
0010
0010
0010
0000
,
0100
0100
0100
0000
,
1000
0000
0001
0100
,
0001
0000
1000
0100
,
1000
0000
0001
0000
,
1000
0000
0001
0000
,
0000
0000
0000
1000
1000
0000
0000
0000
,
0000
0000
0100
0000
,
0000
0000
0000
0010
0010
0000
0000
0000
,
0000
0000
0001
0000
,
0001
0000
1000
0000
,
1000
0000
0100
0100
,
0010
0010
0001
0000
,
1000
0100
0010
0100
,
1000
0000
0001
0000
,
1000
0010
0100
0010
,
1000
0000
0001
0000
,
1000
0100
0010
0001
,
1000
0000
0010
0000
,
1000
0010
0100
0001
,
2000
0000
0000
3000
,
0000
0001
0100
0001
,
0000
1000
0100
1000
,
0000
0001
0010
0001
,
0000
1000
0010
1000
,
0000
0001
0100
0010
,
0000
1000
0100
0010
,
0000
0001
0010
0100
,
1000
0000
0001
0001
,
1000
1000
0010
0000
,
1010
0000
1000
0001
,
1000
0001
0100
0010
,
0100
0010
1000
1000
,
0001
0001
0010
0000
,
0011
0000
0001
1000
,
0001
1000
0010
0100
,
0010
0100
0001
0001
,
1000
1000
0100
0000
,
1100
0000
1000
0001
,
1000
0001
0010
0100
,
0010
0100
1000
1000
,
2000
0000
3001
0001
,
0002
0000
0000
0000
1003
0000
0000
0010
,
0010
0000
0000
0100
0100
0000
0000
0001
,
0001
0000
0202
0000
,
0000
0000
0303
0000
;

//---------------dance-single - ----------------
#NOTEDATA:;
#CHARTNAME:;
#STEPSTYPE:dance-single;
#DESCRIPTION:;
#CHARTSTYLE:;
#DIFFICULTY:Beginner;
#METER:2;
#RADARVALUES:0.096195,0.148174,0.000000,0.006667,0.000000,101.000000,101.000000,0.000000,1.000000,0.000000,0.000000,0.000000,0.000000,0.000000,0.096195,0.148174,0.000000,0.006667,0.000000,101.000000,101.000000,0.000000,1.000000,0.000000,0.000000,0.000000,0.000000,0.000000;
#CREDIT:;
#NOTES:
0000
0000
0000
0000
,
0000
0000
0000
0000
,
0000
0000
0000
0000
,
0000
0000
0000
0000
,
0001
0000
0001
0000
,
0001
0000
0000
0000
,
1000
0000
1000
0000
,
1000
0000
0000
0000
,
0010
0000
0000
0000
,
0100
0000
0000
0000
,
0001
0000
0001
0000
,
1000
0000
1000
0000
,
0001
0000
0000
0010
,
0010
0000
0000
0000
,
0100
0000
0100
0000
,
0010
0000
0010
0000
,
0001
0000
0000
0000
,
1000
0000
0000
0000
,
0010
0000
0010
0000
,
0100
0000
0100
0000
,
0001
0000
1000
1000
,
1000
0000
0001
0001
,
0001
0000
1000
0000
,
0000
0000
0001
0000
,
0000
1000
1000
0000
,
0000
0000
0001
0000
,
0000
0100
0100
0000
,
0000
0000
0010
0000
,
0010
0000
0100
0000
,
0100
0000
0001
0001
,
0001
0001
0001
0000
,
1000
0000
0100
0000
,
1000
0000
0000
0000
,
0001
0000
0100
0000
,
0001
0000
0000
0000
,
1000
0000
0010
0000
,
1000
0000
0000
0000
,
0001
0000
0010
0000
,
0001
0000
0000
0000
,
1000
0000
0100
0000
,
0010
0000
0000
0000
,
0001
0000
0100
0000
,
0010
0000
0000
0000
,
1000
0000
0010
0000
,
0100
0000
0000
0000
,
0001
0000
0010
0000
,
0100
0000
1000
0000
,
0001
0000
1000
0000
,
0000
0000
0010
0000
,
0010
0000
0100
0000
,
0100
0000
0001
0000
,
1000
0000
0001
0000
,
0000
0000
0010
0000
,
0010
0000
0100
0000
,
0100
0000
1000
0000
,
0010
0000
1000
0000
,
0000
0000
0001
0000
,
0001
0000
1000
0000
,
1000
0000
0100
0000
,
0000
0010
0010
0000
,
0000
0000
0001
0000
,
1000
0000
0001
0000
,
1000
0000
0020
0000
,
0000
0000
0030
0000
;
