#TITLE:Don't Die;
#SUBTITLE:;
#ARTIST:Paul Bazooka;
#TITLETRANSLIT:;
#SUBTITLETRANSLIT:;
#ARTISTTRANSLIT:;
#GENRE:Drum & Bass;
#CREDIT:;
#BANNER:[Round 3] - Don't Die.png;
#BACKGROUND:[Round 3] - Don't Die-bg.png;
#LYRICSPATH:;
#CDTITLE:cdtitle.png;
#MUSIC:[Round 3] - Don't Die.ogg;
#OFFSET:-0.039380;
#SAMPLESTART:23.353687;
#SAMPLELENGTH:10.971432;
#SELECTABLE:YES;
#BPMS:0.000000=87.500000
,18.000000=175.000000
,106.000000=87.500000
,110.000000=175.000000
,142.000000=87.500000
,158.000000=175.000000
;
#STOPS:
;
#BGCHANGES:0.000=[Round 3] - Don't Die.avi=1.000=1=0=0=StretchNoLoop==CrossFade==,
99999=-nosongbg-=1.000=0=0=0 // don't automatically add -songbackground-
;
#KEYSOUNDS:;
#ATTACKS:;

//---------------dance-single - ----------------
#NOTES:
     dance-single:
     10-15:
     Challenge:
     10:
     0.773184,1.121259,0.358166,0.843680,0.497453,680.000000,635.000000,45.000000,106.000000,41.000000,0.000000,0.773184,1.121259,0.358166,0.843680,0.497453,680.000000,635.000000,45.000000,106.000000,41.000000,0.000000:
0000
0000
0000
0000
,
0000
0000
0000
0000
,
0000
0000
0000
0000
0000
0000
0000
0000
0000
0000
0000
0000
0000
0000
0000
0000
1001
0000
0000
0000
1000
0100
1000
0000
0010
0000
0100
0000
0010
0000
1000
0001
,
1000
0000
0100
0000
0010
0000
0001
1000
0001
0000
0100
0000
0010
1000
0010
1000
0001
0000
2000
0000
3100
0000
0020
0000
0130
0000
0002
0000
0103
0000
0020
0000
,
0130
0000
0000
0000
1000
0000
0000
0000
0000
0000
0001
0000
0000
0000
0000
0000
2002
0000
0000
0000
0000
0000
3003
0000
0MM0
M00M
0000
0000
0000
0000
0000
0000
1000
0000
0000
0000
0000
0000
0000
0000
0020
0000
0000
0000
0000
0000
0000
0000
0230
0000
0000
0000
0000
0000
0000
0000
1300
0000
0000
0000
0000
0000
0000
0000
,
0200
0320
1030
0020
0230
1300
0200
0320
,
0230
0320
1030
0200
0320
1030
0020
0230
,
1300
0001
0200
0320
0031
0020
1030
0020
,
0031
0000
0000
0000
0020
0000
0000
0000
2000
0000
0000
0030
00M0
0000
0000
0000
3200
0000
0000
0000
0320
0000
0000
0000
0031
0000
0000
0000
0020
0000
0000
0000
,
0230
0301
0200
0320
0031
0020
0230
0320
,
0230
0301
0200
0320
0031
0200
0320
1030
,
0001
0020
0230
0301
0100
1000
0001
0100
,
0020
0000
1030
1010
,
0101
0000
0001
1000
0100
0000
0010
0001
,
0100
0010
1000
0001
0010
0000
0001
0000
0100
0000
0000
0000
1010
0000
0000
0000
,
0101
0000
0000
0000
1010
0000
0000
0000
1000
0000
0100
0010
0001
0000
1000
0000
,
0010
1000
0001
0010
0100
0000
1000
0000
0001
0000
0100
0000
1000
0000
0100
0000
,
0001
0000
1001
0000
0001
0010
1000
0000
,
1010
0000
0000
0000
1000
0000
0010
0000
0001
0000
0001
0000
0001
0000
0100
0010
,
1000
0000
1000
0000
1000
0000
0100
0000
0010
0001
0000
0001
0100
0000
0010
1000
,
0000
1000
0200
0000
0302
0000
0103
0000
1100
0000
0000
0000
0010
0000
0001
0000
,
1000
0000
1000
0001
0100
0010
0100
0001
,
0100
0000
0010
0000
0100
0001
0100
0001
1000
0000
0100
0000
0010
0000
0100
0000
,
1000
0000
0001
0100
0010
0100
0001
1000
,
0100
0100
0010
0010
0001
0100
0000
0001
,
0100
1000
0100
0001
0010
0100
0000
1000
,
0100
0000
0000
0000
0010
0000
0001
0000
0000
0000
0010
0000
0001
0000
0000
0000
1000
0000
0010
0000
0000
0010
0100
0000
0002
0000
1003
0100
0010
0000
0001
0000
,
0100
0000
1000
0000
0100
0000
0010
0100
0010
0100
0001
0000
1000
0100
0020
0000
0032
0000
0000
0000
0003
0000
0000
0000
0010
0000
0000
0000
2000
0000
0000
0000
,
3000
0020
0032
1003
1000
0002
0003
0002
,
0203
0000
0310
0000
1000
0010
0100
0001
2000
0000
3000
0000
0100
0000
0002
0000
,
0003
0200
2300
3001
0001
0100
0000
0100
,
0010
1000
0001
0000
0010
0001
1000
0001
0100
0000
0010
0000
1000
0000
0001
0000
,
0000
0000
0001
0000
0010
0100
0000
0010
0001
0000
0100
0000
0010
0000
1000
0000
,
0100
0000
0010
0000
0001
1000
0001
1000
0002
0000
0203
0000
0320
0000
2030
0000
,
3200
0000
0302
0000
0203
0000
2300
0000
3010
0000
0200
0000
0301
1000
0001
1000
,
0002
0000
0000
1003
0200
0000
0000
0000
,
0000
0000
0000
0000
,
0000
0000
0000
0000
0000
0000
0000
0000
1300
0100
0010
0001
1000
0010
0100
0001
,
0010
0001
1000
0001
0100
0010
1000
0001
1000
0100
0010
0100
0001
0100
0010
0100
,
1000
1000
0001
0001
1000
0010
0100
0001
1001
0000
0000
0000
0001
0000
0010
0000
,
0011
0000
1000
0010
1010
0000
0001
0010
,
0011
0000
1000
0100
0110
0000
0001
0100
,
0110
0000
1000
0100
0110
0000
0001
0100
,
0110
0000
1000
0001
1001
0000
1010
0000
,
1001
0000
0011
0000
0001
0001
0010
0010
,
0100
0100
1000
1000
0001
0100
1000
0100
,
0001
0000
0010
0000
1000
0000
0010
0000
0001
0000
0010
0001
0010
0000
0001
0010
,
0001
0000
0010
0001
00M0
0000
1000
0000
1001
0000
0000
0000
1000
0000
0100
M0MM
,
0100
0001
0010
0001
1000
0001
0100
1000
,
0100
0000
0001
0000
0010
0000
0100
0000
1000
0000
0010
0000
0001
0010
0001
0010
,
0001
0010
1000
0001
1000
0100
0001
0000
,
0001
0000
0100
0000
0001
0100
0001
0100
0010
0000
0001
0000
0100
0000
0010
0000
,
2000
0000
0000
0000
3010
MM0M
0010
0000
0001
0000
0100
0000
1000
0000
0100
0000
,
0001
0000
0010
0000
0100
0000
1000
0000
0001
0000
0100
0000
1000
0100
1000
0100
,
1000
0100
0001
1000
0100
0100
0100
0100
,
0020
0030
0002
0003
2000
3000
0020
0030
0210
0000
0000
0000
0310
0000
1000
0000
,
0001
0000
0020
0030
2000
3MMM
2000
3000
0100
0000
0100
0000
0010
0000
0100
0000
,
1000
0000
0020
0030
0002
MMM3
0002
0003
0100
0000
0100
0000
0001
0000
0010
0000
,
0001
0000
0200
0300
2000
3MMM
2000
3000
0010
0000
1000
0000
0100
0000
0100
0000
,
0010
0000
0001
0000
0100
0000
0010
0000
2001
3000
0000
0000
1000
0000
0000
0000
,
1000
0000
0200
0300
0002
0003
0200
0300
1000
0000
1000
0000
0001
0000
0001
0000
,
1000
0000
0020
0030
0002
0003
0020
0030
1000
0000
0100
0000
1000
0000
0100
0000
,
0010
0000
0000
0000
0000
0000
0000
0000
0000
0000
0000
0000
0000
0000
0000
0000
0000
0000
0000
0000
0000
0000
0000
0000
0002
0000
0000
0003
0000
0000
0000
0000
0000
0000
0000
0000
0000
0000
0000
0000
0000
0000
0000
0000
0000
0000
0000
0000
0200
0000
0000
0000
0300
0000
0000
0000
0000
0000
0000
0000
0000
0000
0000
0000
0000
0000
0000
0000
0000
0000
0000
0000
0020
0000
0000
0000
0000
0000
0030
0000
0000
0000
0000
0000
0000
0000
0000
0000
0000
0000
0000
0000
0000
0000
0000
0000
2000
0000
0000
0000
0000
0000
0000
0000
3000
0000
0000
0000
0000
0000
0000
0000
0000
0000
0000
0000
0000
0000
0000
0000
0200
0000
0000
0000
0000
0000
0000
0000
0000
0000
0000
0000
0300
0000
0000
0000
0000
0000
0000
0000
0000
0000
0000
0000
0020
0000
0000
0000
0000
0000
0000
0000
0000
0000
0000
0000
0000
0000
0000
0000
0030
0000
0000
0000
0000
0000
0000
0000
0002
0000
0000
0000
0000
0000
0000
0000
0000
0000
0000
0000
0000
0000
0000
0000
0000
0000
0000
0000
0000
0000
0000
0000
,
1003
0000
0000
0000
1000
0000
0000
0000
002M
M000
0M00
0000
0030
0000
0000
0000
1001
0000
0000
0000
0000
0000
0000
0000
1000
0000
0010
0000
1000
0000
0010
0000
,
0100
0000
0010
0000
1000
0000
0001
0000
0011
0000
0000
0000
0001
0010
0001
0010
,
0100
0000
0010
0000
0001
0000
0001
0000
0100
M0MM
0100
0000
1000
0010
1000
0010
,
0100
0000
0010
0000
1000
0000
0001
1000
0001
0000
0100
M0MM
0100
0000
1000
0001
,
1000
0000
0010
MM0M
0010
0000
0001
0000
1001
0000
0000
0000
0001
0000
1000
0000
,
0100
0001
1000
0010
0001
1000
0100
0001
,
1000
0010
0001
1000
1010
0000
0101
0000
,
0001
0010
0001
0000
1100
0000
0000
0000
1000
0000
0001
0100
0010
0100
0001
0100
,
0010
0100
0001
0000
1010
0000
0000
0000
1001
0000
0000
0000
0021
0000
0000
0130
,
1000
0000
1000
0000
0020
0000
0130
0000
0001
0000
0010
0001
0100
M00M
0100
1000
,
0010
M00M
0010
0001
0100
0000
0020
0000
1030
0000
0100
0000
0012
0000
0000
0013
,
0100
0000
1000
0000
2010
0000
0000
3010
0100
0000
0010
1000
0100
M00M
0100
0001
,
0010
M00M
0010
1000
0100
0000
0000
0000
0011
0000
0000
0000
1100
0000
0000
0000
,
0011
1100
1010
0101
,
1010
0000
0000
0000
0101
0000
0000
0000
1000
0000
0001
0010
0001
0000
1000
0010
,
1000
0000
0001
0010
0001
0000
1000
0010
1000
0000
0001
0100
0010
0000
1000
0100
,
0010
0000
0001
0100
0010
0000
1000
0000
2002
0000
0000
0000
0000
0000
0000
0000
,
0000
0000
3003
0000
;

//---------------dance-single - ----------------
#NOTES:
     dance-single:
     07-10:
     Medium:
     7:
     0.493473,0.608684,0.286533,0.326329,0.027857,434.000000,398.000000,36.000000,41.000000,0.000000,0.000000,0.493473,0.608684,0.286533,0.326329,0.027857,434.000000,398.000000,36.000000,41.000000,0.000000,0.000000:
0000
0000
0000
0000
,
0000
0000
0000
0000
,
0000
0000
0000
0000
0000
0000
0000
0000
1001
0000
1000
0000
0100
0010
0100
0000
,
1000
0000
0010
0000
0100
0001
1000
0000
0001
0020
0030
0200
0300
0020
0030
0200
,
0300
2000
0000
0000
0002
0000
3003
0000
0001
0000
1000
0000
0010
0000
0000
0000
,
1000
0010
0000
1000
0001
0000
1000
0001
,
1000
0001
0000
0010
0001
0000
0010
0001
,
0000
0000
0001
0100
0000
0100
0000
0100
,
0000
0020
2030
3000
0001
0010
0000
0001
,
0010
0000
0001
1000
0000
0001
1000
0001
,
1000
0000
0010
1000
0000
0010
1000
0000
,
0000
1000
0100
0000
0010
0000
0001
0000
,
0200
0000
0310
1001
,
1001
0000
0001
1000
0100
0000
0010
0001
,
1000
0001
0100
0000
0010
0000
1010
0000
,
0101
0000
1010
0000
1000
0100
0010
0000
,
0001
0100
0010
0000
1000
0001
1000
0002
,
0000
0000
0013
0000
0100
0010
0100
0000
,
0011
0000
1100
0000
0001
0100
0001
0000
,
1000
0100
1000
0000
0002
0000
0000
0000
,
0000
1000
1003
0001
0010
0000
0010
0001
,
1000
0000
0001
0000
1000
0010
0100
0000
,
0010
0100
0001
0000
1000
0000
1000
0001
,
0010
0000
0010
0001
1000
0000
0010
0000
,
0200
0000
0000
0000
0301
0100
0000
0001
,
1000
0000
0010
0000
1000
0100
0000
1000
,
0001
0010
0002
0000
,
1003
0010
0100
0001
1001
0000
1000
0100
,
0000
0100
0010
0000
0001
0100
0000
0100
,
0010
0000
1000
0000
0001
0000
1000
0100
,
0000
0100
0010
0000
0001
1000
0000
0001
,
1000
0000
0010
0000
0100
0000
0001
0010
,
0000
0100
0000
0010
0001
0000
1000
0000
,
0001
0100
0010
1000
0002
0000
0023
0000
,
0230
0000
2300
0000
3001
0100
1000
0100
,
0002
0000
0203
0000
,
0000
0000
0000
0000
,
0000
0000
0000
0000
0301
0100
0010
1000
,
0100
0001
0100
1000
0010
0010
0100
0100
,
0001
1000
2002
3003
1000
0000
0001
0010
,
0001
0000
1000
0010
1000
0000
0001
0010
,
0001
0000
1000
0100
1000
0000
0001
0100
,
0001
0000
1000
0100
1000
0000
0001
0100
,
0001
0000
1000
0001
1000
0000
0100
0000
,
0010
0001
1000
1000
,
0001
0000
0001
0000
1000
0001
1000
0001
,
1000
0001
1000
0001
0200
0000
0000
0000
,
0000
0000
0300
0000
1001
0000
1000
0010
,
1000
0000
0101
0000
1010
0000
0001
0010
,
0001
0000
1100
0000
0001
0010
0100
0010
,
0100
0010
0001
0000
1000
0010
0100
0000
,
0100
0010
1000
0000
1001
0000
0001
0100
,
0001
0000
0110
0000
1001
0000
1000
0100
,
1000
0000
0110
0000
0001
0100
0010
0100
,
0010
0100
0001
0000
1000
0000
1000
0000
,
0200
0000
0310
0011
,
0010
0001
1000
0001
0100
0000
1010
0000
,
0010
1000
0001
1000
0100
0000
1100
0000
,
1000
0010
0100
0001
0000
0001
0000
0001
,
2000
0000
3100
1000
0001
0000
0001
0000
,
1000
0000
1000
0000
0001
1000
0001
0000
,
1000
1000
0002
0203
,
0320
0000
2030
0000
3001
0010
0100
1000
,
0000
0000
0010
0000
1001
0000
0001
1000
,
0100
0000
0120
0000
0031
0000
1000
0001
,
0100
0000
0120
0000
1030
0000
0001
1000
,
0100
0000
0210
0000
1300
0001
0100
0000
,
0001
1000
0100
0000
0011
0000
1000
0010
,
0000
1000
0010
0000
0100
0001
0000
0100
,
0001
0000
1000
0100
0010
0000
0010
0000
,
0010
0100
0010
0000
0100
0010
0100
0010
,
0100
0010
0100
0000
1001
0000
2000
0000
,
3010
1000
0002
0000
0013
0001
1000
0000
,
1000
0001
0100
0000
0001
1000
0002
0000
,
0013
0100
2000
0000
3001
1000
0010
0000
,
0010
1000
0001
0000
0011
0000
0011
0000
,
1100
1100
1010
1010
,
0101
0101
2000
3200
,
0320
0032
0103
0100
,
0100
0100
2002
0000
,
0000
0000
3003
0000
;

//---------------dance-single - ----------------
#NOTES:
     dance-single:
     05-07:
     Easy:
     5:
     0.382044,0.544612,0.310411,0.143266,0.000000,336.000000,297.000000,39.000000,18.000000,0.000000,0.000000,0.382044,0.544612,0.310411,0.143266,0.000000,336.000000,297.000000,39.000000,18.000000,0.000000,0.000000:
// measure 0
0000
0000
0000
0000
,  // measure 1
0000
0000
0000
0000
,  // measure 2
0000
0000
0000
0000
1001
0001
0010
1000
,  // measure 3
0010
0001
0100
0010
1000
0001
1000
0001
,  // measure 4
1000
0200
0020
0330
0001
0000
0000
0000
,  // measure 5
0100
0000
0001
0000
,  // measure 6
0100
0000
0001
0000
,  // measure 7
1000
0000
0001
0000
,  // measure 8
0010
0002
1003
0000
,  // measure 9
0100
0000
1000
0000
,  // measure 10
0001
0000
1000
0000
,  // measure 11
0010
0000
1000
0100
,  // measure 12
0020
0000
0031
0100
,  // measure 13
0001
1000
0100
0010
,  // measure 14
0010
0001
1000
0100
,  // measure 15
1000
0001
0100
0010
,  // measure 16
1000
0001
0010
0010
,  // measure 17
0010
0001
0100
1000
,  // measure 18
0100
0001
1000
1000
,  // measure 19
0001
0000
0001
0000
0020
0000
0000
0030
,  // measure 20
0000
1001
0001
0001
,  // measure 21
1000
1000
0001
0100
,  // measure 22
1000
0100
0001
0001
,  // measure 23
1000
1000
0100
0010
,  // measure 24
0002
0000
1003
0100
,  // measure 25
1000
1000
0001
0100
,  // measure 26
0001
0001
2000
3002
,  // measure 27
1003
0100
0010
0001
0100
0000
0100
0000
,  // measure 28
0001
0001
0100
0010
,  // measure 29
1000
0001
1000
1000
,  // measure 30
0100
0100
0010
0001
,  // measure 31
1000
0010
1000
0001
,  // measure 32
0010
0010
0001
1000
,  // measure 33
0010
0010
1000
0100
,  // measure 34
0010
0001
1000
1000
,  // measure 35
0020
0000
0000
0030
0200
0000
0000
0000
,  // measure 36
0000
0000
0000
0000
,  // measure 37
0000
0000
0000
0000
0301
0100
0001
1000
,  // measure 38
0001
0010
0001
1000
0010
0010
0100
0100
,  // measure 39
0001
1000
0200
0000
1300
0000
1000
0000
,  // measure 40
0001
0001
1000
1000
,  // measure 41
0001
0001
0100
0100
,  // measure 42
0010
0010
0100
0100
,  // measure 43
0010
0010
1000
0001
,  // measure 44
1000
0001
1000
0100
,  // measure 45
0001
0100
1000
0010
,  // measure 46
0100
0001
2000
3002
,  // measure 47
2003
3000
1001
0001
,  // measure 48
0100
0001
1001
1000
,  // measure 49
0100
1000
0001
0101
,  // measure 50
1010
0101
1000
1100
,  // measure 51
0011
1100
1001
1000
,  // measure 52
0010
1000
1001
0001
,  // measure 53
0010
0001
0100
1010
,  // measure 54
0101
1001
0100
0100
,  // measure 55
0200
0300
0011
0001
,  // measure 56
0100
0010
1010
1000
,  // measure 57
0100
0010
0011
0001
,  // measure 58
1000
1000
0001
0100
,  // measure 59
1000
0100
0001
0001
,  // measure 60
0001
0001
1000
1000
,  // measure 61
1000
1000
0001
0010
,  // measure 62
1000
0010
0001
0100
,  // measure 63
0020
0030
1001
0100
,  // measure 64
0010
0100
1001
0010
,  // measure 65
0100
0010
1001
0100
,  // measure 66
0010
0100
0001
0001
,  // measure 67
1000
1000
1001
0001
,  // measure 68
0100
1000
0100
0001
,  // measure 69
0100
1000
0110
0110
,  // measure 70
1001
1001
0100
0100
,  // measure 71
0100
0100
1001
0010
,  // measure 72
0001
0100
1001
0010
,  // measure 73
1000
0100
1001
0010
,  // measure 74
0001
0100
1001
0010
,  // measure 75
1000
0100
0011
0011
,  // measure 76
1100
1100
1010
1010
,  // measure 77
0101
0101
1000
0010
,  // measure 78
0001
0100
1000
0001
,  // measure 79
1000
0001
2002
0000
,  // measure 80
0000
0000
3003
0000
;

//---------------dance-single - ----------------
#NOTES:
     dance-single:
     02-03:
     Beginner:
     2:
     0.197844,0.288324,0.031837,0.047755,0.000000,174.000000,170.000000,4.000000,6.000000,0.000000,0.000000,0.197844,0.288324,0.031837,0.047755,0.000000,174.000000,170.000000,4.000000,6.000000,0.000000,0.000000:
// measure 0
0000
0000
0000
0000
,  // measure 1
0000
0000
0000
0000
,  // measure 2
0000
0000
1000
0001
,  // measure 3
1000
0001
0010
0010
,  // measure 4
0020
0030
0001
0000
,  // measure 5
0001
0000
0100
0000
,  // measure 6
0100
0000
1000
0000
,  // measure 7
1000
0000
0010
0000
,  // measure 8
0010
0000
1000
0000
,  // measure 9
1000
0000
0100
0000
,  // measure 10
0100
0000
0001
0000
,  // measure 11
0001
0000
0010
0000
,  // measure 12
0000
0000
0001
0001
,  // measure 13
0001
0000
1000
0000
,  // measure 14
0010
0000
1000
1000
,  // measure 15
1000
0000
0001
0000
,  // measure 16
0010
0000
0100
0100
,  // measure 17
0100
0000
1000
0000
,  // measure 18
0001
0000
0100
0000
,  // measure 19
0100
0000
0100
0100
,  // measure 20
0100
0000
0001
0000
,  // measure 21
1000
0000
0010
0010
,  // measure 22
0010
0000
1000
0000
,  // measure 23
0001
0000
0010
0010
,  // measure 24
0010
0000
0001
0000
,  // measure 25
0001
0000
1000
0000
,  // measure 26
1000
0000
0020
0000
,  // measure 27
0030
0000
0100
0000
,  // measure 28
0100
0000
0100
0100
,  // measure 29
0100
0000
0010
0000
,  // measure 30
0010
0000
0010
0010
,  // measure 31
0010
0000
1000
0000
,  // measure 32
1000
0000
0001
0000
,  // measure 33
0001
0000
0010
0010
,  // measure 34
0010
0000
0100
0000
,  // measure 35
0000
0000
0200
0000
,  // measure 36
0000
0000
0000
0000
,  // measure 37
0000
0000
0300
0000
,  // measure 38
0000
0000
0000
0000
,  // measure 39
0000
0000
0100
0000
,  // measure 40
0100
0000
0100
0000
,  // measure 41
0100
0000
0100
0000
,  // measure 42
0100
0000
0100
0000
,  // measure 43
0100
0000
0100
0100
,  // measure 44
0100
0100
0100
0100
,  // measure 45
0100
0100
0100
0100
,  // measure 46
0100
0100
0100
0000
,  // measure 47
0000
0000
1000
0000
,  // measure 48
0001
0000
1000
0000
,  // measure 49
0001
0000
0010
0010
,  // measure 50
0010
0000
0010
0010
,  // measure 51
0010
0000
0001
0000
,  // measure 52
1000
0000
0001
0000
,  // measure 53
1000
0000
0010
0010
,  // measure 54
0010
0000
0100
0100
,  // measure 55
0100
0000
0001
0000
,  // measure 56
0010
0010
0010
0000
,  // measure 57
0100
0100
0100
0000
,  // measure 58
1000
1000
1000
0000
,  // measure 59
0001
0000
0100
0000
,  // measure 60
0010
0010
0010
0000
,  // measure 61
1000
1000
1000
0000
,  // measure 62
0001
0000
1000
1000
,  // measure 63
1000
0000
1001
0000
,  // measure 64
0010
0000
1001
0000
,  // measure 65
0100
0000
1001
0000
,  // measure 66
0010
0000
0100
0000
,  // measure 67
0010
0000
1000
0000
,  // measure 68
0100
0000
0001
0000
,  // measure 69
0100
0000
1000
0000
,  // measure 70
0001
0000
1000
1000
,  // measure 71
1000
0000
0001
0000
,  // measure 72
0010
0000
1000
0000
,  // measure 73
0010
0000
0001
0000
,  // measure 74
0100
0000
1000
0000
,  // measure 75
0100
0000
0001
0000
,  // measure 76
1000
0000
0001
0000
,  // measure 77
1000
0000
0200
0000
,  // measure 78
0000
0000
0000
0000
,  // measure 79
0300
0000
2002
0000
,  // measure 80
0000
0000
3003
0000
;

//---------------dance-single - ----------------
#NOTES:
     dance-single:
     09-13:
     Hard:
     9:
     0.677673,0.961079,0.525310,0.493473,0.155205,596.000000,530.000000,66.000000,62.000000,7.000000,0.000000,0.677673,0.961079,0.525310,0.493473,0.155205,596.000000,530.000000,66.000000,62.000000,7.000000,0.000000:
0000
0000
0000
0000
,
0000
0000
0000
0000
,
0000
0000
0000
0000
0000
0000
0000
0000
1001
0000
0001
0100
0010
0100
0001
0010
,
1000
0010
0001
0100
1000
0100
0001
0010
0100
2200
3300
2020
3030
0202
0303
0022
,
0033
0000
0100
0000
0000
0010
0000
0000
2002
0000
0000
0000
3003
0000
0000
0000
0001
0000
0000
0000
0100
0000
0000
0000
0010
0000
0000
0000
0000
0000
0000
0000
,
0100
0010
0000
0100
0001
0000
1000
0100
,
0010
0001
0000
0100
0010
0000
0100
0010
,
0000
1000
0100
0010
0000
1100
0000
0011
,
0000
0002
0203
0310
1000
0100
0000
0010
,
0100
0000
0010
0100
0000
1000
0001
0100
,
0010
0000
1000
0100
0000
0010
0100
0000
,
0010
0001
0100
0000
0010
1000
0100
0010
,
0200
0000
1300
0011
,
1100
0000
1000
0001
0100
0000
0010
1000
,
0100
0001
0100
1000
0010
0000
1010
0000
,
0101
0000
1010
0000
0001
0010
0100
0010
,
0001
0100
1000
0100
0001
0001
0010
0100
,
1000
0000
0110
0000
1000
0001
1000
0000
,
0110
0000
1001
0000
0001
0100
0010
0100
,
0001
0000
0100
0000
0010
0000
0100
0000
0101
0000
0000
1001
0000
0000
1100
0000
,
0000
0010
0001
0100
1001
0000
1000
0010
,
1000
0000
0001
0010
0100
1000
0100
0010
,
0100
1000
0100
0010
0001
0100
1000
0100
,
0001
0000
0010
0100
1000
0100
0010
0100
,
1000
1000
0001
0001
0100
0010
0000
1000
,
0010
0100
0010
1000
0001
0010
0000
0100
,
0010
0000
0001
0000
1000
0000
0001
0000
0100
0100
0000
0010
0100
0001
1000
0100
,
0010
1000
0010
0100
1000
0001
0100
0010
2010
0000
3000
0000
0001
0000
0020
0000
,
0030
0200
0302
0103
0100
0020
0030
0002
,
0203
0310
2000
3001
0012
0003
1000
0020
,
0030
0200
2300
3100
0100
0020
0030
1000
,
0010
0001
0010
1000
0100
0100
0010
0001
,
0000
0000
1000
0000
0000
1000
0000
0000
0100
0000
0010
0000
0001
0000
0100
0000
,
0010
0100
1000
0100
0001
0010
0001
1000
,
0010
1000
0001
0010
0001
0100
1000
0001
,
0020
0000
0000
1030
0200
0000
0000
0000
,
0000
0000
0000
0000
,
0000
0000
0000
0000
0000
0000
0000
0000
1300
0100
0010
0001
0100
0010
1000
0001
,
0010
0100
0010
0001
1000
0010
0100
0010
1000
1000
0100
0100
0010
0010
0001
0001
,
1000
0010
0100
0001
2000
0000
3000
0000
0001
0000
0001
0000
0000
0000
0101
0000
,
0000
1100
0000
1010
0000
0011
0000
1001
,
0000
0001
0100
0001
1000
1000
0000
1100
,
0000
0101
0000
0011
0000
1010
0000
1001
,
0000
1000
0100
0010
0001
0000
1100
0000
,
0011
0000
1100
0000
0001
0010
0001
1000
,
0001
0010
0001
1000
0010
0100
0001
0010
,
0001
1000
0010
1000
0100
0010
0100
0010
,
0100
0000
0010
0000
0M00
0000
0010
0000
1001
0000
0000
0000
0001
0000
0100
M0MM
,
0100
1000
1010
0000
0010
1000
0001
1000
,
0100
1000
0001
0010
0001
0200
2300
3200
,
2300
3200
0301
0001
1000
0200
0302
0003
,
0002
0000
0203
0000
0302
0000
0203
0000
1300
0000
0010
0000
1000
0000
0100
M0MM
,
0100
0001
0011
0000
0010
0001
1000
0001
,
0100
0001
1000
0010
1000
0200
0302
0203
,
0302
0203
1300
1000
0010
0100
0010
0100
,
0001
0001
0010
0100
1001
0000
1000
0100
,
0010
0000
0002
0003
0200
0300
2000
3000
0100
0000
0010
0000
1000
0000
0001
0000
,
0100
0000
0002
0003
0020
0030
2000
3000
0010
0000
0001
0000
0100
0000
0001
0000
,
0100
0000
2000
3000
0200
0300
0002
0003
1000
0000
0001
0000
0010
0000
0100
0000
,
1000
0010
0100
0001
1001
0000
0101
0000
,
1010
0100
0001
0010
1100
0000
0011
0000
,
1100
0010
0001
0100
0010
1000
0010
1000
,
0010
0100
0001
0010
0100
0100
1000
1000
,
0001
0100
0020
0030
1001
0000
0001
0001
,
0100
1000
0100
0001
0110
0000
1000
1000
,
0100
0001
0100
1000
0110
0000
0001
0001
,
0100
0010
1000
0100
0001
0100
1000
0010
,
0001
0010
1000
0100
0120
0000
0031
1000
,
0010
0001
1000
0100
0001
1000
0010
0001
,
1000
0100
0001
1000
0100
0000
0100
0000
,
1001
0000
1001
0000
1000
0001
1000
0001
,
1000
0001
1001
0000
1100
0000
0012
0000
,
0103
0010
2010
0000
3001
0010
1000
0010
,
0001
0010
1000
0010
0001
0100
1020
0000
,
1030
0100
0012
0000
1003
0010
0001
0010
,
1000
0010
0100
0000
0101
0000
0011
0000
,
1100
1010
0011
1100
,
1010
0000
0101
0000
0001
0010
0001
1000
,
0001
0010
0001
1000
0001
0100
1000
0100
,
0001
0100
1000
0100
0220
0000
0000
0000
,
0000
0000
0330
0000
;
