#VERSION:0.83;
#TITLE:qualia;
#SUBTITLE:-ideaesthesia-;
#ARTIST:nitro;
#TITLETRANSLIT:;
#SUBTITLETRANSLIT:;
#ARTISTTRANSLIT:;
#GENRE:Variant Trance;
#ORIGIN:BMS;
#CREDIT:;
#BANNER:[Round 2] - qualia -ideaesthesia-.png;
#BACKGROUND:[Round 2] - qualia -ideaesthesia--bg.png;
#PREVIEWVID:;
#JACKET:[Round 2] - qualia -ideaesthesia--jacket.png;
#CDIMAGE:;
#DISCIMAGE:;
#LYRICSPATH:;
#CDTITLE:cdtitle.png;
#MUSIC:[Round 2] - qualia -ideaesthesia-.ogg;
#OFFSET:-0.033000;
#SAMPLESTART:110.045036;
#SAMPLELENGTH:15.000000;
#SELECTABLE:YES;
#BPMS:0.000=144.000;
#STOPS:;
#DELAYS:;
#WARPS:344.000=32.000;
#TIMESIGNATURES:0.000=4=4;
#TICKCOUNTS:0.000=4;
#COMBOS:0.000=1;
#SPEEDS:0.000=1.000=0.000=0;
#SCROLLS:0.000=1.000;
#FAKES:;
#LABELS:0.000=Song Start;
#BGCHANGES:;
#KEYSOUNDS:;
#ATTACKS:
;

//---------------dance-single - ideaesthetic----------------
#NOTEDATA:;
#CHARTNAME:;
#STEPSTYPE:dance-single;
#DESCRIPTION:ideaesthetic;
#CHARTSTYLE:;
#DIFFICULTY:Edit;
#METER:13;
#RADARVALUES:0.646372,0.920541,0.069717,0.411328,0.766882,649.000000,639.000000,10.000000,59.000000,65.000000,0.000000,0.000000,1.000000,0.000000,0.646372,0.920541,0.069717,0.411328,0.766882,649.000000,639.000000,10.000000,59.000000,65.000000,0.000000,0.000000,1.000000,0.000000;
#CREDIT:;
#OFFSET:-0.033000;
#BPMS:0.000000=144.000000
,328.000000=36.000000
,332.000000=144.000000
;
#STOPS:;
#DELAYS:;
#WARPS:332.000000=32.000000
;
#TIMESIGNATURES:0.000000=4=4
;
#TICKCOUNTS:0.000000=4
;
#COMBOS:0.000000=1
;
#SPEEDS:0.000000=1.000000=0.000000=0
;
#SCROLLS:0.000000=1.000000
;
#FAKES:;
#LABELS:0.000000=Song Start
;
#ATTACKS:TIME=-0.007000:LEN=13.000000:MODS=*16 Drunk:TIME=-0.007000:LEN=13.000000:MODS=Sudden:TIME=13.326332:LEN=0.100000:MODS=*2 Mini:TIME=13.742998:LEN=0.100000:MODS=*2 Mini:TIME=14.159665:LEN=0.100000:MODS=*2 Mini:TIME=14.576332:LEN=0.100000:MODS=*2 Mini:TIME=14.992998:LEN=0.100000:MODS=*2 Mini:TIME=15.409665:LEN=0.100000:MODS=*2 Mini:TIME=15.826332:LEN=0.100000:MODS=*2 Mini:TIME=16.243000:LEN=0.100000:MODS=*2 Mini:TIME=16.659666:LEN=0.100000:MODS=Mini:TIME=17.076332:LEN=0.100000:MODS=Mini:TIME=17.493000:LEN=0.100000:MODS=Mini:TIME=17.909666:LEN=0.100000:MODS=Mini:TIME=18.326332:LEN=0.100000:MODS=Mini:TIME=18.743000:LEN=0.100000:MODS=Mini:TIME=19.159666:LEN=0.100000:MODS=Mini:TIME=19.576332:LEN=0.100000:MODS=Mini:TIME=19.993000:LEN=6.000000:MODS=Beat:TIME=26.659666:LEN=11.700000:MODS=Reverse:TIME=28.326332:LEN=10.000000:MODS=*16 Beat:TIME=28.326332:LEN=0.100000:MODS=*2 Mini:TIME=31.659666:LEN=0.100000:MODS=*2 Mini:TIME=34.993000:LEN=0.100000:MODS=*2 Flip:TIME=40.930500:LEN=0.100000:MODS=*4 Mini:TIME=41.138832:LEN=0.100000:MODS=*4 Mini:TIME=41.347164:LEN=0.200000:MODS=*2 Flip:TIME=41.659664:LEN=12.700000:MODS=*16 Beat:TIME=41.659664:LEN=12.700000:MODS=Dizzy:TIME=45.930500:LEN=0.100000:MODS=*2 Flip:TIME=46.138832:LEN=0.100000:MODS=*2 Flip:TIME=47.597164:LEN=0.100000:MODS=*2 Mini:TIME=47.805500:LEN=0.100000:MODS=*2 Mini:TIME=52.597164:LEN=0.100000:MODS=*4 Invert:TIME=52.805496:LEN=0.100000:MODS=*2 Invert:TIME=54.992996:LEN=1.000000:MODS=Reverse:TIME=56.659664:LEN=13.000000:MODS=Wave:TIME=56.659664:LEN=13.000000:MODS=Drunk:TIME=54.263832:LEN=0.100000:MODS=*4 Mini:TIME=54.472164:LEN=0.100000:MODS=*4 Mini:TIME=69.993004:LEN=6.000000:MODS=Beat:TIME=76.659668:LEN=5.000000:MODS=200% Beat:TIME=82.909668:LEN=5.000000:MODS=*4 Reverse:TIME=83.638832:LEN=5.000000:MODS=*4 no Reverse:TIME=83.638832:LEN=5.000000:MODS=*4 50% Reverse:TIME=83.847168:LEN=5.000000:MODS=*4 no Reverse:TIME=84.472168:LEN=5.000000:MODS=*4 50% Reverse:TIME=84.680504:LEN=5.000000:MODS=*4 Reverse:TIME=85.305504:LEN=5.000000:MODS=*4 50% Reverse:TIME=85.513832:LEN=5.000000:MODS=*4 no Reverse:TIME=86.138832:LEN=5.000000:MODS=*4 50% Reverse:TIME=86.347168:LEN=5.000000:MODS=*4 Reverse:TIME=86.972168:LEN=5.000000:MODS=*4 50% Reverse:TIME=87.180504:LEN=5.000000:MODS=*4 no Reverse:TIME=87.284668:LEN=5.000000:MODS=*4 50% Reverse:TIME=87.388832:LEN=5.000000:MODS=*4 no Reverse:TIME=87.805504:LEN=5.000000:MODS=*4 50% Reverse:TIME=88.013832:LEN=5.000000:MODS=*4 Reverse:TIME=88.118004:LEN=5.000000:MODS=*4 50% Reverse:TIME=88.222168:LEN=5.000000:MODS=*4 Reverse:TIME=88.638832:LEN=5.000000:MODS=*4 50% Reverse:TIME=88.847168:LEN=5.000000:MODS=*4 no Reverse:TIME=88.951332:LEN=5.000000:MODS=*4 50% Reverse:TIME=89.055504:LEN=5.000000:MODS=*4 no Reverse:TIME=89.472168:LEN=5.000000:MODS=*8 Mini:TIME=89.576332:LEN=5.000000:MODS=*8 no Mini:TIME=89.680504:LEN=5.000000:MODS=*8 Mini:TIME=89.784668:LEN=5.000000:MODS=*8 no mini:TIME=89.993004:LEN=0.100000:MODS=*16 150% Beat:TIME=83.326332:LEN=0.100000:MODS=*16 150% Beat:TIME=83.534668:LEN=5.000000:MODS=*16 no Beat:TIME=90.201332:LEN=5.000000:MODS=*16 no Beat:TIME=91.034668:LEN=5.000000:MODS=*8 Flip:TIME=90.826332:LEN=5.000000:MODS=*32 200% Beat:TIME=91.451332:LEN=5.000000:MODS=*8 no Flip:TIME=91.659668:LEN=5.000000:MODS=*32 no Beat:TIME=92.493004:LEN=5.000000:MODS=*32 200% Beat:TIME=92.701332:LEN=5.000000:MODS=*8 Invert:TIME=93.118004:LEN=5.000000:MODS=*8 no Invert:TIME=93.326332:LEN=5.000000:MODS=*32 no Beat:TIME=94.159668:LEN=5.000000:MODS=*8 150% Mini:TIME=94.472168:LEN=5.000000:MODS=*8 no Mini:TIME=94.576332:LEN=5.000000:MODS=*8 Flip:TIME=94.784668:LEN=5.000000:MODS=*8 no Flip:TIME=95.826332:LEN=5.000000:MODS=*8 150% Mini:TIME=96.138832:LEN=5.000000:MODS=*8 no Mini:TIME=96.242996:LEN=5.000000:MODS=*8 Invert:TIME=96.451332:LEN=5.000000:MODS=*8 no Invert:TIME=96.659668:LEN=5.000000:MODS=*32 200% Beat:TIME=104.159668:LEN=5.000000:MODS=*8 Flip:TIME=104.367996:LEN=5.000000:MODS=*8 Invert:TIME=104.576332:LEN=5.000000:MODS=*8 no Flip:TIME=104.784668:LEN=5.000000:MODS=*8 no Invert:TIME=104.159668:LEN=5.000000:MODS=*8 Twirl:TIME=104.992996:LEN=5.000000:MODS=*8 no Twirl:TIME=105.826332:LEN=5.000000:MODS=*8 Invert:TIME=106.034668:LEN=5.000000:MODS=*8 Flip:TIME=106.242996:LEN=5.000000:MODS=*8 no Invert:TIME=106.451332:LEN=5.000000:MODS=*8 no Flip:TIME=105.826332:LEN=5.000000:MODS=*8 Confusion:TIME=106.659668:LEN=5.000000:MODS=*8 no Confusion:TIME=107.492996:LEN=5.000000:MODS=200% Mini:TIME=109.576332:LEN=5.000000:MODS=*8 no Mini:TIME=109.992996:LEN=5.000000:MODS=*8 Reverse:TIME=110.617996:LEN=5.000000:MODS=*32 400% Beat:TIME=110.617996:LEN=5.000000:MODS=*8 no Reverse:TIME=110.722168:LEN=5.000000:MODS=*8 no Beat:TIME=111.242996:LEN=5.000000:MODS=*4 Mini:TIME=111.659668:LEN=5.000000:MODS=*4 no Mini:TIME=111.659668:LEN=5.000000:MODS=*4 Flip:TIME=112.284668:LEN=5.000000:MODS=*4 no Flip:TIME=112.284668:LEN=5.000000:MODS=*8 Confusion:TIME=112.909668:LEN=5.000000:MODS=*8 no Confusion:TIME=113.326332:LEN=5.000000:MODS=*8 Reverse:TIME=113.951332:LEN=5.000000:MODS=*8 no Reverse:TIME=113.326332:LEN=5.000000:MODS=*32 400% Beat:TIME=113.534668:LEN=5.000000:MODS=*8 no Beat:TIME=114.576332:LEN=5.000000:MODS=*4 Mini:TIME=114.992996:LEN=5.000000:MODS=*4 no Mini:TIME=114.992996:LEN=5.000000:MODS=*8 Invert:TIME=115.617996:LEN=5.000000:MODS=*4 no Invert:TIME=115.617996:LEN=5.000000:MODS=*8 Dizzy:TIME=116.242996:LEN=5.000000:MODS=*8 no Dizzy:TIME=116.242996:LEN=0.100000:MODS=*4 Mini:TIME=116.659668:LEN=5.000000:MODS=30% Reverse:TIME=117.284668:LEN=5.000000:MODS=no Reverse:TIME=116.659668:LEN=5.000000:MODS=*8 Beat:TIME=119.576332:LEN=5.000000:MODS=*4 Mini:TIME=119.992996:LEN=5.000000:MODS=*4 no Mini:TIME=119.992996:LEN=5.000000:MODS=30% Reverse:TIME=119.992996:LEN=5.000000:MODS=*8 Beat:TIME=120.617996:LEN=5.000000:MODS=no Reverse:TIME=122.909668:LEN=5.000000:MODS=*8 Mini:TIME=123.117996:LEN=5.000000:MODS=*8 no Mini:TIME=123.326332:LEN=5.000000:MODS=*8 Beat:TIME=123.326332:LEN=5.000000:MODS=*16 Dizzy:TIME=126.659668:LEN=5.000000:MODS=*8 Drunk:TIME=133.326324:LEN=5.000000:MODS=*2 180% Mini:TIME=133.951324:LEN=5.000000:MODS=*2 no Mini:TIME=133.326324:LEN=5.000000:MODS=*2 Flip:TIME=133.951324:LEN=5.000000:MODS=*2 Invert:TIME=134.576324:LEN=5.000000:MODS=*2 Confusion:TIME=134.576324:LEN=5.000000:MODS=*2 no Invert:TIME=134.576324:LEN=5.000000:MODS=*2 no Flip:TIME=136.242996:LEN=5.000000:MODS=*2 no Confusion:TIME=136.242996:LEN=7.000000:MODS=Reverse:TIME=136.659653:LEN=7.000000:MODS=200% Mini:TIME=136.659653:LEN=7.000000:MODS=Stealth:TIME=142.909653:LEN=5.000000:MODS=*4 no Mini:TIME=142.909653:LEN=5.000000:MODS=*2 no stealth:TIME=143.326324:LEN=5.000000:MODS=*999999 no Reverse;
#NOTES:
// measure 0
0000
0000
0000
0000
,  // measure 1
0000
0000
0000
0000
,  // measure 2
0000
0000
0000
0000
,  // measure 3
0000
0000
0000
0000
,  // measure 4
0000
0000
0000
0000
,  // measure 5
0000
0000
0000
0000
,  // measure 6
0002
0000
0000
0000
,  // measure 7
2003
0000
0000
0000
,  // measure 8
3010
0010
0010
0010
,  // measure 9
0100
0100
0100
0100
,  // measure 10
0001
0001
0001
0001
,  // measure 11
1000
1000
1000
1000
,  // measure 12
0001
1000
0001
0100
0001
1000
0001
0100
,  // measure 13
0010
1000
0010
0100
0010
1000
0010
0100
,  // measure 14
0001
0000
0000
0100
0001
0000
0000
0100
0001
0000
0000
0100
0001
0000
0000
0100
,  // measure 15
0010
0000
0000
1000
0010
0000
0000
1000
0010
0000
0000
1000
0010
0000
0000
0000
,  // measure 16
0200
0000
0000
0000
,  // measure 17
0301
0000
0100
0010
0100
0000
010M
1000
0100
0000
M100
0001
0100
0000
010M
0010
,  // measure 18
0001
0000
0010
0001
0010
0000
001M
1000
0010
0000
M010
0001
0010
0000
001M
1000
,  // measure 19
0100
0000
M100
0001
0100
0000
010M
1000
0100
0010
0000
0010
0001
0010
0001
0010
,  // measure 20
0001
0000
0010
0100
0010
0000
001M
1000
0010
0100
0000
0100
0010
0000
0100
0010
,  // measure 21
0100
0000
010M
1000
0100
0000
0100
M001
0100
0000
010M
0010
0100
0010
0001
0010
,  // measure 22
0001
0000
0010
0100
0010
0000
001M
1000
0010
0000
M010
0001
0010
0000
001M
1000
,  // measure 23
0020
0000
0000
0000
0100
0000
0000
0000
0000
0100
0000
0100
0000
0000
0000
0000
,  // measure 24
0230
0000
0000
0000
0001
0000
0000
0000
0000
0001
0000
0001
0000
0010
0010
0000
,  // measure 25
0310
0000
0100
0010
0100
0000
010M
1000
0100
0010
0001
0010
0001
0000
0100
0001
,  // measure 26
0100
0000
010M
0010
0200
0000
0010
0000
0310
0000
0001
0010
0100
0000
1000
0010
,  // measure 27
1000
0000
0100
1000
0100
0000
M100
0010
0100
0010
0000
0010
0100
0001
1000
0001
,  // measure 28
0010
0000
0100
1000
0100
0000
M100
0001
0100
0010
0000
0010
1000
0010
0100
0010
,  // measure 29
1000
0000
0010
0100
0010
0000
M010
0001
0010
0000
0100
1000
0100
0010
0001
0010
,  // measure 30
0001
0000
0100
0001
0100
0000
010M
1000
0100
0000
M100
0010
0100
0000
0010
0100
,  // measure 31
0001
0000
0000
0001
0100
0000
0000
0100
0000
0001
1000
0001
1000
0010
0100
0010
,  // measure 32
1000
0010
0100
0001
1000
0010
0100
0001
1000
0100
0010
0001
1000
0100
0010
0001
,  // measure 33
0020
0000
0000
0000
0000
0030
MMLM
0000
,  // measure 34
2001
0000
0000
0020
3000
0000
0230
0000
,  // measure 35
0002
0000
0300
2000
0000
0000
0003
0000
,  // measure 36
0200
0000
3000
0020
0300
0000
0032
0000
,  // measure 37
0200
0000
0003
0020
0300
0000
2030
0000
,  // measure 38
0200
0000
3000
0020
0000
0000
0000
0000
,  // measure 39
0300
0000
0000
0230
,  // measure 40
2000
0000
0300
0002
0000
0000
0000
0000
,  // measure 41
3000
0000
0000
0000
0000
0000
0000
0003
,  // measure 42
2001
0000
0100
3020
0100
0000
0230
0000
,  // measure 43
0302
0000
0010
2003
0010
0000
0010
0000
,  // measure 44
3200
0000
0010
0320
0001
0000
0032
0000
,  // measure 45
2003
0000
0010
3002
0100
0000
2003
0000
,  // measure 46
3020
0000
0100
0230
0010
0000
0010
0000
,  // measure 47
0010
0010
0010
0320
,  // measure 48
2030
0000
0000
0000
3200
0000
0000
0000
0320
0000
0000
0000
0032
0000
0000
1003
,  // measure 49
0020
0000
0000
0000
0030
0000
1000
0000
0020
0000
0000
0000
0030
0000
0000
0000
0100
0010
0100
0000
0010
0000
0100
0000
0020
0000
0000
0000
0000
0000
0130
0000
,  // measure 50
1001
0000
1000
0100
0010
0100
0010
0000
0001
0000
0010
0001
0010
0001
1000
0010
,  // measure 51
1000
0000
0010
0100
0010
0100
0010
0000
0100
0000
0001
0100
0001
0100
0001
0000
,  // measure 52
1000
0000
0001
0100
0000
0001
0100
0000
0001
0000
1000
0001
0000
1000
0001
0000
,  // measure 53
0100
0000
0010
0100
0000
0010
0100
0010
1000
0000
0100
0010
0000
0010
0000
0010
,  // measure 54
0001
0000
0100
0001
0100
0001
0000
0000
1000
0000
0010
0000
0001
0000
0010
0000
,  // measure 55
1000
0000
0001
0100
0001
0100
0000
0000
0001
0000
0100
0000
1000
0000
0100
0000
,  // measure 56
0001
0000
1000
0010
1000
0010
0000
0000
1001
0000
0010
1000
0020
M000
0130
0010
,  // measure 57
0100
0000
0001
1000
0001
1000
0000
0000
0110
0000
1000
0010
2000
00M0
3001
1000
,  // measure 58
0001
0000
0100
0001
0100
0001
0010
0000
0100
0000
1000
0100
1000
0100
0000
0100
,  // measure 59
0010
0000
0001
0100
0001
0100
0010
0000
1000
0000
0100
1000
0100
0010
0100
1000
,  // measure 60
0001
0000
0100
0001
0000
0100
0001
0000
0010
0000
0100
1000
0000
0100
1000
0100
,  // measure 61
1000
0000
0001
0100
0000
0001
0100
0000
0001
0000
0010
0001
0000
0010
0001
0010
,  // measure 62
0100
0000
1000
0001
1000
0001
0000
0000
1100
0000
0010
0000
0101
0000
0010
0000
,  // measure 63
1000
0000
0001
0100
0001
0100
0000
0000
0011
0000
0100
0000
1010
0000
0100
0000
,  // measure 64
0001
0000
1000
0100
1000
0100
0000
0000
1000
0000
0100
0000
0001
0000
0010
0000
,  // measure 65
1000
0000
0010
0100
0010
0100
0000
0000
0001
0000
0010
0000
1000
0000
0100
0000
,  // measure 66
0M02
0M00
0M00
0M00
0M00
0M00
0M00
0M00
0013
0000
0000
0000
001M
0000
0100
0000
0010
0000
0000
0000
M010
0000
0001
0000
0020
0000
0000
0000
0100
0000
0000
0000
,  // measure 67
0130
0000
M100
0001
0100
0000
020M
0000
1300
0000
0001
0100
0002
0000
1003
0001
,  // measure 68
0100
0000
010M
0010
0100
0000
M100
0001
0100
0000
010M
1000
0200
0000
0010
0000
,  // measure 69
0310
0000
001M
1000
0010
0000
M010
0001
0010
0100
0000
0100
1000
0001
1000
0001
,  // measure 70
1000
0000
0100
1000
0100
0000
0010
0100
0010
0001
0010
0100
1000
0010
0100
0010
,  // measure 71
2000
0000
3010
1000
0010
0100
0010
0100
0002
0000
0013
0100
0010
0000
M010
0100
,  // measure 72
0010
0000
1000
0100
0010
0000
0001
0010
0001
0100
0010
0100
0010
1000
0001
1000
,  // measure 73
0001
0000
0000
0000
0100
0000
0000
0000
1000
0000
0000
0000
0100
0000
0000
0000
0001
0000
0000
0000
0010
0000
0000
0000
0001
1000
0001
0000
1000
0000
0001
0000
,  // measure 74
1000
0000
1000
0010
0100
0000
0100
0010
1000
0000
1000
0001
0010
0000
0010
0001
,  // measure 75
0100
0000
0100
0010
1000
0000
1000
0100
0010
0000
0010
0001
1000
0000
1000
0100
,  // measure 76
0010
0000
0010
0001
0100
0000
0100
0010
1000
0000
1000
0010
0100
0000
0100
0001
,  // measure 77
0010
0000
0010
0100
1000
0000
1000
0001
0010
0000
0010
0100
1000
0000
1000
0001
,  // measure 78
0010
0000
0000
0010
1000
0000
0000
1000
0100
0000
0000
0100
0001
0000
0000
0001
,  // measure 79
0010
0000
0000
0010
1000
0000
0000
1000
0100
0000
0000
0100
0001
0000
0000
0001
,  // measure 80
0020
0000
0130
2000
0010
0000
3002
0000
,  // measure 81
0200
0000
0000
0000
0000
0000
0000
0000
0300
0000
0000
0000
0000
0000
0000
0000
0100
0000
0000
0000
0000
0000
0000
0000
0103
0000
0000
0000
0010
0100
0010
0000
,  // measure 82
2002
0000
0000
0000
,  // measure 83
3003
0000
0000
0000
,  // measure 84
0000
0000
0000
0000
,  // measure 85
0000
0000
0000
0000
,  // measure 86
0000
0000
0000
0000
,  // measure 87
0000
0000
0000
0000
,  // measure 88
0000
0000
0000
0000
,  // measure 89
0000
0000
0000
0000
,  // measure 90
0000
0000
0000
0000
,  // measure 91
MMMM
MMMM
MMMM
MMMM
MMMM
0000
0000
0000
0000
0000
0000
0000
0000
0000
0000
0000
0000
0000
0000
0000
0000
0000
0000
0000
0000
0000
0000
0000
0000
0000
0000
0000
0000
0000
0000
0000
0000
0000
0000
0000
0000
0000
0000
0000
0000
0000
0000
0000
0000
0000
0000
0000
0000
0000
0000
0000
0000
0000
0000
0000
0000
0000
0000
0000
;

//---------------dance-single - OLD CHALLENGE----------------
#NOTEDATA:;
#CHARTNAME:;
#STEPSTYPE:dance-single;
#DESCRIPTION:OLD CHALLENGE;
#CHARTSTYLE:;
#DIFFICULTY:Edit;
#METER:11;
#RADARVALUES:0.632429,0.885879,0.062745,0.522874,0.672765,635.000000,626.000000,9.000000,75.000000,4.000000,0.000000,0.000000,1.000000,0.000000,0.632429,0.885879,0.062745,0.522874,0.672765,635.000000,626.000000,9.000000,75.000000,4.000000,0.000000,0.000000,1.000000,0.000000;
#CREDIT:;
#NOTES:
0000
0000
0000
0000
,
0000
0000
0000
0000
,
0000
0000
0000
0000
,
0000
0000
0000
0000
,
0000
0000
0000
0000
,
0000
0000
0000
0000
,
0002
0000
0000
0000
,
2003
0000
0000
0000
,
3010
0010
0010
0010
,
0100
0100
0100
0100
,
0001
0001
0001
0001
,
1000
1000
1000
1000
,
0001
1000
0001
1000
0001
1000
0001
1000
,
0010
0100
0010
0100
0010
0100
0010
0100
,
0001
0000
0000
0100
0001
0000
0000
0100
0001
0000
0000
0100
0001
0000
0000
0100
,
0010
0000
0000
1000
0010
0000
0000
1000
0010
0000
0000
1000
0010
0000
0000
0000
,
0200
0000
0000
0000
,
0301
0000
0001
0010
0001
0000
0100
0100
0010
0000
0010
1000
0010
0000
0100
0100
,
0001
0000
0100
0010
0100
0000
0020
0000
1030
0000
0001
0001
0010
0000
0100
0010
,
0100
0000
1000
1000
0100
0000
0010
0100
0010
0001
0000
0001
0100
0000
0010
0100
,
0010
0000
1000
1000
0010
0000
0100
0010
0100
0010
0000
0010
1000
0000
0001
1000
,
0001
0000
0100
0100
0010
0000
0100
0010
0100
0000
0001
0001
1000
0010
1000
0010
,
1000
0000
0010
0100
0010
0000
0200
0000
0301
0010
0000
0001
1000
0000
0010
1000
,
0020
0000
0000
0000
0100
0000
0000
0000
0000
0100
0000
0100
0000
0000
0000
0000
,
0230
0000
0000
0000
0001
0000
0000
0000
0000
0001
0000
0001
0000
0010
0010
0000
,
0310
0000
0100
0010
0100
0000
0001
0001
1000
0000
0010
1000
0010
0000
0100
0100
,
0002
0000
0100
0003
0200
0000
0010
0000
0310
0000
1000
0001
1000
0000
0010
0010
,
1000
0000
0100
1000
0100
0000
0010
0010
0001
0000
0100
0001
0100
0000
0001
0001
,
0010
0000
0100
1000
0100
0000
1000
1000
0010
0100
0000
0100
0001
0010
0001
0000
,
1000
0000
0010
0100
0010
0000
1000
1000
0001
0000
0100
0001
0100
0000
0010
0010
,
1000
0000
0001
1000
0001
0000
0100
0100
0010
0000
0100
0010
0100
0000
0001
0001
,
1000
0000
0010
0000
1000
0000
0010
0000
0000
0100
0010
0100
0010
0000
0100
0100
,
0001
1000
0010
0100
0001
1000
0010
0100
0001
1000
0010
0100
0001
0010
0100
1000
,
0020
0000
0000
0000
0000
0030
00L0
0000
,
2001
0000
0000
0020
3000
0000
0230
0000
,
0002
0000
0300
2000
0000
0000
0003
0000
,
0200
0000
3000
0020
0300
0000
0032
0000
,
0200
0000
0003
0020
0300
0000
2030
0000
,
0200
0000
3000
0020
0000
0000
0000
0000
,
0300
0000
0000
0230
,
2000
0000
0300
0002
0000
0000
0000
0000
,
3000
0000
0000
0000
0000
0000
0000
0003
,
2001
0000
0100
3020
0100
0000
0230
0000
,
0302
0000
0010
2003
0010
0000
0010
0000
,
3200
0000
0010
0320
0001
0000
0032
0000
,
2003
0000
0010
3002
0100
0000
2003
0000
,
3020
0000
0100
0230
0010
0000
0010
0000
,
0010
0010
0010
0320
,
2030
0000
0000
0000
3200
0000
0000
0000
0320
0000
0000
0000
0032
0000
0000
1003
,
0020
0000
0000
0000
0030
0000
1000
0000
0020
0000
0000
0000
0030
0000
0000
0000
0100
0010
0100
0000
0010
0000
0100
0000
0020
0000
0000
0000
0000
0000
0130
0000
,
0001
0000
1000
0100
0010
0100
0010
0000
0001
0000
0010
0001
0010
0001
1000
0010
,
1000
0000
0010
0100
0010
0100
0010
0000
0100
0000
0001
0100
0001
0100
0001
0000
,
1000
0000
0001
0100
0000
0001
0100
0000
0001
0000
1000
0001
0000
1000
0001
0000
,
0100
0000
0010
0100
0000
0010
0100
0010
1000
0000
0100
0010
0000
0010
0000
0010
,
0001
0000
0100
0001
0100
0001
0000
0000
1000
0000
0010
0000
0001
0000
0010
0000
,
1000
0000
0001
0100
0001
0100
0000
0000
0001
0000
0100
0000
1000
0000
0100
0000
,
0001
0000
1000
0010
1000
0010
0000
0000
1001
0000
1000
1000
0020
0000
0130
0010
,
0100
0000
0001
1000
0001
1000
0000
0000
0110
0000
0010
0010
2000
0000
3001
1000
,
0001
0000
0100
0001
0100
0001
0010
0000
0100
0000
1000
0100
1000
0100
0000
0100
,
0010
0000
0001
0100
0001
0100
0010
0000
1000
0000
0100
1000
0100
1000
0100
1000
,
0001
0000
0100
0001
0000
0100
0001
0000
0010
0000
0100
1000
0000
0100
1000
0100
,
1000
0000
0001
0100
0000
0001
0100
0000
0001
0000
0010
0001
0000
0010
0001
0010
,
0100
0000
1000
0001
1000
0001
0000
0000
1100
0000
0010
0000
0101
0000
0010
0000
,
1000
0000
0001
0100
0001
0100
0000
0000
0011
0000
0100
0000
1010
0000
0100
0000
,
0001
0000
1000
0100
1000
0100
0000
0000
1000
0000
0100
0000
0001
0000
0010
0000
,
1000
0000
0010
0100
0010
0100
0000
0000
0001
0000
0010
0000
1000
0000
0100
0000
,
0002
0000
0000
0000
1003
0000
0020
0100
0130
0000
0010
0010
2000
0000
3001
0001
,
2000
0000
3010
0010
0100
0000
0002
0010
0013
0000
0100
0100
2000
0000
3001
0001
,
2000
0000
0001
3001
1000
0000
0200
0010
0310
0000
0001
0001
0020
0000
0031
0001
,
0200
0000
0310
0010
0100
0000
0002
1000
1003
0000
0010
0010
0200
0000
0310
0010
,
2000
0000
3100
0010
0001
0000
0020
0001
0031
0000
0010
0100
2000
0000
3001
0001
,
2000
0000
3010
1000
0020
0000
0130
0100
0002
0000
0013
0100
0010
0000
0100
0010
,
0200
0000
1300
1000
0001
0000
0200
0010
0310
0000
0100
0010
0100
0000
0001
0001
,
1000
0000
0000
0000
0001
0000
0100
0000
0001
0000
0000
0000
1000
0000
0010
0000
1000
0000
0000
0000
0100
0000
0000
0000
1000
0001
1000
0000
0001
0000
1000
0000
,
0001
0000
0001
0010
0100
0000
1000
0100
1000
0000
0100
0010
0001
0000
0100
0001
,
0100
0000
0001
0010
0001
0000
1000
0010
1000
0000
0100
1000
0100
0000
0010
0100
,
0010
0000
0001
0010
0100
0000
1000
0100
1000
0000
0100
0010
0001
0000
0100
0001
,
0100
0000
0010
0100
0010
0000
1000
0001
1000
0000
0010
0100
0010
0000
1000
0001
,
1000
0000
0000
1000
0100
0000
0000
0100
0010
0000
0000
0010
0001
0000
0000
0001
,
0010
0000
0000
0010
0100
0000
0000
0100
1000
0000
0000
1000
0010
0000
0000
0010
,
0200
0000
0310
2000
0010
0000
3002
0000
,
0020
0030
0010
0013
,
2002
0000
0000
0000
,
0000
0000
0000
0000
,
0000
0000
0000
0000
,
0000
0000
0000
0000
,
0000
0000
0000
0000
,
0000
0000
0000
0000
,
0000
0000
0000
0000
,
0000
0000
0000
0000
,
0000
0000
0000
0000
,
0000
0000
0000
0000
,
3003
0000
0000
0000
,
0000
0000
0000
0000
,
0MM0
M00M
0000
0000
0000
0000
0000
0000
;

//---------------dance-single - ----------------
#NOTEDATA:;
#CHARTNAME:;
#STEPSTYPE:dance-single;
#DESCRIPTION:;
#CHARTSTYLE:;
#DIFFICULTY:Challenge;
#METER:11;
#RADARVALUES:0.645376,0.880694,0.062745,0.411328,0.780825,648.000000,639.000000,9.000000,59.000000,47.000000,0.000000,0.000000,1.000000,0.000000,0.645376,0.880694,0.062745,0.411328,0.780825,648.000000,639.000000,9.000000,59.000000,47.000000,0.000000,0.000000,1.000000,0.000000;
#CREDIT:;
#OFFSET:-0.033000;
#BPMS:0.000000=72.000000
,16.000000=144.000000
,48.000000=288.000000
,56.000000=144.000000
,124.000000=72.000000
,156.000000=144.000000
,183.000000=288.000000
,184.000000=144.000000
,187.500000=288.000000
,188.500000=144.000000
,221.000000=288.000000
,223.000000=144.000000
,286.000000=72.000000
,294.000000=144.000000
;
#STOPS:;
#DELAYS:;
#WARPS:294.000000=32.000000
;
#TIMESIGNATURES:0.000000=4=4
;
#TICKCOUNTS:0.000000=4
;
#COMBOS:0.000000=1
;
#SPEEDS:0.000000=1.000000=0.000000=0
;
#SCROLLS:0.000000=1.000000
;
#FAKES:;
#LABELS:0.000000=Song Start
,1.000000=Footswitches and other gimmicks marked with mines
;
#NOTES:
0000
0000
0000
0000
,
0000
0000
0000
0000
,
0000
0000
0000
0000
,
0002
0000
2003
0000
,
3010
0010
0010
0010
,
0100
0100
0100
0100
,
0001
0001
0001
0001
,
1000
1000
1000
1000
,
0001
1000
0001
0100
0001
1000
0001
0100
,
0010
1000
0010
0100
0010
1000
0010
0100
,
0001
0000
0000
0100
0001
0000
0000
0100
0001
0000
0000
0100
0001
0000
0000
0100
,
0010
0000
0000
1000
0010
0000
0000
1000
0010
0000
0000
1000
0010
0000
0000
0000
,
0200
0000
0000
0000
,
0000
0000
0000
0000
,
0301
0000
0100
0010
0100
0000
010M
1000
0100
0000
M100
0001
0100
0000
010M
0010
,
0001
0000
0010
0001
0010
0000
001M
1000
0010
0000
M010
0001
0010
0000
001M
1000
,
0100
0000
M100
0001
0100
0000
010M
1000
0100
0010
0000
0010
0001
0010
0001
0010
,
0001
0000
0010
0100
0010
0000
001M
1000
0010
0100
0000
0100
0010
0000
0100
0010
,
0100
0000
010M
1000
0100
0000
0100
M001
0100
0000
010M
0010
0100
0010
0001
0010
,
0001
0000
0010
0100
0010
0000
001M
1000
0010
0000
M010
0001
0010
0000
001M
1000
,
0020
0000
0000
0000
0100
0000
0000
0000
0000
0100
0000
0100
0000
0000
0000
0000
,
0230
0000
0000
0000
0001
0000
0000
0000
0000
0001
0000
0001
0000
0010
0010
0000
,
0310
0000
0100
0010
0100
0000
010M
1000
0100
0010
0001
0010
0001
0000
0100
0001
,
0100
0000
010M
0010
0200
0000
0010
0000
0310
0000
0001
0010
0100
0000
1000
0010
,
1000
0000
0100
1000
0100
0000
M100
0010
0100
0010
0000
0010
0100
0001
1000
0001
,
0010
0000
0100
1000
0100
0000
M100
0001
0100
0010
0000
0010
1000
0010
0100
0010
,
1000
0000
0010
0100
0010
0000
M010
0001
0010
0000
0100
1000
0100
0010
0001
0010
,
0001
0000
0100
0001
0100
0000
010M
1000
0100
0000
M100
0010
0100
0000
0010
0100
,
0001
0000
0000
0001
0100
0000
0000
0100
0000
0001
1000
0001
1000
0010
0100
0010
,
1000
0010
0100
0001
1000
0010
0100
0001
1000
0100
0010
0001
1000
0100
0010
0001
,
0020
0000
0000
0000
0000
0030
MMLM
0000
,
2001
0000
0000
0020
3000
0000
0230
0000
0002
0000
0300
2000
0000
0000
0003
0000
,
0200
0000
3000
0020
0300
0000
0032
0000
0200
0000
0003
0020
0300
0000
2030
0000
,
0200
0000
3000
0020
0000
0000
0000
0000
0300
0000
0000
0000
0000
0000
0230
0000
,
2000
0000
0300
0002
0000
0000
0000
0000
3000
0000
0000
0000
0000
0000
0000
0003
,
2001
0000
0100
3020
0100
0000
0230
0000
0302
0000
0010
2003
0010
0000
0010
0000
,
3200
0000
0010
0320
0001
0000
0032
0000
2003
0000
0010
3002
0100
0000
2003
0000
,
3020
0000
0100
0230
0010
0000
0010
0000
0010
0000
0010
0000
0010
0000
0320
0000
,
2030
0000
0000
0000
0000
0000
0000
0000
3200
0000
0000
0000
0000
0000
0000
0000
0320
0000
0000
0000
0000
0000
0000
0000
0032
0000
0000
0000
0000
0000
1003
0000
0020
0000
0000
0000
0030
0000
1000
0000
0020
0000
0000
0000
0030
0000
0000
0000
0100
0010
0100
0000
0010
0000
0100
0000
0020
0000
0000
0000
0000
0000
0130
0000
,
0001
0000
1000
0100
0010
0100
0010
0000
0001
0000
0010
0001
0010
0001
1000
0010
,
1000
0000
0010
0100
0010
0100
0010
0000
0100
0000
0001
0100
0001
0100
0001
0000
,
1000
0000
0001
0100
0000
0001
0100
0000
0001
0000
1000
0001
0000
1000
0001
0000
,
0100
0000
0010
0100
0000
0010
0100
0010
1000
0000
0100
0010
0000
0010
0000
0010
,
0001
0000
0100
0001
0100
0001
0000
0000
1000
0000
0010
0000
0001
0000
0010
0000
,
1000
0000
0001
0100
0001
0100
0000
0000
0001
0000
0100
0000
1000
0000
0100
0000
,
0001
0000
1000
0010
1000
0010
0000
0000
1001
0000
0010
1000
0020
0000
M000
0000
,
0130
0010
0100
0000
0001
1000
0001
1000
0000
0000
0110
0000
1000
0010
2000
0000
,
00M0
0000
3001
1000
0001
0000
0100
0001
0100
0001
0010
0000
0100
0000
1000
0100
,
1000
0100
0000
0100
0010
0000
0001
0100
0001
0100
0010
0000
1000
0000
0100
1000
,
0100
0010
0100
1000
0001
0000
0100
0001
0000
0100
0001
0000
0010
0000
0100
1000
,
0000
0100
1000
0100
1000
0000
0001
0100
0000
0001
0100
0000
0001
0000
0010
0001
,
0000
0010
0001
0010
0100
0000
1000
0001
1000
0001
0000
0000
1100
0000
0010
0000
,
0101
0000
0010
0000
1000
0000
0001
0100
0001
0100
0000
0000
0011
0000
0100
0000
,
1010
0000
0100
0000
0001
0000
1000
0100
1000
0100
0000
0000
1000
0000
0100
0000
,
0001
0000
0010
0000
1000
0000
0010
0100
0010
0100
0000
0000
0001
0000
0010
0000
,
1000
0000
0100
0000
0M02
0M00
0M00
0M00
0M00
0M00
0M00
0M00
0013
0000
001M
0100
,
0010
0000
M010
0001
0020
0000
0100
0000
0130
0000
M100
0001
0100
0000
020M
0000
,
1300
0000
0001
0100
0002
0000
1003
0001
0100
0000
010M
0010
0100
0000
M100
0001
,
0100
0000
010M
1000
0200
0000
0010
0000
0310
0000
001M
1000
0010
0000
M010
0001
,
0010
0100
0000
0100
1000
0001
1000
0001
1000
0000
0100
1000
0100
0000
0010
0100
,
0010
0001
0010
0100
1000
0010
0100
0010
2000
0000
3010
1000
0010
0100
0010
0100
,
0002
0000
0013
0100
0010
0000
M010
0100
0010
0000
1000
0100
0010
0000
0001
0010
,
0001
0100
0010
0100
0010
1000
0001
1000
0001
0000
0100
0000
1000
0000
0100
0000
,
0001
0000
0000
0000
0010
0000
0000
0000
0001
1000
0001
0000
1000
0000
0001
0000
1000
0000
0000
0000
1000
0000
0010
0000
0100
0000
0000
0000
0100
0000
0010
0000
,
1000
0000
1000
0001
0010
0000
0010
0001
0100
0000
0100
0010
1000
0000
1000
0100
,
0010
0000
0010
0001
1000
0000
1000
0100
0010
0000
0010
0001
0100
0000
0100
0010
,
1000
0000
1000
0010
0100
0000
0100
0001
0010
0000
0010
0100
1000
0000
1000
0001
,
0010
0000
0010
0100
1000
0000
1000
0001
0010
0000
0000
0010
1000
0000
0000
1000
,
0100
0000
0000
0100
0001
0000
0000
0001
0010
0000
0000
0010
1000
0000
0000
1000
,
0100
0000
0000
0100
0001
0000
0000
0001
0020
0000
0000
0000
0130
0000
2000
0000
,
0010
3002
0200
0300
,
0100
0000
0000
0000
0000
0000
0000
0000
0103
0000
0000
0000
0010
0100
0010
0000
2002
0000
0000
0000
0000
0000
0000
0000
0000
0000
0000
0000
0000
0000
0000
0000
,
0000
0000
0000
0000
,
0000
0000
0000
0000
,
0000
0000
0000
0000
,
0000
0000
0000
0000
,
0000
0000
0000
0000
,
0000
0000
0000
0000
,
0000
0000
0000
0000
,
0000
0000
3003
0000
,
0000
0000
0000
0000
,
0000
0000
0MM0
0000
;

//---------------dance-single - ----------------
#NOTEDATA:;
#CHARTNAME:;
#STEPSTYPE:dance-single;
#DESCRIPTION:;
#CHARTSTYLE:;
#DIFFICULTY:Hard;
#METER:10;
#RADARVALUES:0.546777,0.833810,0.062745,0.306753,0.435728,549.000000,540.000000,9.000000,44.000000,0.000000,0.000000,0.000000,1.000000,0.000000,0.546777,0.833810,0.062745,0.306753,0.435728,549.000000,540.000000,9.000000,44.000000,0.000000,0.000000,0.000000,1.000000,0.000000;
#CREDIT:;
#NOTES:
0000
0000
0000
0000
,
0000
0000
0000
0000
,
0000
0000
0000
0000
,
0000
0000
0000
0000
,
0000
0000
0000
0000
,
0000
0000
0000
0000
,
0002
0000
0000
0000
,
2003
0000
0000
0000
,
3001
0001
0001
0001
,
1000
1000
1000
1000
,
0010
0010
0010
0010
,
0100
0100
0100
0100
,
0001
0100
0001
0010
0001
0100
0001
0010
,
0001
1000
0001
1000
0010
1000
0010
1000
,
0100
0000
0000
0100
1000
0000
0000
1000
0001
0000
0000
0001
0010
0000
0000
0010
,
0100
0000
0000
0100
0010
0000
0000
0010
0001
0000
0000
0001
1000
0000
0000
1000
,
0020
0000
0000
0000
,
1030
0100
1000
0010
1000
0100
1000
0001
,
0100
0010
0200
0010
0301
0010
0100
1000
,
0010
0000
0100
0000
0010
0000
1000
0000
0001
0100
0000
0100
0001
0000
0100
0001
,
0200
0000
0010
0000
0301
0000
1000
0000
0100
1000
0000
1000
0001
0000
0010
0001
,
0010
0000
0100
0000
1000
0010
0000
0100
0010
0000
0000
0100
0000
0001
1000
0100
,
1000
0001
0020
0100
0031
0010
0100
0010
,
0002
0000
0000
0000
0000
0000
0000
0000
0000
0010
0000
0010
0000
0000
0000
0000
,
0023
0000
0000
0000
0000
0000
0000
0000
0000
0100
0000
0100
0000
0000
0100
0000
,
1030
0000
0001
0000
1000
0000
0010
0000
1000
0000
0001
0000
1000
0000
0010
1000
,
0010
0100
0002
0100
0013
0001
0100
0010
,
1000
0000
0100
0000
1000
0000
0001
0000
0100
0010
0000
0010
0100
0000
0001
1000
,
0002
0000
0100
0000
1003
0000
0100
0000
0010
0100
0000
0100
1000
0000
0001
0100
,
0001
0010
0001
0100
0001
0010
1000
0010
,
0001
0100
0010
1000
0100
0010
0001
1000
,
0001
0000
0010
0000
0001
0000
0100
0000
0010
0100
0010
0100
0010
0000
0100
0000
,
0001
0010
0100
1000
0001
0100
0010
1000
,
0002
0000
0000
0000
0000
0003
000L
0000
,
2000
0000
0000
3002
0000
0000
0203
0000
,
0320
0000
0000
0230
0000
0000
0300
0000
,
0002
0000
0000
2003
0000
0000
3200
0000
,
0320
0000
0000
0032
0000
0000
0203
0000
,
0320
0000
0000
0230
0000
0000
0000
0000
,
0010
0000
0000
0302
,
2003
0000
0000
3002
0000
0000
0000
0000
,
0010
0000
0000
0000
,
1003
1001
0001
0101
,
0100
0110
0010
1010
,
1000
1100
0100
0110
,
0010
0011
0001
1001
,
0001
0100
0001
0000
1000
0010
1000
0000
,
0010
0100
0010
0000
0100
0010
0100
0000
,
0001
0010
0100
1000
0100
0010
0001
0000
,
1000
0000
0100
0000
0010
0000
0100
0000
1000
0001
1000
0001
0200
0000
0000
0000
,
0301
0000
0010
0001
0000
0001
0000
0000
0100
0000
0010
0100
0000
0100
0000
0000
,
0001
0000
1000
0001
0000
0001
0000
0000
1000
0000
0100
1000
0000
1000
0000
0000
,
0010
0000
0100
0010
0000
1000
0001
1000
0001
0000
1000
0100
0000
0010
0001
0010
,
0001
0000
1000
0001
0000
0100
0010
0100
0010
0000
0100
0001
0000
1000
0000
1000
,
0001
0000
0100
0001
0000
0001
0000
0000
1000
0000
0010
0000
0001
0000
0010
0000
,
1000
0000
0010
1000
0000
1000
0000
0000
0001
0000
0100
0000
1000
0000
0100
0000
,
0001
0000
0010
0001
0000
0001
0000
0000
1000
0001
1000
0000
0001
0000
0100
0001
,
0100
0000
0010
0100
0000
0100
0000
0000
0001
1000
0001
0000
0100
0000
0010
1000
,
0010
0000
1000
0000
0001
0100
0000
0100
0001
0000
0010
0100
0000
0100
1000
0000
,
0100
0000
1000
0001
0000
0001
0100
0000
0010
0000
0100
0010
0000
1000
0001
1000
,
0001
0000
0100
0010
0000
0010
1000
0000
0100
0000
0010
0001
0000
1000
0001
1000
,
0001
0000
0100
0010
0000
0010
0100
0000
0001
0000
1000
0010
0000
0100
0001
0100
,
0001
0000
1000
0100
0000
0100
0000
0000
1000
0000
0010
0000
0001
0000
0010
0000
,
1000
0000
0001
0100
0000
0100
0000
0000
0001
0000
0100
0000
1000
0000
0100
0000
,
0001
0000
1000
0010
0000
0010
0000
0000
1000
0000
0100
0000
0001
0000
0010
0000
,
1000
0000
0001
0010
0000
0010
0000
0000
0001
0000
0010
0000
1000
0000
0100
0000
,
0002
0000
0000
0000
1003
0000
1000
0010
0100
0000
0100
0001
0010
0000
0010
0001
,
0100
0000
0100
0010
1000
0000
1000
0001
0010
0000
0010
0001
0100
0000
0100
0001
,
0010
0000
0010
0100
1000
0000
1000
0100
1000
0000
1000
0100
0010
0000
0010
0001
,
0010
0000
0010
0100
1000
0000
1000
0001
0010
0000
0010
0001
0010
0000
0010
0100
,
1000
0000
1000
0001
0010
0000
0010
0001
1000
0000
1000
0010
0100
0000
0100
0010
,
1000
0000
1000
0001
0100
0000
0100
0001
0010
0000
0010
0100
1000
0000
1000
0001
,
0100
0000
0100
0001
0010
0000
0010
0001
1000
0000
1000
0010
0100
0000
0100
0010
,
1000
0000
0000
0000
1000
0000
0100
0000
0010
0000
0000
0000
0010
0000
0001
0000
0100
0000
0000
0000
0100
0000
0000
0000
0001
1000
0001
0000
1000
0000
0001
0000
,
2000
0010
0100
3002
0100
0000
0013
0001
,
0200
0010
0001
0320
1000
0000
0130
0001
,
0020
0100
0100
0032
0010
0000
1003
0010
,
2000
0010
0001
3020
0100
0030
0100
0001
,
0010
0100
1000
0100
0010
0001
1000
0001
,
1000
0010
0100
0000
0010
1000
0002
0000
,
0203
0000
0000
0320
0000
0000
2030
0000
,
0002
0003
0000
3001
,
0220
0000
0000
0000
,
0000
0000
0000
0000
,
0000
0000
0000
0000
,
0000
0000
0000
0000
,
0000
0000
0000
0000
,
0000
0000
0000
0000
,
0000
0000
0000
0000
,
0000
0000
0000
0000
,
0000
0000
0000
0000
,
0000
0000
0000
0000
,
0330
0000
0000
0000
;

//---------------dance-single - ----------------
#NOTEDATA:;
#CHARTNAME:;
#STEPSTYPE:dance-single;
#DESCRIPTION:;
#CHARTSTYLE:;
#DIFFICULTY:Medium;
#METER:7;
#RADARVALUES:0.331651,0.448974,0.020915,0.244008,0.073202,333.000000,330.000000,3.000000,35.000000,0.000000,0.000000,0.000000,0.000000,0.000000,0.331651,0.448974,0.020915,0.244008,0.073202,333.000000,330.000000,3.000000,35.000000,0.000000,0.000000,0.000000,0.000000,0.000000;
#CREDIT:;
#NOTES:
0000
0000
0000
0000
,
0000
0000
0000
0000
,
0000
0000
0000
0000
,
0000
0000
0000
0000
,
0000
0000
0000
0000
,
0000
0000
0000
0000
,
2000
0000
0000
0000
,
3002
0000
0000
0000
,
1003
1000
1000
1000
,
0001
0001
0001
0001
,
1000
1000
1000
1000
,
0001
0001
0001
0001
,
0100
0000
0010
0000
0100
0010
0100
0000
,
0010
0000
0100
0000
0010
1000
0010
0100
,
0001
0010
0100
1000
,
0001
0000
0100
0000
0010
1000
0001
1000
,
0002
0000
0000
0000
,
0103
0000
0100
0000
0010
0100
0010
0000
,
1000
0000
0002
0000
0103
0000
0010
0100
,
0010
0000
0000
0000
1000
0000
0000
0000
0000
0010
0000
0010
0000
0000
0000
0000
,
0100
0000
0000
0000
0001
0000
0000
0000
0000
1000
0000
1000
0000
0000
0000
0000
,
0001
0000
0100
0000
0010
0100
0010
0100
,
0001
0000
0020
0000
0130
1000
0100
1000
,
0002
0100
0100
0100
,
2003
0000
0000
0000
0010
0000
0000
0000
0000
0010
0000
0000
0000
0000
0000
0000
,
3001
0000
0100
0000
0001
0100
0001
0000
,
1000
0000
0010
0000
1000
0000
0100
1000
,
0100
1000
0001
0100
,
0001
0000
0010
0000
0001
0100
0001
0010
,
0001
1000
0001
1000
,
0010
0100
0010
0100
,
0010
0000
1000
0000
0100
0010
0100
0000
,
1000
0001
0100
0010
1000
0001
0100
0010
,
0200
0000
0000
0300
,
1002
0000
0000
0203
0000
0000
0320
0000
,
2030
0000
0000
3002
0000
0000
0000
0000
,
0023
0000
0000
0230
0000
0000
2300
0000
,
3002
0000
0000
0203
0000
0000
0320
0000
,
0230
0000
0000
0302
0000
0000
0000
0000
,
0000
0000
0000
2003
,
3200
0000
0000
0320
0000
0000
0000
0000
,
0000
0000
0000
0000
,
0031
0000
0001
0000
0001
0000
0001
1000
,
0001
0000
1000
0000
1000
0000
1000
0010
,
1000
0000
0001
0000
0001
0000
0001
0010
,
0001
0000
1000
0000
1000
0000
1000
0010
,
1000
0100
0100
0100
,
0010
0010
0010
0010
,
0001
0000
0100
0001
0100
0010
0100
0001
,
0100
0010
0000
1001
,
0100
0000
0000
0010
0000
0010
0000
0000
0000
0000
0000
0100
0000
0100
0000
0000
,
0001
0000
0000
1000
0000
1000
0000
0000
0000
0000
0000
0010
0000
0010
0000
0000
,
0100
0000
0000
0001
0000
0001
0000
0000
0000
0000
0000
1000
0000
1000
0000
0000
,
0001
0000
0000
0010
0000
0010
0000
0000
0000
0000
0000
0100
0000
0100
0000
0000
,
1000
0000
0001
0000
0100
0010
0100
0010
,
1000
0000
0001
0000
0010
0100
0010
0100
,
1000
0000
0001
0000
0100
0100
0010
0010
,
1000
0000
0001
0000
0010
0010
0100
0100
,
1000
0001
1000
0010
,
1000
0000
0001
0010
0100
0010
0001
0000
,
1000
0100
0010
0001
,
0010
0000
0001
0010
0001
0010
0100
0000
,
1000
0000
0010
0000
0100
0100
0010
0010
,
1000
0000
0001
0000
1000
1000
0001
0001
,
0100
0000
0010
0000
0100
0100
0010
0010
,
1000
0000
0001
0000
1000
1000
0001
0001
,
2000
0000
3001
0000
0100
0001
0100
0000
,
0010
1000
0010
0100
0010
1000
0010
0000
,
1000
0000
0001
0100
0001
0000
0010
0000
,
0001
0000
0100
0010
1000
0010
0100
0000
,
0002
0000
0000
2003
0000
0000
0000
0000
,
3010
1000
0020
0000
0130
0000
0001
0000
,
2000
0000
0000
3002
0000
0000
0000
0000
,
1003
0000
0010
1000
0010
0000
0100
0000
,
0010
0000
0010
0000
0010
0000
0010
1000
,
0100
0000
0100
0000
0100
0000
0100
0010
,
0001
0000
1000
0000
0010
0100
0010
0000
,
1000
0000
0001
0000
0010
0100
0010
0000
,
0100
0100
0100
0100
,
0010
0010
0010
0010
,
0002
0000
0000
2003
0000
0000
3020
0000
,
0000
0000
0000
0030
,
2002
0000
0000
0000
,
0000
0000
0000
0000
,
0000
0000
0000
0000
,
0000
0000
0000
0000
,
0000
0000
0000
0000
,
0000
0000
0000
0000
,
0000
0000
0000
0000
,
0000
0000
0000
0000
,
0000
0000
0000
0000
,
0000
0000
0000
0000
,
3003
0000
0000
0000
;

//---------------dance-single - ----------------
#NOTEDATA:;
#CHARTNAME:;
#STEPSTYPE:dance-single;
#DESCRIPTION:;
#CHARTSTYLE:;
#DIFFICULTY:Easy;
#METER:4;
#RADARVALUES:0.270899,0.416905,0.153376,0.209150,0.000000,272.000000,250.000000,22.000000,30.000000,0.000000,0.000000,0.000000,0.000000,0.000000,0.270899,0.416905,0.153376,0.209150,0.000000,272.000000,250.000000,22.000000,30.000000,0.000000,0.000000,0.000000,0.000000,0.000000;
#CREDIT:;
#NOTES:
0000
0000
0000
0000
,
0000
0000
0000
0000
,
0000
0000
0000
0000
,
0000
0000
0000
0000
,
0000
0000
0000
0000
,
0000
0000
0000
0000
,
2000
0000
0000
0000
,
3002
0000
0000
0000
,
1003
1000
1000
1000
,
0010
0010
0010
0010
,
0100
0100
0100
0100
,
0001
0001
0001
0001
,
1000
0010
1000
0100
,
1000
0001
0100
0001
,
0010
0001
1000
0100
,
0110
0110
1001
1001
,
2000
0000
0000
0000
,
3001
0001
0100
0010
,
0100
0100
0001
1000
,
0010
1000
0100
1000
,
0001
0010
0100
1000
,
0001
0001
0100
0010
,
1000
1000
0001
0010
,
0002
0000
0000
0000
,
2003
0000
0000
0000
,
3001
0100
0001
0010
,
0001
0100
0001
0010
,
0100
1000
0100
1000
,
0001
0100
0001
0010
,
0001
0001
0001
0001
,
1000
1000
1000
1000
,
0010
0010
0100
0100
,
1001
1001
0110
0110
,
0200
0000
0000
0300
,
0002
0000
0000
2003
,
3020
0000
0000
0000
,
0230
0000
0000
0302
,
2003
0000
0000
3020
,
2030
0000
0000
3002
0000
0000
0000
0000
,
0000
0000
0000
0203
,
0302
0000
0000
0023
0000
0000
0000
0000
,
0000
0000
0000
0000
,
0031
0000
0001
1000
,
0100
0000
0100
0010
,
0001
0000
0001
1000
,
0020
0030
0100
0010
,
0100
0100
0100
0100
,
0010
0010
0010
0010
,
1000
0001
1000
0010
,
0110
0110
0000
0020
,
1030
0100
1000
0001
,
0010
0001
0100
0001
,
1000
0010
1000
0100
,
1000
0001
1000
0010
,
0100
0001
0200
0320
,
1030
0100
0020
0230
,
1300
0001
0110
0020
,
1030
0001
0110
0200
,
0301
0001
1000
1000
,
0010
0010
0100
0100
,
0001
0001
0010
0010
,
0100
0100
1000
1000
,
0001
0000
1001
1001
,
1000
0000
0110
0110
,
0100
0000
0101
0101
,
0001
0000
1100
1100
,
2000
3001
0010
0001
,
1000
0010
1000
0001
,
1000
0001
0010
0100
,
1000
0001
0100
0010
,
0100
0100
0010
0010
,
1000
0001
1000
0001
,
1000
1000
0001
0001
,
0100
0010
1000
0110
,
0001
0001
0100
0010
,
0100
0100
0001
1000
,
0100
0100
0010
0001
,
1000
1000
0001
0010
,
0001
0000
0001
0000
,
0100
0000
0100
0000
,
0010
0010
0010
0020
,
0000
0000
0000
0030
,
2002
0000
0000
0000
,
0000
0000
0000
0000
,
0000
0000
0000
0000
,
0000
0000
0000
0000
,
0000
0000
0000
0000
,
0000
0000
0000
0000
,
0000
0000
0000
0000
,
0000
0000
0000
0000
,
0000
0000
0000
0000
,
0000
0000
0000
0000
,
3003
0000
0000
0000
;

//---------------dance-single - ----------------
#NOTEDATA:;
#CHARTNAME:;
#STEPSTYPE:dance-single;
#DESCRIPTION:;
#CHARTSTYLE:;
#DIFFICULTY:Beginner;
#METER:2;
#RADARVALUES:0.123498,0.257254,0.111546,0.000000,0.000000,124.000000,108.000000,16.000000,0.000000,0.000000,0.000000,0.000000,0.000000,0.000000,0.123498,0.257254,0.111546,0.000000,0.000000,124.000000,108.000000,16.000000,0.000000,0.000000,0.000000,0.000000,0.000000,0.000000;
#CREDIT:;
#NOTES:
0000
0000
0000
0000
,
0000
0000
0000
0000
,
0000
0000
0000
0000
,
0000
0000
0000
0000
,
0000
0000
0000
0000
,
0000
0000
0000
0000
,
0000
0000
0000
0000
,
0000
0000
0000
0000
,
0001
0000
0000
0000
,
1000
0000
0000
0000
,
0001
0000
0000
0000
,
1000
0000
0000
0000
,
0010
0000
0010
0000
,
0010
0000
0010
0000
,
0100
0000
0100
0000
,
0100
0000
0100
0000
,
0000
0000
0000
0000
,
1001
0000
0000
0000
,
0100
0000
0000
0000
,
1001
0000
0000
0000
,
0010
0000
0010
0000
,
1001
0000
0000
0000
,
0001
0000
0000
0000
,
1000
0000
0000
0000
,
0001
0000
0000
0000
,
0010
0000
0010
0000
,
0100
0000
0100
0000
,
1000
0000
0001
0000
,
1000
0000
0000
0000
,
0010
0000
0000
0000
,
0010
0000
0000
0000
,
0100
0000
0000
0000
,
0110
0000
0010
0000
,
1001
0000
0000
0000
,
0110
0000
0000
0000
,
0100
0000
0000
0000
,
0001
0000
0000
0000
,
1000
0000
0000
0000
,
0010
0000
0000
0000
,
0100
0000
0000
0000
,
0010
0000
0000
0000
,
1000
0000
0000
0000
,
0001
0000
0001
0000
,
0001
0000
0000
0000
,
1000
0000
1000
0000
,
1000
0000
0000
0000
,
0010
0000
0100
0000
,
0010
0000
0000
0000
,
1000
0000
0001
0000
,
1001
0000
0000
0010
,
1000
1000
0000
0000
,
0001
0001
0000
0000
,
0100
0000
0010
0000
,
1000
0000
0001
0000
,
0000
0000
1001
1001
,
0000
0000
0110
0110
,
0000
0000
0100
0000
,
0000
0000
0010
0000
,
1000
0000
0001
0000
,
1000
0000
0001
0000
,
0010
0000
0010
0000
,
0100
0000
0100
0000
,
1000
0000
0001
0001
,
0000
0000
1000
1000
,
0000
0000
1001
1001
,
0000
0000
0110
0110
,
0000
0001
0000
1000
,
0000
0000
0010
0000
,
0100
0000
0100
0000
,
0001
0000
0000
0000
,
1000
0000
0000
0000
,
0001
0000
0000
0100
,
0100
0000
0000
0000
,
0010
0000
0000
0000
,
1000
0000
0001
0000
,
1000
0000
0000
0000
,
0010
0000
0100
0000
,
0010
0000
0000
0000
,
1000
0000
0000
0000
,
0001
0000
0000
0000
,
0100
0000
0000
0010
,
0000
0000
0000
0000
,
1001
0000
0000
0000
;
