#TITLE:Zeta Function;
#SUBTITLE:;
#ARTIST:fearofdark;
#TITLETRANSLIT:;
#SUBTITLETRANSLIT:;
#ARTISTTRANSLIT:;
#GENRE:;
#CREDIT:;
#BANNER:Zeta Function.png;
#BACKGROUND:Zeta Function-bg.png;
#LYRICSPATH:;
#CDTITLE:;
#MUSIC:Zeta Function.mp3;
#OFFSET:-6.170996;
#SAMPLESTART:91.195175;
#SAMPLELENGTH:19.433197;
#SELECTABLE:YES;
#BPMS:0.000000=98.800003
;
#STOPS:
;
#BGCHANGES:;
#KEYSOUNDS:;
#ATTACKS:;

//---------------dance-single - ----------------
#NOTES:
     dance-single:
     :
     Hard:
     9:
     0.475954,0.772983,0.173611,0.107474,0.669643,403.000000,382.000000,21.000000,13.000000,0.000000,0.000000,0.475954,0.772983,0.173611,0.107474,0.669643,403.000000,382.000000,21.000000,13.000000,0.000000,0.000000:
// measure 0
0000
0000
0000
0000
,  // measure 1
0000
0000
0000
0000
,  // measure 2
0000
0000
0000
0000
,  // measure 3
0000
0000
0000
0000
,  // measure 4
0001
0000
0000
0000
0000
0010
0001
0000
0001
1000
0000
0001
0000
0000
1000
0010
0000
0010
0100
0000
0100
0001
0000
0001
,  // measure 5
1000
0000
0001
0100
0000
0000
0110
0000
0000
0000
0000
0000
0000
0000
0010
0100
0000
0000
0001
0000
0000
0010
0000
0000
,  // measure 6
0100
0000
0000
0000
0000
0010
0001
0000
0001
1000
0000
0100
0000
0000
1000
0001
0000
0001
0100
0000
0100
0010
0000
0010
,  // measure 7
1000
0000
0001
0100
0000
0000
1010
0000
0000
0000
0000
1000
0001
0000
0100
0000
0000
0001
1000
0000
0000
1000
0000
0100
,  // measure 8
0000
0000
0010
0001
0000
0000
0010
0000
0001
0000
0000
0001
0100
0000
0001
0000
0000
0001
0100
0000
0010
1000
0000
0000
,  // measure 9
0011
0000
0000
0000
0000
0000
2000
0000
0000
0000
0000
0000
3000
0000
0010
1000
0000
1000
0001
0000
0001
0010
0000
0100
,  // measure 10
1000
0010
0100
0001
0000
0000
0101
0000
0000
0000
0000
0000
0000
0000
0001
1000
0000
1000
0000
0000
1000
0001
0000
0001
,  // measure 11
0010
0000
0100
0010
0000
0010
0001
0000
0001
0100
0000
0010
0000
0000
1000
0001
0000
0001
0010
0000
0001
1000
0000
0010
,  // measure 12
0100
0001
0010
0100
0000
0000
0110
0000
0000
0000
0000
0000
0100
0010
0001
0100
0010
1000
0001
0010
0001
0100
0010
1000
,  // measure 13
0000
0000
0000
0001
0000
0000
1000
0000
0000
0100
0000
1000
0000
0000
1000
0010
0000
0010
0100
0000
0100
0001
0000
0001
,  // measure 14
0010
0100
1000
0001
0000
0000
1001
0000
0000
0000
0000
0000
0000
0000
0010
1000
0000
1000
0001
0000
0001
0010
0000
0010
,  // measure 15
0001
0010
0100
1000
0000
0000
1001
0000
0000
0000
0000
0000
0000
0000
0000
0001
0000
1000
0010
0000
0010
0100
0000
0100
,  // measure 16
0001
0000
1000
0001
0000
0001
0010
0000
0010
0001
0000
0001
1000
0000
1000
0010
0000
0010
1000
0000
1000
0001
0000
0001
,  // measure 17
0020
0000
0130
0010
0001
0100
0010
1000
0001
0010
0001
1000
0010
1000
0001
0100
0001
1000
0100
0010
0100
1000
0001
0100
,  // measure 18
0020
0000
0000
0000
0000
0000
0000
0000
0000
0000
0000
0130
0001
0000
1000
0001
0000
0020
0000
0000
0000
0000
0000
0000
,  // measure 19
0130
0000
0000
0000
0000
0000
0000
0000
0000
1000
0000
0000
0100
0000
0000
1000
0000
0000
0001
0000
0010
0001
0000
0100
,  // measure 20
0000
0000
0000
0010
0000
0000
0000
0000
0000
0000
0000
0000
0000
0000
0000
0000
0000
0010
0100
0000
0100
0001
0000
1000
,  // measure 21
0000
0000
0000
0001
0000
0000
0100
0000
0001
1000
0000
0010
0000
0000
0000
0100
0000
0000
0001
0000
1000
0010
0000
1000
,  // measure 22
0000
0001
0000
0000
0000
0000
0000
0000
,  // measure 23
1000
0000
0000
0100
0000
0000
1000
0000
0000
0001
0000
0000
0010
0000
0000
0001
0000
0000
0100
0000
0010
1000
0000
1000
,  // measure 24
0001
0000
0000
0020
0000
0000
0030
0000
0000
0000
0000
0000
0000
0000
0000
0000
0000
0000
0000
0000
0100
1000
0000
1000
,  // measure 25
0020
0000
0000
0030
,  // measure 26
0200
0302
2003
3200
,  // measure 27
0310
0000
0100
1000
0000
0000
0001
0000
0000
1000
0000
0010
0000
0000
0000
0100
0000
0000
0000
0000
0000
0000
0000
0001
,  // measure 28
0000
0000
1000
0010
0000
0000
0100
0000
0000
0001
0000
1000
0000
0000
0000
0000
0000
0000
0000
0000
0100
1000
0000
0001
,  // measure 29
0000
0000
0000
0000
1000
0000
0010
0000
0000
0100
0000
0000
0001
0000
0000
0010
0000
0000
0001
0000
0000
0100
0000
0000
0001
0000
0000
0000
1000
0000
0000
0000
0000
0000
0001
0000
0000
0000
0000
0000
0000
0000
0200
0000
0000
0000
0000
0000
,  // measure 30
0000
0000
0000
0301
0000
0000
1000
0000
0000
0010
0000
0000
1010
0000
0000
0000
0000
0000
0110
0000
0000
0000
0000
1010
,  // measure 31
0000
0000
0000
0000
0000
0000
0000
0000
0000
0000
0000
0000
0000
0000
1000
0001
0000
0001
1000
0000
1000
0010
0000
0010
,  // measure 32
0100
0000
0001
1000
0000
0000
0001
0000
0000
1000
0000
0100
0000
0000
0000
1000
0000
0000
0000
0000
0001
1000
0000
0010
,  // measure 33
0000
0000
0000
0100
0000
0001
0100
0000
0010
1000
0000
0100
0000
0000
0100
1000
0000
0001
0010
0000
0001
1000
0000
0001
,  // measure 34
0000
0000
0000
1100
0000
0000
0000
0000
0011
0000
0000
0001
0100
0000
0010
0000
0000
1010
0000
0000
0000
1100
0000
0011
,  // measure 35
0000
0000
0000
0001
0000
0000
0100
0000
0000
1000
0000
0000
0100
0000
0000
0001
0000
0000
0010
0000
0100
1000
0000
0001
,  // measure 36
0000
0000
0000
0100
0000
0000
0010
0000
1000
0100
0000
1000
0000
0000
0000
0001
0000
0000
0000
0000
0000
0000
0000
0000
,  // measure 37
0000
0000
0000
1000
0000
0000
0010
0000
0000
0001
0000
0000
0010
0000
0000
0100
0000
0000
0001
0000
1000
0001
0000
0100
,  // measure 38
0000
0010
0110
0000
0000
0000
0000
0000
,  // measure 39
1001
0000
0000
0001
0000
0000
0100
0000
0000
1000
0000
0000
0100
0000
0000
0010
0000
0000
0100
0000
0000
0001
0000
1000
,  // measure 40
0000
0000
0000
0001
0000
0000
1000
0000
0000
0010
0000
0000
0100
0000
0000
0001
0000
0000
0010
0000
0000
0100
0000
0010
,  // measure 41
0000
0000
0000
0100
0000
0000
1000
0000
0000
0001
0000
0000
0010
0000
0000
1000
0000
0000
0010
0000
0000
0000
0000
0100
,  // measure 42
1000
0000
0000
1000
0000
0000
0001
0000
0000
0000
0000
0100
0001
0000
0000
0001
0000
0000
1000
0000
0000
0001
0000
1000
,  // measure 43
0100
0000
0000
0000
0000
0000
0010
0000
0000
0000
0000
0000
0001
0000
0000
0000
0000
1000
0000
0000
0001
0000
0000
0000
,  // measure 44
1000
0000
0000
0000
0000
0000
0110
0000
0000
0000
0000
0000
1000
0000
0000
0000
0000
0010
0000
0000
0100
0000
0000
0000
,  // measure 45
0001
0000
0000
0000
0000
0000
0011
0000
0000
1100
0000
0000
0001
0000
0000
0000
0000
1000
0000
0000
0001
0000
0000
0000
,  // measure 46
0100
0000
0000
0010
0000
0000
1000
0000
0000
0000
0000
2002
0000
0000
0000
0000
0000
3000
0003
0000
0000
0000
0000
0000
;

//---------------dance-single - ----------------
#NOTES:
     dance-single:
     :
     Medium:
     6:
     0.312972,0.367167,0.173611,0.148810,0.144676,265.000000,244.000000,21.000000,18.000000,0.000000,0.000000,0.312972,0.367167,0.173611,0.148810,0.144676,265.000000,244.000000,21.000000,18.000000,0.000000,0.000000:
// measure 0
0000
0000
0000
0000
,  // measure 1
0000
0000
0000
0000
,  // measure 2
0000
0000
0000
0000
,  // measure 3
0000
0000
0000
0000
,  // measure 4
1001
1000
0001
0100
,  // measure 5
0001
0000
0000
0010
0000
0000
1100
0000
0000
0000
0000
0000
0000
0000
0100
1000
0000
0000
0010
0000
0000
0100
0000
0000
,  // measure 6
0001
0000
1000
0002
0013
0001
0100
0010
,  // measure 7
1000
0000
0010
1000
0000
0000
0001
0000
0000
0000
0000
0000
0001
0000
0000
0010
0000
0000
1000
0000
0000
0010
0000
0000
,  // measure 8
0100
1000
0010
0001
0010
0100
0001
0010
,  // measure 9
0100
0000
1002
0000
0000
0103
0001
0010
,  // measure 10
0100
0010
1100
0000
0000
0010
0001
0100
,  // measure 11
0001
1000
0100
1000
0010
0100
0001
1000
,  // measure 12
0001
0000
0000
0100
0000
0000
1010
0000
0000
0000
0000
0000
0010
0000
0000
1000
0000
0000
0001
0000
0000
0000
0000
1000
,  // measure 13
0000
0000
0000
0001
0000
0000
0010
0000
0000
0000
0000
0001
0000
0000
0000
0100
0000
0000
0001
0000
0000
1000
0000
0000
,  // measure 14
0001
0100
1010
0000
0000
1000
0010
0100
,  // measure 15
0001
0010
1100
0000
0000
0100
1000
0010
,  // measure 16
0100
0100
0010
1000
0001
0001
0010
0001
,  // measure 17
2000
3200
0320
0032
2003
3200
0320
0032
,  // measure 18
2000
0000
0000
0000
0000
0000
3003
0000
0000
0000
0000
0001
1000
0000
0001
1000
0000
0001
0000
0000
0000
0000
0000
0000
,  // measure 19
0110
0000
0000
0000
0000
0000
0000
0000
0000
0010
0000
0000
1000
0000
0000
0010
0000
0000
0100
0000
0000
0000
0000
0001
,  // measure 20
0000
0000
0000
0010
0000
0000
0000
0000
0000
0000
0000
0000
0000
0000
0000
0000
0000
0000
0100
0000
0000
0000
0000
0010
,  // measure 21
0000
0000
0000
0001
0000
0000
1000
0000
0000
0000
0000
0001
0000
0000
0000
0100
0000
0000
0001
0000
0000
0000
0000
0010
,  // measure 22
0000
0100
0000
0000
0000
0000
0000
0000
,  // measure 23
0010
0000
0000
0001
0000
0000
0100
0000
0000
0010
0000
0000
1000
0000
0000
0010
0000
0000
0100
0000
0000
0000
0000
0001
,  // measure 24
0000
1000
0000
0000
0000
0000
0000
0001
,  // measure 25
0200
0000
0000
0300
,  // measure 26
0020
2030
3002
0023
,  // measure 27
0031
0000
0000
1000
0000
0000
0001
0000
0000
0100
0000
0001
0000
0000
0000
0010
0000
0000
0000
0000
0000
0000
0000
0100
,  // measure 28
0000
0000
0000
0010
0000
0000
0001
0000
0000
0100
0000
0001
0000
0000
0000
0000
0000
0000
0000
0000
0000
0100
0000
0000
,  // measure 29
0001
0000
0000
1000
0000
0000
0001
0000
0000
0100
0000
0000
0010
0000
0000
0000
0000
1000
0000
0000
0000
0010
0000
0000
,  // measure 30
0000
0000
0000
0100
0000
0000
0010
0000
0000
1000
0000
0000
0001
0000
0000
0000
0000
0000
1000
0000
0000
0000
0000
0101
,  // measure 31
0000
0000
0000
0000
0000
0001
0010
0100
,  // measure 32
0010
0000
0000
0001
0000
0000
0100
0000
0000
0010
0000
1000
0000
0000
0000
0010
0000
0000
0000
0000
0000
0000
0000
0100
,  // measure 33
0000
0000
0000
0010
0000
0000
1000
0000
0000
0000
0000
0001
0000
0000
0000
0010
0000
0000
0001
0000
0000
0000
0000
1000
,  // measure 34
0000
0000
0000
1001
0000
0000
0000
0000
1010
0000
0000
0000
1001
0000
0000
0000
0000
0011
0000
0000
0000
0001
0000
1000
,  // measure 35
0000
0000
0000
0001
0000
0000
0100
0000
0000
0010
0000
0000
1000
0000
0000
0010
0000
0000
0100
0000
0000
0001
0000
1000
,  // measure 36
0000
0001
0000
0000
0000
0000
0000
0000
,  // measure 37
0000
0000
0000
0100
0000
0000
0010
0000
0000
1000
0000
0000
0100
0000
0000
0010
0000
0000
0100
0000
0000
1000
0000
0100
,  // measure 38
0000
0010
0110
0000
0000
0000
0000
0000
,  // measure 39
1001
0000
0000
0001
0000
0000
0100
0000
0000
0001
0000
0000
0010
0000
0000
0001
0000
0000
0100
0000
0000
0000
0000
0010
,  // measure 40
0000
0000
0000
1000
0000
0000
0010
0000
0000
0100
0000
0000
0001
0000
0000
1000
0000
0000
0100
0000
0000
0000
0000
0010
,  // measure 41
0000
0100
0010
0001
0100
1000
0100
0000
,  // measure 42
0010
0100
1001
0000
0100
0010
1001
0010
,  // measure 43
1001
0000
0000
0000
0000
0000
0001
0000
0000
0000
0000
0000
1000
0000
0000
0000
0000
0010
0000
0000
1000
0000
0000
0000
,  // measure 44
0010
0000
0000
0000
0000
0000
0110
0000
0000
0000
0000
0000
0010
0000
0000
0000
0000
1000
0000
0000
0001
0000
0000
0000
,  // measure 45
0010
0000
0000
0000
0000
0000
0011
0000
0000
0000
0000
0000
0001
0000
0000
0000
0000
1000
0000
0000
0001
0000
0000
0000
,  // measure 46
0100
0000
0000
0010
0000
0000
1000
0000
0000
0000
0000
2002
0000
0000
0000
0000
0000
0000
3003
0000
0000
0000
0000
0000
;

//---------------dance-single - ----------------
#NOTES:
     dance-single:
     :
     Easy:
     3:
     0.187783,0.212570,0.066138,0.033069,0.000000,159.000000,151.000000,8.000000,4.000000,0.000000,0.000000,0.187783,0.212570,0.066138,0.033069,0.000000,159.000000,151.000000,8.000000,4.000000,0.000000,0.000000:
0000
0000
0000
0000
,
0000
0000
0000
0000
,
0000
0000
0000
0000
,
0000
0000
0000
0000
,
1000
0001
0100
0001
,
0010
0001
0010
0000
0000
0000
0001
0000
,
1000
0010
1000
0100
,
0010
0100
0010
0000
0100
0000
1000
0000
,
0010
0100
0001
1000
,
1001
0020
0000
1030
,
0001
1000
0001
0000
0000
0000
0100
0000
,
0001
0010
0001
1000
,
0100
1000
0100
0000
1000
0000
0010
0000
,
0100
0010
1000
0001
,
0010
0001
1001
0000
0000
0000
0000
0000
,
1000
0010
1001
0000
0000
0000
0001
0000
,
0100
0001
0010
0001
,
1000
0100
0010
0001
,
2000
0000
0000
0000
3001
1000
0010
0000
,
0110
0000
0100
0100
,
0100
0000
0000
0000
,
0010
0000
1000
0000
,
0001
0000
0000
0000
,
1000
0000
0010
0000
0100
0000
0001
1000
,
0001
0000
0000
0000
0000
0000
0000
0010
,
0001
0000
0000
0000
,
0100
0010
1000
0001
,
1000
0100
0010
0100
,
1000
0001
0100
0001
,
0010
0001
1000
0010
,
0100
0000
0010
1000
0010
0000
1000
0000
,
0001
0000
0000
0010
,
0001
1000
0010
0000
,
1000
0001
0100
0001
,
0000
1001
0000
0000
0110
0000
0000
0000
,
0100
0010
1000
0001
,
1000
0000
0000
0000
,
0001
1000
0010
1000
,
0100
0110
0000
0000
,
0000
0010
0001
1000
,
0010
1000
0100
0010
,
0001
1000
0010
1000
,
0001
1000
0001
0000
0001
1000
0001
0000
,
1000
1000
0001
1000
,
0001
0001
1000
0001
,
0100
0100
0010
0100
,
0010
0100
0010
0000
2002
0000
3003
0000
;

//---------------dance-single - ----------------
#NOTES:
     dance-single:
     :
     Beginner:
     1:
     0.089758,0.134549,0.057870,0.000000,0.000000,76.000000,69.000000,7.000000,0.000000,0.000000,0.000000,0.089758,0.134549,0.057870,0.000000,0.000000,76.000000,69.000000,7.000000,0.000000,0.000000,0.000000:
0010
0000
0000
0000
,
1000
0000
0000
0000
,
0010
0000
0000
0000
,
0100
0000
0000
0000
,
0001
0000
0000
0000
,
1000
1000
0000
0000
,
0001
0010
0000
0000
,
0100
0000
0010
0000
,
0001
0000
1000
0000
,
0010
1001
0000
0000
,
1000
1000
0000
0000
,
0001
0000
0000
0000
,
0100
0000
0010
0000
,
0000
1000
0000
0000
,
0001
1001
0000
0000
,
1000
1001
0000
0000
,
0010
0000
0100
0000
,
0001
0000
1000
0000
,
0010
0000
0100
0100
,
0010
0000
0000
0000
,
1000
0000
0000
0000
,
0001
0000
0000
0000
,
1000
0000
0000
0000
,
0100
0000
0000
0000
,
1000
0000
0000
0000
,
0010
0000
0000
0000
,
0100
0000
0010
0000
,
1000
0000
0000
0000
,
0001
0000
0000
0000
,
0010
0000
0001
0000
,
0100
0000
0010
0010
,
0010
0000
0000
0000
,
1000
0000
0000
0000
,
0001
0000
0000
0000
,
1001
0000
0100
0000
,
0001
0000
0000
0000
,
0000
0000
0000
0000
,
1000
0000
0000
0000
,
0000
0010
0000
0000
,
0110
0000
0000
0000
,
0100
0000
0000
0000
,
0010
0000
0000
0000
,
1000
1000
0001
0001
,
1001
0000
0000
0000
,
0010
0000
0000
0000
,
1000
0000
0000
0000
,
0001
1000
0110
0000
;
