#VERSION:0.83;
#TITLE:YOU AND I;
#SUBTITLE:;
#ARTIST:드림캐쳐;
#TITLETRANSLIT:;
#SUBTITLETRANSLIT:;
#ARTISTTRANSLIT:Dreamcatcher;
#GENRE:;
#ORIGIN:;
#CREDIT:;
#BANNER:;
#BACKGROUND:;
#PREVIEWVID:;
#JACKET:[Round 2] - YOU AND I-jacket.png;
#CDIMAGE:;
#DISCIMAGE:;
#LYRICSPATH:;
#CDTITLE:;
#MUSIC:[Round 2] - YOU AND I.ogg;
#OFFSET:-1.253861;
#SAMPLESTART:50.709999;
#SAMPLELENGTH:12.000000;
#SELECTABLE:YES;
#DISPLAYBPM:97.000000:194.000000;
#BPMS:0.000=97.000,
71.000=194.000,
83.000=97.000,
84.000=194.000,
181.000=97.000,
197.000=48.500,
199.000=97.000,
215.000=194.000;
#STOPS:14.979=0.606,
84.000=0.309;
#DELAYS:;
#WARPS:;
#TIMESIGNATURES:0.000=4=4;
#TICKCOUNTS:0.000=4;
#COMBOS:0.000=1;
#SPEEDS:0.000=1.000=0.000=0;
#SCROLLS:0.000=1.000,
195.000=0.875,
195.500=0.750,
196.000=0.625,
196.500=0.500,
197.000=1.000;
#FAKES:;
#LABELS:0.000=Song Start;
#BGCHANGES:;
#KEYSOUNDS:;
#ATTACKS:
;

//---------------dance-single - ----------------
#NOTEDATA:;
#CHARTNAME:;
#STEPSTYPE:dance-single;
#DESCRIPTION:;
#CHARTSTYLE:;
#DIFFICULTY:Hard;
#METER:8;
#RADARVALUES:0.490596,0.670023,0.296187,0.528334,0.204129,429.000000,392.000000,37.000000,66.000000,0.000000,0.000000,0.000000,0.000000,0.000000,0.490596,0.670023,0.296187,0.528334,0.204129,429.000000,392.000000,37.000000,66.000000,0.000000,0.000000,0.000000,0.000000,0.000000;
#CREDIT:;
#NOTES:
// measure 0
0000
0000
0000
0000
,  // measure 1
0000
0000
0000
0000
,  // measure 2
0000
0000
0000
0000
,  // measure 3
0000
0000
0000
0000
0000
0000
0000
0000
0000
0000
0000
0000
1000
0000
0001
0100
,  // measure 4
0001
0000
1000
0000
0001
0000
0010
0100
0000
0000
0000
1000
0001
0000
0100
0010
,  // measure 5
0000
1000
0010
0000
0001
0000
0010
0000
1000
0000
0002
0000
0000
0000
0003
0000
,  // measure 6
0000
1000
0100
0010
0001
0010
0100
1000
0001
0000
0100
0000
0220
0000
0330
0000
,  // measure 7
0000
0001
0100
0010
1000
0010
0100
0001
2000
0000
3001
0000
0010
0100
0000
0010
,  // measure 8
0100
0000
1000
0010
0100
0000
0001
0000
2000
0000
0000
0000
3001
0000
0010
0100
,  // measure 9
0010
0000
1000
0010
0001
0000
0100
0000
0020
0000
0000
0000
1030
0000
0010
0100
,  // measure 10
0001
1000
0001
0010
0100
1000
0000
0101
,  // measure 11
0000
0000
1000
0000
0100
0000
0010
0000
0002
0000
0000
0000
1003
0100
0010
0000
,  // measure 12
1000
0100
0010
0000
0002
0000
0000
0000
2003
0000
0000
0000
3001
0100
0010
0000
,  // measure 13
0001
0100
0010
0000
2000
0000
0000
0000
3002
0000
0000
0000
0003
0000
0010
0100
,  // measure 14
0010
0100
0010
1000
0010
0000
0001
0000
0010
0000
0100
0000
1000
0100
0000
0000
,  // measure 15
0000
0000
0100
0000
0010
0001
0000
0000
0000
0000
0000
0000
0001
0000
0010
0100
,  // measure 16
0000
1000
0001
0000
0100
0010
0000
1000
0001
0000
0010
0100
0010
0000
0001
0100
,  // measure 17
0000
0010
1000
0000
1000
0100
0000
0010
0001
0000
0100
0001
1000
0000
0000
0000
,  // measure 18
1000
0100
0100
0010
,  // measure 19
0010
0000
0001
0000
0001
0000
1000
0100
,  // measure 20
0010
0000
0000
0000
0001
0000
0000
0000
0100
0000
0000
0000
0010
0000
0000
0000
1000
0000
0000
0000
0001
0000
0000
0000
0020
0000
0000
0000
0000
0000
0130
1000
,  // measure 21
0002
0003
0000
0000
0000
0000
0000
0000
0000
0000
0000
0000
0000
0000
0000
0000
0000
0000
0000
0000
0000
0000
0000
0000
0000
0000
0000
0000
0000
0000
0000
0000
0000
0000
0000
0000
0000
0000
0000
0000
0000
0000
0000
0000
0000
0000
0000
0000
0021
0000
0000
0000
0000
0000
0000
0000
0000
0000
0000
0000
0000
0000
0000
0000
0000
0000
0000
0000
0000
0000
0000
0000
0000
0000
0000
0000
0000
0000
0000
0000
0000
0000
0000
0000
0000
0000
0000
0000
0000
0000
0000
0000
0000
0000
0000
0000
0130
0000
0000
0000
0000
0000
0000
0000
0000
0000
0000
0000
0000
0000
0000
0000
0000
0000
0000
0000
0000
0000
0000
0000
1000
0000
0000
0000
0000
0000
0000
0000
0000
0000
0000
0000
0000
0000
0000
0000
0000
0000
0000
0000
0000
0000
0000
0000
0000
0000
0000
0000
0000
0000
0000
0000
0000
0000
0000
0000
0000
0000
0000
0000
0000
0000
0000
0000
0000
0000
0000
0000
1000
0000
0000
0000
0000
0000
0000
0000
0000
0000
0000
0000
0000
0000
0000
0000
0000
0000
0000
0000
0000
0000
0000
0000
,  // measure 22
0001
0000
0100
0000
1010
0000
0001
1000
,  // measure 23
0100
0000
0210
0000
1300
0001
0000
0001
,  // measure 24
0010
0000
0100
0000
0011
0000
1000
0001
,  // measure 25
0100
0000
1020
0000
0130
0001
0000
0001
,  // measure 26
1000
0000
0100
0000
0011
0000
0100
1000
,  // measure 27
0010
0000
0201
0000
0310
1000
0000
1000
,  // measure 28
0001
0000
0010
0000
1100
0000
0010
0001
,  // measure 29
0100
0000
0120
0000
1030
0010
0000
0100
,  // measure 30
0001
0000
1000
0000
0110
0000
0001
0010
,  // measure 31
1000
0000
0210
0000
1300
0001
0000
0100
,  // measure 32
0010
0000
1000
0000
0101
0000
0010
2000
,  // measure 33
0001
0000
3010
0000
1100
0000
0010
0001
,  // measure 34
1000
0020
0000
0130
0001
0000
1001
0000
,  // measure 35
1100
0000
0011
0100
0100
1000
0001
0001
,  // measure 36
0100
0010
0100
0001
0010
0100
2000
0000
,  // measure 37
3100
0000
0120
0000
0130
0020
0100
0000
,  // measure 38
0100
0000
0001
0000
0031
0000
1000
0010
,  // measure 39
0100
0002
0010
0000
0013
0100
1000
0001
,  // measure 40
0000
0200
0000
0310
1000
0000
0001
0010
,  // measure 41
0100
2001
3010
1010
,  // measure 42
0101
0021
0130
1200
,  // measure 43
0310
0001
1000
0010
0100
0000
0001
0010
,  // measure 44
0100
2000
3020
0230
,  // measure 45
0302
0000
0000
0000
0023
0000
0000
2000
0030
0000
3010
0000
0001
0000
0000
0000
,  // measure 46
0100
0010
0000
0002
0000
0000
0013
0100
0000
0001
0000
0010
0000
0000
0000
0000
,  // measure 47
0100
1000
2001
0000
0000
0000
3010
0000
,  // measure 48
0100
0000
0001
0000
0021
0000
0000
0000
0000
0000
0031
0010
0200
0000
0000
0000
,  // measure 49
0000
0000
0000
0000
0000
0000
0000
0000
0320
0000
0000
0031
0000
0100
0000
0020
0000
0000
0000
0000
0000
0000
0000
0000
2030
0000
0000
0000
0000
0000
0000
0000
,  // measure 50
0000
0000
0200
3000
0020
0300
0002
0000
,  // measure 51
0030
0000
0200
0003
0320
2030
0002
0000
,  // measure 52
0000
3000
0020
0000
0003
0000
2000
0000
,  // measure 53
0000
0030
0020
0000
3000
0000
0130
0000
,  // measure 54
0000
0000
0000
0100
1001
0000
0100
0000
,  // measure 55
1010
0000
0001
1000
0100
0000
0021
0000
,  // measure 56
0130
1000
0000
0001
0100
0000
0010
0000
,  // measure 57
1001
0000
1000
0002
0010
0000
0103
0000
,  // measure 58
0011
0000
1000
0001
0100
0020
0000
1030
,  // measure 59
0010
0000
0110
0000
0101
0000
0011
0100
,  // measure 60
0100
0000
1000
0000
0001
0000
0001
0000
0100
0000
0010
0100
0010
0000
0100
0000
,  // measure 61
0001
0020
0030
0100
0010
0002
1000
0003
,  // measure 62
0110
0000
0001
0010
0200
0000
1300
0001
,  // measure 63
0100
0020
0000
0130
0002
0000
2003
0000
,  // measure 64
3001
0000
1000
0100
0010
0001
0020
0000
,  // measure 65
0130
0100
0000
1000
0001
0100
0010
0000
,  // measure 66
1010
1000
0001
0000
1000
0002
0103
0010
,  // measure 67
1000
0100
0001
0100
1000
0010
0200
0000
,  // measure 68
0000
0000
0000
0000
0000
0000
0301
0010
,  // measure 69
0010
1000
0100
0100
2002
0000
3003
0000
;

//---------------dance-single - ----------------
#NOTEDATA:;
#CHARTNAME:;
#STEPSTYPE:dance-single;
#DESCRIPTION:;
#CHARTSTYLE:;
#DIFFICULTY:Challenge;
#METER:9;
#RADARVALUES:0.538626,0.697941,0.432273,0.320202,0.184116,471.000000,417.000000,54.000000,40.000000,0.000000,0.000000,0.000000,0.000000,0.000000,0.538626,0.697941,0.432273,0.320202,0.184116,471.000000,417.000000,54.000000,40.000000,0.000000,0.000000,0.000000,0.000000,0.000000;
#CREDIT:;
#NOTES:
// measure 0
0000
0000
0000
0000
,  // measure 1
0000
0000
0000
0000
,  // measure 2
0000
0000
0000
0000
,  // measure 3
0000
0000
0000
0000
0000
0000
0000
0000
0000
0000
0000
0000
1000
0000
0000
0001
,  // measure 4
0100
0000
0010
0000
0000
1000
0001
0000
0000
0000
1000
0000
0010
0000
0000
0010
,  // measure 5
0100
0000
0001
0000
0000
1000
0001
0000
0000
0000
0010
0000
0100
0000
0000
0100
,  // measure 6
1000
0000
0001
0000
0000
0100
0001
0000
0000
0000
0100
0000
0110
0000
0000
0010
,  // measure 7
1000
0000
0001
0000
0000
0010
0100
0000
0000
0000
1000
0000
1001
0000
0000
0001
,  // measure 8
0100
0000
0110
0000
0000
1000
0001
0000
0011
0000
0100
0000
0110
0000
0100
0010
,  // measure 9
0100
0000
1100
0000
0000
0001
0100
0000
0110
0000
1000
0000
1010
0000
0000
1000
,  // measure 10
0001
0000
0011
0000
0000
0100
0010
0000
0110
0000
0001
0000
0101
0000
0000
0100
,  // measure 11
0010
1010
0000
1000
0002
0000
0203
0000
,  // measure 12
0000
0000
0320
0000
2030
3002
0023
0000
,  // measure 13
0000
0000
0230
0000
0000
1300
0002
0000
,  // measure 14
0000
0203
0320
2030
,  // measure 15
0000
0000
0000
0000
0000
0000
0000
0000
3200
0000
0000
0000
0310
0000
0010
0001
,  // measure 16
0000
0001
1000
0000
1000
0001
0000
0001
0100
0000
0010
0100
0110
0000
0010
1000
,  // measure 17
0000
1000
0001
0000
0001
1000
0000
1000
0100
0000
0000
0000
0010
0000
0000
0000
,  // measure 18
0010
0001
0001
0100
,  // measure 19
0100
0000
0010
0000
0010
0000
1000
0100
,  // measure 20
0010
0000
0000
0000
0001
0000
0000
0000
0100
0000
0000
0000
0010
0000
0000
0000
0001
0000
0000
0000
0010
0000
0000
0000
0200
0000
0000
0000
0000
0000
0310
1000
,  // measure 21
0002
0003
0000
0000
0000
0000
0000
0000
0000
0000
0000
0000
0000
0000
0000
0000
0000
0000
0000
0000
0000
0000
0000
0000
0000
0000
0000
0000
0000
0000
0000
0000
0000
0000
0000
0000
0000
0000
0000
0000
0000
0000
0000
0000
0000
0000
0000
0000
1010
0000
0000
0000
0000
0000
0000
0000
0000
0000
0000
0000
0000
0000
0000
0000
0000
0000
0000
0000
0000
0000
0000
0000
0000
0000
0000
0000
0000
0000
0000
0000
0000
0000
0000
0000
0000
0000
0000
0000
0000
0000
0000
0000
0000
0000
0000
0000
0001
0000
0000
0000
0000
0000
0000
0000
0000
0000
0000
0000
0000
0000
0000
0000
0000
0000
0000
0000
0000
0000
0000
0000
0100
0000
0000
0000
0000
0000
0000
0000
0000
0000
0000
0000
0000
0000
0000
0000
0000
0000
0000
0000
0000
0000
0000
0000
0000
0000
0000
0000
0000
0000
0000
0000
0000
0000
0000
0000
0000
0000
0000
0000
0000
0000
0000
0000
0000
0000
0000
0000
0001
0000
0000
0000
0000
0000
0000
0000
0000
0000
0000
0000
0000
0000
0000
0000
0000
0000
0000
0000
0000
0000
0000
0000
,  // measure 22
0010
0000
0110
0000
1000
0001
0100
0010
,  // measure 23
1000
0000
0110
0000
0001
1000
0000
0001
,  // measure 24
0010
0000
0110
0010
0001
1000
0001
0100
,  // measure 25
0010
0000
1010
0000
0010
0100
0000
0001
,  // measure 26
1000
0000
0011
0000
0100
1000
0001
0100
,  // measure 27
0010
0000
0110
0000
1000
0010
0000
0100
,  // measure 28
0001
0000
1001
1000
0010
0100
0001
0010
,  // measure 29
0100
0000
0110
0000
1000
0001
0000
0001
,  // measure 30
0100
0000
0110
0000
0001
0010
0100
1000
,  // measure 31
0010
0000
0101
0000
1000
0001
0000
0010
,  // measure 32
0100
0000
1010
1000
0100
0010
0011
0001
,  // measure 33
1000
0000
0101
0000
0110
0000
0001
0010
,  // measure 34
0100
1000
0001
0100
0010
0000
0100
0001
,  // measure 35
0010
0000
0011
0100
1000
1010
0100
0001
,  // measure 36
0101
0100
0101
0010
1000
0100
1100
0000
,  // measure 37
0110
0000
1001
0001
0100
0001
1000
0001
,  // measure 38
0100
0001
1000
0100
0010
0100
1000
0100
,  // measure 39
0010
0100
1000
0010
0100
0010
1000
0010
,  // measure 40
0100
0010
1000
0001
0010
0100
1000
0010
,  // measure 41
0100
0001
1000
0100
0010
0100
0001
0100
,  // measure 42
0010
0100
1000
0010
0100
0010
0001
0010
,  // measure 43
0100
0010
1000
0010
0100
0001
1000
0100
,  // measure 44
0010
0001
2000
0000
3020
0000
0230
0000
,  // measure 45
0301
0000
0000
0000
1002
0000
0000
0000
0000
0010
0000
1000
1003
0000
0000
0000
,  // measure 46
0010
0000
0000
0000
0210
0000
0000
0001
0000
0010
0000
1000
1300
0000
0000
1000
,  // measure 47
0100
0000
0001
0000
0012
0000
0000
1000
0000
0000
0000
0000
0103
0000
0000
0000
,  // measure 48
0010
0000
1000
0000
0200
0000
0000
0001
0000
0000
0310
0001
0200
0000
0000
0000
,  // measure 49
0300
0000
0000
0000
0000
0000
0000
0000
0002
0000
0000
0013
0000
0100
0000
2000
0000
0000
0000
0000
0000
0000
0000
0000
3002
0000
0000
0000
0000
0000
0010
0000
,  // measure 50
0000
0000
1000
0000
0203
0000
0000
0000
0310
0000
1000
0000
0200
0000
0000
0001
,  // measure 51
0000
0000
1300
0000
0020
0000
0000
0130
0001
0000
0010
0000
0200
0000
0000
0010
,  // measure 52
0000
0000
1300
0000
0002
0000
0000
0000
0103
0000
1000
0000
0200
0000
0000
0010
,  // measure 53
0000
0301
0020
0000
0130
0010
1001
0000
,  // measure 54
1000
0100
0000
1000
0010
0000
0110
0000
,  // measure 55
0001
1000
0100
0010
0001
0000
0110
0000
,  // measure 56
0001
0100
0000
0010
1000
0000
1010
1000
,  // measure 57
0010
0100
0001
0010
1000
0000
0110
0000
,  // measure 58
0011
0000
1000
0001
0010
0100
1000
0010
,  // measure 59
0100
0000
0001
0010
0100
0000
1100
1000
,  // measure 60
0010
0000
0101
0000
0001
0000
0010
0000
0110
0000
0010
0001
1000
0000
1001
0000
,  // measure 61
1000
0010
0000
0100
0001
0010
0100
0000
,  // measure 62
1100
0001
0010
0100
1000
0000
0020
0000
,  // measure 63
0130
2000
0000
3100
0001
0000
2000
0000
,  // measure 64
3010
0000
0001
0010
1000
0100
0020
0000
,  // measure 65
0001
0031
0000
1000
0001
0100
0010
0000
,  // measure 66
1010
0000
0100
0000
0001
0000
1000
0000
0100
0000
0010
0001
0010
0000
0100
0000
,  // measure 67
0010
0000
0001
0000
0100
0010
1000
0000
0100
0000
0010
0000
0220
0000
0000
0000
,  // measure 68
0000
0000
0000
0000
0330
0000
0011
0100
,  // measure 69
1000
1010
0100
0001
2002
0000
3003
0000
;
