#TITLE:Tokiwatari;
#SUBTITLE:;
#ARTIST:Yamajet;
#TITLETRANSLIT:;
#SUBTITLETRANSLIT:;
#ARTISTTRANSLIT:;
#GENRE:;
#CREDIT:;
#BANNER:[Round 2] - Tokiwatari.png;
#BACKGROUND:[Round 2] - Tokiwatari-bg.png;
#LYRICSPATH:;
#CDTITLE:;
#MUSIC:[Round 2] - Tokiwatari.ogg;
#OFFSET:-0.364000;
#SAMPLESTART:78.743469;
#SAMPLELENGTH:15.000000;
#SELECTABLE:YES;
#DISPLAYBPM:85.000000:170.000000;
#BPMS:0.000000=85.000000
,15.000000=170.000000
,79.000000=85.000000
,79.250000=170.000000
,79.500000=340.000000
,80.000000=85.000000
,80.250000=170.000000
,80.500000=340.000000
,81.000000=170.000000
,174.000000=85.000000
,186.000000=170.000000
;
#STOPS:49.000000=0.353000,
56.000000=0.353000,
87.750000=0.176000,
95.000000=0.176000
;
#BGCHANGES:;
#KEYSOUNDS:;
#ATTACKS:;

//---------------dance-single - ----------------
#NOTES:
     dance-single:
     :
     Hard:
     8:
     0.550120,0.579098,0.227015,0.420398,0.315298,381.000000,27.000000,50.000000,0.000000,0.000000,0.000000,0.550120,0.579098,0.227015,0.420398,0.315298,381.000000,27.000000,50.000000,0.000000,0.000000,0.000000:
0000
0000
0000
0000
,
0000
0000
0000
0000
,
0000
0000
0000
0000
,
0000
0000
0000
2002
,
0000
3003
1000
0000
1000
0000
0100
0000
,
0100
0000
1000
0000
1000
0001
0010
0000
,
0010
0001
0001
0100
,
0100
0000
0001
0000
0001
0100
0010
0000
,
1000
0100
0010
0001
0010
1000
0010
0001
,
0010
0100
1000
0010
0001
0010
1000
0010
,
0100
0001
0100
0010
1000
0001
1000
0000
,
0220
0000
0000
0000
,
0330
0000
0000
0000
0001
0000
0000
0000
0010
0000
0000
0010
0000
0000
0100
0000
,
0000
0100
0000
0000
1000
0000
0000
1000
0000
0000
0001
0000
0000
0001
0000
0000
,
0100
0000
0000
0000
0001
0000
0000
0001
0000
0000
0100
0000
0000
0100
0000
0000
,
0010
0000
0000
0010
0000
0000
1000
0000
0000
0001
0000
0000
0020
0000
0000
0000
,
0000
0000
0000
0000
0130
0000
0000
0100
0000
0000
1000
0000
0000
1000
0000
0000
,
0010
0000
0000
0010
0000
0000
0100
0000
0000
0100
0000
0000
0100
0000
0000
0001
,
0000
0000
0022
0000
0000
0000
0033
0000
0100
0000
0000
1000
0000
0000
2020
0000
,
0000
0000
0000
0000
3030
0000
1000
0000
0000
0001
0000
0000
2000
0000
0000
0000
,
3100
0000
0000
0000
1000
0000
0000
1000
0000
0000
0001
0000
0000
0001
0000
0000
,
0100
0000
0000
0100
0000
0000
0010
0000
0000
0010
0000
0000
1000
0000
0000
0010
,
0000
0000
0100
0000
0000
0100
0000
0000
0001
0000
0000
0001
0000
0000
0010
0000
,
0000
0010
0000
0000
0100
0000
0000
0100
0000
0000
0000
0000
2002
0000
3003
0000
,
0001
0000
0000
0001
0000
0000
0100
0000
0000
0100
0000
0000
1000
0000
0000
1000
,
0000
0000
0010
0000
0000
0000
0010
0000
0001
0000
0000
0100
0000
0000
2020
0000
,
0000
0000
3030
0000
1000
0000
0000
0100
0000
0000
0022
0000
0000
0000
0000
0000
,
0033
0001
0200
0000
0310
0000
0100
0000
,
0001
0000
0100
0000
0001
0000
1000
0000
0000
0000
1000
0000
0100
0000
0000
0100
,
0010
0010
0002
0000
1003
0000
0001
0000
,
1000
0000
0010
0000
0100
0000
0010
0000
0000
0000
0100
0000
0001
0000
0000
0001
,
1000
1000
0100
0100
0010
0000
0100
0000
,
0010
0001
1000
0200
0000
2300
0000
3020
,
0000
0130
0001
1000
0001
0100
0001
0000
,
1000
0010
0100
0002
0000
0013
0100
2000
,
0000
3002
0000
0103
0001
0000
1100
0000
,
0001
0000
1000
0000
0001
0000
0010
0000
0000
0000
0010
0000
0100
0000
0000
0100
,
1000
1000
1001
0000
0100
0000
0011
0000
,
1000
0000
0100
0000
0010
0000
0100
0000
0000
0000
0100
0000
0010
0000
0000
0001
,
0100
0100
0010
0100
0001
0100
0001
0100
,
0010
1000
0100
0020
0000
0130
1000
0002
,
0000
0103
0010
0000
0100
0001
1000
0100
,
0010
0001
1000
0020
0000
0000
0000
0200
,
0000
0000
0000
0000
0000
0000
0000
0000
0330
0000
0000
0000
0000
0000
0000
0000
1001
0000
0000
0000
0000
0000
0000
0000
0001
0000
0000
0001
0000
0000
0100
0000
,
0000
0100
0000
0000
0010
0000
0000
0010
0000
0000
1000
0000
0000
1000
0000
0000
0100
0000
0000
0000
0000
0000
0000
0000
0100
0000
0000
0100
0000
0000
1000
0000
,
0000
1000
0000
0000
0010
0000
0000
0010
0000
0000
0100
0000
0000
0100
0000
0000
0002
0000
0000
0000
0000
0000
0000
0000
0013
0000
0000
0010
0000
0000
0100
0000
,
0000
0100
0000
0000
1000
0000
0000
1000
0000
0000
0001
0000
0000
0001
0000
0000
0001
0000
0000
0000
0000
0000
1000
0000
0000
0000
0000
0000
0220
0000
0000
0000
,
0000
0000
0330
0000
1000
0000
0000
0001
0000
0000
0220
0000
0000
0000
0000
0000
,
0330
0000
0001
0000
0000
0100
0000
0000
0010
0000
0000
0000
1000
0000
1000
0000
,
0001
0100
0001
1000
0010
0100
0001
0100
,
0001
0010
0100
1000
0000
1000
0100
1000
,
0001
0100
0010
1000
0100
0010
0001
0010
,
0100
1000
0001
1000
0020
0000
0000
0000
,
1030
0001
0100
0001
0010
0100
1000
0001
,
0100
0000
0010
0000
1000
0000
0001
0000
1000
0000
0000
0100
0000
0000
0022
0000
,
0000
0000
0033
0000
1100
0000
0000
1001
0000
0000
0022
0000
0000
0000
0000
0000
,
0033
0000
1000
0000
0000
0010
0000
0000
0100
0000
0000
0000
0001
0000
0001
0000
,
1000
0010
1000
0010
0100
0001
1000
0001
,
0010
0100
0010
0010
0200
0000
0000
0000
,
1300
0001
0100
0010
0100
0001
0010
0100
,
1000
0001
1000
0010
0000
0200
0000
0000
,
0301
0100
0010
0100
1000
0100
0001
0010
,
0100
0000
0010
0000
1000
0000
0010
0000
0001
0000
0000
0100
0000
0000
2020
0000
,
0000
0000
3030
0000
0101
0000
0000
0110
0000
0000
2020
0000
0000
0000
0000
0000
,
3030
0000
0010
0000
0000
0100
0000
0000
2002
0000
0000
0000
3003
0000
0000
0000
,
0001
0000
0000
0001
0000
0000
0100
0000
0000
0100
0000
0000
0010
0000
0000
0010
,
0000
0000
1000
0000
0000
1000
0000
0000
0002
0000
0000
0000
1003
0000
0000
0000
,
1000
0000
0000
1000
0000
0000
0100
0000
0000
0100
0000
0000
0010
0000
0000
0010
,
0000
0000
0001
0000
0000
0001
0000
0000
0020
0000
0000
0000
0000
0000
0000
0000
,
0031
0000
0000
0001
0000
0000
1000
0000
0000
1000
0000
0000
0010
0000
0000
0010
,
0000
0000
0100
0000
0000
0100
0000
0000
0102
0000
0000
1000
0000
0000
0010
0000
,
0003
0000
0000
0000
2010
0000
0000
0001
0000
0000
0100
0000
3000
0000
0000
0000
,
0000
0000
0011
0000
0000
1100
0000
0000
1001
0000
0000
0000
0000
0000
0000
0000
;

//---------------dance-single - ----------------
#NOTES:
     dance-single:
     :
     Challenge:
     9:
     0.681044,0.701013,0.588557,0.386766,0.529701,451.000000,70.000000,46.000000,0.000000,0.000000,0.000000,0.681044,0.701013,0.588557,0.386766,0.529701,451.000000,70.000000,46.000000,0.000000,0.000000,0.000000:
// measure 0
0000
0000
0000
0000
,  // measure 1
0000
0000
0000
0000
,  // measure 2
0000
0000
0000
0000
,  // measure 3
0000
0000
0000
2002
,  // measure 4
0000
3003
1000
0000
1000
0100
1000
0000
,  // measure 5
1000
0000
0001
0000
0001
0100
0001
0010
,  // measure 6
0000
0010
0100
0000
0100
1000
0100
0000
,  // measure 7
0100
0000
0000
0000
0010
0000
0000
0000
0010
0000
0001
0000
0010
0000
0000
0001
,  // measure 8
0100
0000
0010
0000
1000
0000
0100
1000
0100
0000
1000
0100
1000
0000
0001
0100
,  // measure 9
0001
0000
0100
0001
0100
0000
0001
0010
0001
0000
0010
0001
1000
0000
0010
1000
,  // measure 10
0010
0000
1000
0010
0100
0000
0001
0000
1000
0000
0100
0000
1000
0000
0010
0000
,  // measure 11
0220
0000
0000
0000
,  // measure 12
0330
0000
0000
0000
0001
0000
0000
0000
0010
0000
0000
0010
0000
0000
0100
0000
,  // measure 13
0000
0100
0000
0000
1000
0000
0000
1000
0000
0000
0001
0000
0000
0001
0000
0000
,  // measure 14
0100
0000
0000
0000
0001
0000
0000
0001
0000
0000
0100
0000
0000
0100
0000
0000
,  // measure 15
0010
0000
0000
0010
0000
0000
1000
0000
0000
0001
0000
0000
0020
0000
0000
0000
,  // measure 16
0000
0000
0000
0000
0130
0000
0000
0100
0000
0000
1000
0000
0000
1000
0000
0000
,  // measure 17
0010
0000
0000
0010
0000
0000
0100
0000
0000
0100
0000
0000
0101
0000
0000
1001
,  // measure 18
0000
0000
0022
0000
0000
0000
0033
0000
1100
0000
0000
1001
0000
0000
2020
0000
,  // measure 19
0000
0000
0000
0000
3030
0000
0110
0000
0000
1001
0000
0000
0102
0000
0000
0000
,  // measure 20
0013
0000
0000
0000
1000
0000
0000
1000
0001
0000
0100
0000
0000
0100
0000
0000
,  // measure 21
0101
0000
0000
0001
0000
0000
0010
0000
0001
0010
0000
0000
0011
0000
0000
1010
,  // measure 22
0000
0000
0010
0000
0000
0010
1000
0000
0001
0000
0000
0001
0000
0000
1100
0000
,  // measure 23
0000
0100
0000
0000
0010
0000
0100
0010
0000
0000
0000
0000
1001
0000
0000
0000
,  // measure 24
1000
0000
0000
1000
0001
0000
0100
0000
0000
0100
0000
0000
1010
0000
0000
0010
,  // measure 25
0000
0000
1000
0000
0000
0000
0100
0000
1100
0000
0000
0110
0000
0000
0022
0000
,  // measure 26
0000
0000
0033
0000
0101
0000
0000
0110
0000
0000
2020
0000
0000
0000
3030
0000
,  // measure 27
0000
0000
1000
0000
0002
0000
0000
0000
1003
0000
0010
0000
1000
0000
0000
1000
,  // measure 28
0001
0100
0010
0200
0000
0010
0000
0301
,  // measure 29
0000
0000
0001
0000
1000
0000
0000
0000
0001
0000
0100
0000
0001
0000
0000
0001
,  // measure 30
0010
0000
0100
0000
1000
0000
0100
0000
0000
0000
0100
0000
1100
0000
0000
1000
,  // measure 31
0001
0000
0100
0000
0101
0000
0001
0000
1000
0000
0100
0000
0010
0000
0000
0010
,  // measure 32
0100
1000
0001
0100
0000
1010
0000
0011
,  // measure 33
0000
0000
0001
0000
1000
0000
0100
0000
1000
0000
0001
0000
0100
0000
0000
0100
,  // measure 34
0001
1000
0100
0010
0000
0010
0001
0200
,  // measure 35
0000
0000
0320
0000
0000
0000
0130
0000
0001
0000
0010
0000
0001
0000
0000
0001
,  // measure 36
1000
0010
0100
0020
0000
0100
0000
1030
,  // measure 37
0000
0000
1000
0000
0001
0000
0000
0000
1000
0000
0100
0000
1000
0000
0000
1000
,  // measure 38
0010
0000
0100
0000
0001
0000
0010
0000
0000
0000
0010
0000
0110
0000
0000
0100
,  // measure 39
1000
0001
1001
0000
1000
0100
0001
0100
,  // measure 40
1000
0010
0001
0010
0000
0010
1000
0001
,  // measure 41
0100
0000
1000
0000
0100
0000
0001
0000
0010
0000
0001
0010
0001
0000
0010
0100
,  // measure 42
0010
0000
0100
1000
0100
0000
2000
0000
0000
0000
0000
0000
0000
0000
0002
0000
,  // measure 43
0000
0000
0000
0000
0000
0000
0000
0000
3003
0000
0000
0000
0000
0000
0000
0000
0110
0000
0000
0000
0000
0000
0000
0000
0001
0000
0000
0001
0000
0000
0100
0000
,  // measure 44
0000
0100
0000
0000
0010
0000
0000
0010
0000
0000
1000
0000
0000
0001
0000
0000
0101
0000
0000
0000
0000
0000
0000
0000
0100
0000
0000
0100
0000
0000
0001
0000
,  // measure 45
0000
0001
0000
0000
0010
0000
0000
0010
0000
0000
0100
0000
0000
1000
0000
0000
1020
0000
0000
0000
0000
0000
0000
0000
1030
0000
0000
1000
0000
0000
0001
0000
,  // measure 46
0000
0001
0000
0000
0010
0000
0000
0010
0000
0000
0100
0000
0000
0100
0000
0000
1100
0000
0000
0000
0000
0000
0011
0000
0000
0000
0000
0000
2020
0000
0000
0000
,  // measure 47
0000
0000
3030
0000
0101
0000
0000
1010
0000
0000
0022
0000
0000
0000
0000
0000
,  // measure 48
0033
0000
0010
0000
0000
0100
0000
0000
1001
0000
0000
0000
1000
0000
0100
0000
,  // measure 49
0010
0001
0010
0000
0001
0100
0001
0000
1000
0100
1000
0000
0010
1000
0010
0000
,  // measure 50
1000
0000
0001
0000
0100
0010
0100
0010
0000
0000
0010
0000
1000
0000
1000
0000
,  // measure 51
0010
1000
0010
0000
1000
0100
1000
0000
0001
0100
0001
0000
0010
0001
0010
0000
,  // measure 52
0100
0000
0100
0000
1000
0001
1000
0001
0020
0000
0000
0000
0000
0000
0000
0000
,  // measure 53
0031
0100
0001
0000
0100
0010
0100
0000
0010
1000
0010
0000
1000
0100
1000
0000
,  // measure 54
0100
1000
0100
0000
0010
0000
0001
0000
0101
0000
0000
1100
0000
0000
0022
0000
,  // measure 55
0000
0000
0033
0000
1100
0000
0000
0101
0000
0000
2020
0000
0000
0000
0000
0000
,  // measure 56
3030
0000
0010
0000
0000
0100
0000
0000
1001
0000
0000
0000
0001
0000
1000
0000
,  // measure 57
0010
1000
0001
0000
1000
0001
0010
0000
0001
1000
0100
0000
1000
0001
0100
0000
,  // measure 58
0001
0100
0010
0000
1000
0010
0100
0000
0001
0010
0002
0000
0000
0000
0000
0000
,  // measure 59
1003
0100
1000
0001
0100
0000
0001
0100
0010
1000
0010
0000
1000
0001
0010
0000
,  // measure 60
0100
1000
0001
0000
1000
0010
0100
0000
0000
0000
2002
0000
3003
0000
0000
0000
,  // measure 61
1000
0100
1000
0000
0001
0000
0001
0010
0001
0000
0100
0000
0100
0010
0100
0000
,  // measure 62
0010
0000
0010
1000
0010
0000
0100
0000
0101
0000
0000
1001
0000
0000
2020
0000
,  // measure 63
0000
0000
3030
0000
1100
0000
0000
0110
0000
0000
0022
0000
0000
0000
0000
0000
,  // measure 64
0033
0000
0001
0000
0000
1000
0000
0000
2100
0000
0000
0000
3001
0000
0000
0000
,  // measure 65
1000
0000
0000
1000
0001
0000
0100
0000
0000
0100
0000
0000
0011
0000
0000
0010
,  // measure 66
0000
0000
0001
0000
0001
0100
0000
0000
0102
0000
0000
0000
1003
0000
0000
0000
,  // measure 67
0001
0000
0000
0001
1000
0000
0010
0000
0000
0010
0000
0000
1100
0000
0000
0100
,  // measure 68
0000
0000
1000
0000
1000
0100
0000
0000
0220
0000
0000
0000
0000
0000
0330
0000
,  // measure 69
1000
0000
0000
1100
0000
0000
0100
0000
0000
0110
0000
0000
0010
0000
0000
0011
,  // measure 70
0000
0000
0001
0000
0000
0101
0000
0000
1001
0000
0000
1100
0000
0000
0022
0000
,  // measure 71
0000
0000
0033
0000
1001
0000
0000
0101
0000
0000
2020
0000
0000
0000
0000
0000
,  // measure 72
3030
0000
0010
0000
0000
0110
0000
0000
1001
0000
0000
0000
0000
0000
0000
0000
;

//---------------dance-single - ----------------
#NOTES:
     dance-single:
     :
     Beginner:
     2:
     0.122516,0.121915,0.033632,0.000000,0.000000,98.000000,4.000000,0.000000,0.000000,0.000000,0.000000,0.122516,0.121915,0.033632,0.000000,0.000000,98.000000,4.000000,0.000000,0.000000,0.000000,0.000000:
0000
0000
0000
0000
,
0000
0000
0000
0000
,
0000
0000
0000
0000
,
0000
0000
0000
0000
,
0000
1000
0000
0000
,
0000
1000
0000
0000
,
0000
0001
0000
0000
,
0000
0001
0000
0000
,
0000
1000
0000
1000
,
0000
0001
0000
0001
,
0000
0100
0000
0000
,
0010
0000
0000
0000
,
0000
1000
1000
0000
,
0000
0000
0000
0000
,
0001
0001
0000
0000
,
0000
0000
0000
1000
,
0000
1000
0000
0001
,
0000
0001
0000
0100
,
0000
0000
0100
0000
,
0000
0000
0000
0001
,
0000
0001
0000
0000
,
0000
0000
0000
1000
,
0000
1000
0000
0000
0000
0000
0000
0000
,
0000
0000
0000
0001
,
0001
0000
1000
0000
,
1000
0000
0100
0000
,
0000
0100
0000
0000
,
0000
0100
1000
0000
,
0000
0000
1000
0000
,
0000
0000
0100
0000
,
0000
0000
0100
0000
,
0000
0000
0010
0000
,
0000
0000
0010
0000
,
0000
0000
0001
0000
,
0000
0000
0001
0000
,
0000
0000
1000
0000
,
0000
0000
1000
0000
,
0000
0000
0001
0000
,
0000
0000
0001
0000
,
0000
0000
1000
0000
,
1000
0000
0001
0000
,
0001
0000
0100
0000
,
0100
0000
0010
0000
,
0000
0000
1001
0000
,
0000
0000
1001
0000
,
0000
0000
0110
0000
,
0000
0000
0100
0000
,
0000
0100
0000
0000
,
0000
0000
1000
0000
,
1000
0000
0001
0000
,
0001
0000
1000
0000
,
1000
0000
0001
0000
,
0001
0000
1000
0000
,
0100
0000
0001
0000
,
0100
0000
0010
0000
,
0000
0010
0000
0000
,
0000
0000
0001
0000
,
0001
0000
1000
0000
,
1000
0000
0001
0000
,
0001
0000
1000
0000
,
1000
0000
0001
0000
,
0100
0000
1000
0000
,
0100
0000
0010
0000
,
0000
0010
0000
0000
,
0000
0000
1000
0000
,
1000
0000
0100
0000
,
0100
0000
0010
0000
,
0010
0000
0001
0000
,
0001
0000
1000
0000
,
1000
0000
0001
0000
,
0001
0000
0100
0000
,
0000
0010
0000
0000
,
0000
0000
1001
0000
;

//---------------dance-single - ----------------
#NOTES:
     dance-single:
     :
     Easy:
     3:
     0.252239,0.274309,0.058856,0.395174,0.000000,156.000000,7.000000,47.000000,0.000000,0.000000,0.000000,0.252239,0.274309,0.058856,0.395174,0.000000,156.000000,7.000000,47.000000,0.000000,0.000000,0.000000:
0000
0000
0000
0000
,
0000
0000
0000
0000
,
0000
0000
0000
0000
,
0000
0000
0000
2002
,
0000
3003
1000
0000
0000
0000
0100
0000
,
0000
0001
0000
0100
,
0000
1000
0000
0010
,
0000
0001
0000
0010
,
0000
1000
0000
1000
,
0000
0001
0000
0001
,
0000
0200
0000
0300
,
0020
0000
0000
0000
,
0030
0000
1000
0000
1000
0000
0000
0100
,
0000
0000
0010
0000
0000
0001
0000
0000
,
0100
0000
0001
0000
0000
1000
0000
0000
,
0010
0000
0000
0100
0000
0000
0002
0000
,
0000
0003
0010
0000
0000
0001
0000
0000
,
1000
0000
0000
0100
0000
0000
2000
0000
,
0000
3000
0000
0000
2000
0000
0000
3000
,
0000
0000
0000
0100
0000
0000
0020
0000
,
0030
0000
0001
0000
0000
0100
0000
0000
,
0010
0000
0000
0000
0000
0000
1000
0000
0000
0000
0000
0000
0200
0000
0000
0300
,
0000
1000
0000
0000
0010
0000
0000
0001
,
0000
0100
0000
0110
,
0001
0000
0000
1000
0000
0000
0010
0000
,
0000
0100
0000
0000
0002
0000
0000
0003
,
0000
0000
0002
0000
0000
0003
0000
0000
,
0000
1000
0010
0000
,
0010
0100
0100
0000
,
0001
1000
0001
0000
,
1000
0100
0100
0000
,
1000
0000
0010
0000
,
0100
0001
0001
0000
,
0010
0001
0100
0000
,
0010
0000
1000
0000
,
0001
0000
1000
0000
,
0001
0010
0010
0000
,
0001
1000
0100
0000
,
0100
0010
0010
0000
,
0100
0000
1000
0100
,
1000
0000
0001
0100
,
0001
0000
1000
0000
,
0001
0000
2002
0000
,
0000
3003
1000
1000
,
0100
0010
0001
0001
,
0100
0010
2000
3001
,
0001
1000
0020
0000
,
0030
0020
0000
0030
,
0000
0100
0001
0000
,
0002
0003
0200
0300
,
0020
0030
1000
0000
,
2000
3000
0200
0300
,
0020
0030
0001
0000
,
0002
0003
2000
3000
,
0200
0300
0020
0000
,
0030
0020
0000
0030
,
0000
0010
0001
0000
,
2000
3000
0002
0003
,
0020
0030
0200
0000
,
2300
3000
0002
0003
,
0200
0000
0300
0000
0000
0001
0000
0000
,
0200
0300
0002
0003
,
2000
3000
0020
0000
,
0030
0020
0000
0030
,
0000
0010
1001
0000
,
2000
3000
2000
3000
,
1000
1000
1001
0000
,
0002
0003
0002
0003
,
0001
0001
1001
0000
,
2000
3000
0002
0003
,
0100
0100
0020
0000
,
0030
0020
0000
0000
,
0030
0100
1001
0000
;

//---------------dance-single - ----------------
#NOTES:
     dance-single:
     :
     Medium:
     6:
     0.387967,0.396225,0.084080,0.210199,0.197587,288.000000,10.000000,25.000000,0.000000,0.000000,0.000000,0.387967,0.396225,0.084080,0.210199,0.197587,288.000000,10.000000,25.000000,0.000000,0.000000,0.000000:
0000
0000
0000
0000
,
0000
0000
0000
0000
,
0000
0000
0000
0000
,
0000
0000
0000
2002
,
0000
3003
1000
0000
1000
0000
0100
0000
,
0000
1000
0010
0100
,
0000
0001
0001
0100
,
0000
0001
0010
0100
,
0010
0001
0000
0001
,
0001
1000
0000
1000
,
1000
0200
0000
0000
,
0020
0000
0000
0000
,
0330
0000
1000
0000
1000
0000
0000
0100
,
0000
0000
0010
0000
0000
0001
0000
0000
,
0001
0000
0001
0000
0000
0100
0000
0000
,
1000
0000
0000
0100
0000
0000
0020
0000
,
0000
0000
1030
0000
0000
0001
0000
0000
,
0010
0000
0000
0000
0000
0000
0100
0000
0000
0000
0000
0000
0100
0000
0000
0100
,
0000
0000
0010
0000
0000
0000
0000
0000
0100
0000
0000
0100
0000
0000
0010
0000
,
0000
0000
0000
0000
0000
0000
0100
0000
0000
1000
0000
0000
0002
0000
0000
0000
,
0003
0000
0000
0000
1000
0000
0000
1000
0000
0000
0001
0000
0000
0001
0000
0000
,
0100
0000
0000
0100
0000
0000
0010
0000
0000
0010
0000
0000
1000
0000
0000
0010
,
0000
0000
0100
0000
0000
0100
0000
0000
0001
0000
0000
0001
0000
0000
0010
0000
,
0000
0010
0000
0000
0001
0000
0000
1000
0000
0000
0000
0000
1001
0000
0000
0000
,
0001
0000
0000
0100
0000
0000
0010
0000
0000
0100
0000
0000
0010
0000
0000
1000
,
0000
0000
0001
0000
0000
0000
0001
0000
0100
0000
0000
0100
0000
0000
0010
0000
,
0000
0000
0000
0000
0100
0000
0000
0100
0000
0000
0010
0000
0000
0000
0000
0000
,
0000
0010
2000
0000
3001
0000
0100
0000
,
0001
0010
0100
0020
0000
0030
0100
2000
,
0000
3001
1000
0100
,
1000
0100
1000
0020
0000
0000
0130
0000
,
0000
0100
0001
0000
1000
0000
0001
0000
,
1000
0010
0100
0020
0000
2030
0000
3002
,
0000
1003
0010
0200
0000
0000
0000
0000
,
0300
0100
0001
0010
0000
0001
1000
0100
,
0000
0100
1000
0000
0001
0000
0100
0000
,
0010
1000
0001
0200
0000
0300
0001
0020
,
0000
0130
1000
1000
,
1000
0001
1000
0020
0000
0000
0100
0000
,
0100
0130
1000
0100
,
1000
0001
0100
0020
0000
0000
0000
0230
,
0000
0300
0110
1001
,
0110
0000
0001
2000
0000
0000
0000
0002
,
0000
0000
0000
0000
3003
0000
0000
0000
0001
0000
0000
0000
0001
0000
0000
0100
,
0000
0000
0010
0000
0000
1000
0000
0000
0100
0000
0000
0000
1000
0000
0000
0001
,
0000
0000
0100
0000
0000
0001
0000
0000
0020
0000
0000
0000
0130
0000
0000
1000
,
0000
0000
0010
0000
0000
0100
0000
0000
0100
0000
0000
0100
0000
0000
0010
0000
,
0000
0000
0000
0000
0100
0000
0000
0100
0000
0000
0010
0000
0000
0000
0000
0000
,
0000
0000
0010
0000
0000
0100
0000
0000
0001
0000
0000
0000
0001
0000
0000
0000
,
1000
0100
1000
0000
1000
0001
1000
0000
,
1000
0010
1000
0000
0100
0000
0100
0000
,
0010
0001
0010
0000
0010
0100
0010
0000
,
0010
0001
0100
0000
0200
0000
0000
0000
,
0301
1000
0001
0000
0001
0010
0001
0000
,
0001
0000
1000
0000
0100
0000
0000
0000
0100
0000
0000
1000
0000
0000
0010
0000
,
0000
0000
0000
0000
0100
0000
0000
0001
0000
0000
0010
0000
0000
0000
0000
0000
,
0000
0000
0010
0000
0000
0100
0000
0000
1000
0000
0000
0000
0001
0000
0000
0000
,
0100
0001
1000
0000
0100
1000
0001
0000
,
0100
0001
0010
0000
0020
0000
0000
0000
,
0031
1000
0010
0000
1000
0001
0010
0000
,
0010
0001
1000
0100
0000
0110
0000
0000
,
0100
1000
0001
0000
1000
0001
0010
0000
,
0001
0000
0010
0000
0100
0000
0000
0000
1000
0000
0000
1000
0000
0000
1010
0000
,
0000
0000
0000
0000
0001
0000
0000
0001
0000
0000
0011
0000
0000
0000
0000
0000
,
0000
0000
0001
0000
0000
1000
0000
0000
1001
0000
0000
0000
0000
0000
0000
0000
,
1000
0000
0000
1000
0000
0000
0100
0000
0000
0100
0000
0000
0010
0000
0000
0010
,
0000
0000
0100
0000
0000
1000
0000
0000
0001
0000
0000
0000
0000
0000
0000
0000
,
0001
0000
0000
0001
0000
0000
0100
0000
0000
0100
0000
0000
0010
0000
0000
0010
,
0000
0000
1000
0000
0000
0001
0000
0000
0020
0000
0000
0000
0000
0000
0000
0000
,
0130
0000
0000
0100
0000
0000
1000
0000
0000
1000
0000
0000
0001
0000
0000
0001
,
0000
0000
0100
0000
0000
0001
0000
0000
0100
0000
0000
0100
0000
0000
0010
0000
,
0000
0000
0000
0000
0100
0000
0000
0100
0000
0000
0010
0000
0000
0000
0000
0000
,
0000
0000
0010
0000
0000
0100
0000
0000
1001
0000
0000
0000
0000
0000
0000
0000
;
