#TITLE:Sorry For My English;
#SUBTITLE:;
#ARTIST:IN2IT;
#TITLETRANSLIT:;
#SUBTITLETRANSLIT:;
#ARTISTTRANSLIT:;
#GENRE:;
#CREDIT:;
#BANNER:[Round 2] - Sorry For My English.png;
#BACKGROUND:[Round 2] - Sorry For My English-bg.png;
#LYRICSPATH:;
#CDTITLE:cdtitle.png;
#MUSIC:[Round 2] - Sorry For My English.ogg;
#OFFSET:1.245000;
#SAMPLESTART:47.535000;
#SAMPLELENGTH:15.000000;
#LASTBEATHINT:0.502250;
#SELECTABLE:YES;
#BPMS:0.000000=123.000000
;
#STOPS:
;
#BGCHANGES:2.250=[Round 2] - Sorry For My English.avi=1.000=0=0=0=StretchNoLoop====,
99999=-nosongbg-=1.000=0=0=0 // don't automatically add -songbackground-
;
#KEYSOUNDS:;
#ATTACKS:;

//---------------dance-single - ----------------
#NOTES:
     dance-single:
     9646_BEG:
     Beginner:
     2:
     0.130565,0.219015,0.081736,0.089166,0.000000,123.000000,112.000000,11.000000,12.000000,0.000000,0.000000,0.130565,0.219015,0.081736,0.089166,0.000000,123.000000,112.000000,11.000000,12.000000,0.000000,0.000000:
0000
0000
0000
0000
,
0000
0000
0000
0000
,
0000
0000
0000
0000
,
0000
0000
0000
0000
,
0000
0000
0000
0000
,
0000
0000
0000
0000
,
0000
0000
0000
0000
,
0000
0000
0000
0000
,
0000
0000
0000
0000
,
0001
0000
0000
0000
,
0001
0000
0000
0000
,
1000
0000
0000
0000
,
0001
0000
0000
0000
,
1000
0000
0000
0000
,
1000
0000
0000
0000
,
0001
0000
0000
0000
,
1000
0000
0000
0000
,
0020
0000
0030
0000
,
0001
0000
0001
0000
,
2000
0000
3000
0000
,
0100
0000
0100
0000
,
0002
0000
0003
0000
,
0010
0000
0010
0000
,
0100
0000
0100
0000
,
1000
1000
2000
3000
,
0001
0001
0001
0000
,
0001
0001
0001
0000
,
0010
0010
0010
0000
,
1001
0000
0110
0000
,
1000
1000
1000
0000
,
1000
1000
1000
0000
,
0010
0010
0010
0000
,
1001
0000
0110
0000
,
0001
0000
0100
0000
,
1000
0000
0100
0000
,
0001
0000
0010
0000
,
1000
0000
0010
0000
,
0001
0000
0001
0000
,
1000
0000
1000
0000
,
1001
0000
1001
0000
,
0010
0010
0010
0000
,
1000
0000
1000
0000
,
0001
0000
1000
0000
,
0001
0000
0100
0000
,
2000
0000
3000
0000
,
0001
0000
0001
0000
,
1000
0000
0001
0000
,
1000
0000
0010
0000
,
0002
0000
0003
0000
,
0020
0000
0030
0000
,
1000
0000
1000
0000
,
0002
0000
0003
0000
,
0100
0000
0100
0000
,
2000
0000
3000
0000
,
0010
0000
0010
0000
,
0100
0000
0100
0000
,
0001
0001
0002
0003
,
1000
1000
1000
0000
,
1000
1000
1000
0000
,
0010
0010
0010
0000
,
1001
0000
0110
0000
,
0001
0001
0001
0000
,
0001
0001
0001
0000
,
0010
0010
0010
0000
,
1001
0000
0110
0000
,
2002
0000
3003
0000
;

//---------------dance-single - ----------------
#NOTES:
     dance-single:
     9646_BSP:
     Easy:
     3:
     0.239900,0.340690,0.200624,0.274929,0.000000,226.000000,199.000000,27.000000,37.000000,0.000000,0.000000,0.239900,0.340690,0.200624,0.274929,0.000000,226.000000,199.000000,27.000000,37.000000,0.000000,0.000000:
0000
0000
0000
0000
,
0000
0000
0000
0000
,
0000
0000
0000
0000
,
0000
0000
0000
0000
,
0000
0000
0000
0000
,
0001
0010
2000
3000
,
0001
0100
2000
3000
,
0220
0330
1000
1000
,
0001
0001
0001
1001
,
1000
0010
0001
0000
,
1000
0010
0001
0000
,
1000
0100
0001
0010
,
2000
0000
3000
0000
,
0001
0100
1000
0000
,
0001
0100
1000
0000
,
0001
0010
1000
0100
,
0002
0000
0003
0000
,
0020
0000
0030
0010
,
1000
1000
0001
0100
,
2000
0000
3000
1000
,
0001
0100
1000
0010
,
0002
0000
0003
0001
,
1000
1000
0002
0003
,
0100
0100
0010
0010
,
1010
0100
0022
0033
,
1000
1000
2000
3100
,
0001
0001
0002
0013
,
1000
1000
0002
0103
,
1100
0011
0110
1001
,
1000
1000
2000
3100
,
0001
0001
0002
0013
,
1000
1000
2000
3100
,
0101
1010
0110
1001
,
0001
1000
2000
3000
,
0100
0001
0002
0003
,
0100
1000
2000
3000
,
0010
0100
0010
1001
,
0001
0100
1000
1000
,
0001
0010
1000
1000
,
1001
0000
0110
0000
,
0001
0001
0001
1001
,
1000
0100
0001
0000
,
1000
0100
0001
0000
,
1000
0010
0001
0100
,
2000
0000
3000
0000
,
0001
0010
1000
0000
,
0001
0010
1000
0000
,
0001
0100
1000
0010
,
0002
0003
0001
0001
,
0200
0000
0300
0100
,
1000
1000
0001
0010
,
2000
0000
3000
1000
,
0001
0010
1000
0100
,
0002
0000
0003
0001
,
1000
1000
0002
0003
,
0010
0010
0100
0100
,
1100
0010
0202
0303
,
1000
1000
2000
3010
,
0001
0001
0002
0103
,
1000
1000
0002
0013
,
1010
0101
0110
1001
,
1000
1000
2000
3010
,
0001
0001
0002
0103
,
1000
1000
2000
3010
,
0011
1100
0110
1001
,
0220
0000
0330
0000
;

//---------------dance-single - ----------------
#NOTES:
     dance-single:
     9646_DSP:
     Medium:
     5:
     0.372588,0.389359,0.312082,0.297221,0.000000,351.000000,309.000000,42.000000,40.000000,0.000000,0.000000,0.372588,0.389359,0.312082,0.297221,0.000000,351.000000,309.000000,42.000000,40.000000,0.000000,0.000000:
0000
0000
0000
0000
,
0000
0000
0000
0000
,
0000
0000
0000
0000
,
0000
0000
0000
0000
,
0000
0000
0000
0000
,
1000
0001
0100
0000
2000
0000
3100
0000
,
0001
1000
0100
0000
0002
0000
0103
0000
,
2020
0000
3030
0000
1000
0100
0001
0000
,
1000
0010
0001
0100
1000
0000
0110
0000
,
1000
0100
0001
0000
2000
0000
3000
0000
,
0001
0000
0001
0000
0001
0010
1000
0000
,
0001
0100
0010
0000
1000
0100
0010
0000
,
0200
0001
0010
1300
,
1000
0010
0001
0000
0001
0100
1000
0000
,
0001
0010
1000
0000
1000
0100
0001
0000
,
1000
0100
0010
0000
0100
1000
0010
0100
,
0020
0001
0100
1030
,
1200
0000
0010
0000
0301
0100
1000
0002
,
0003
0020
0000
0130
0000
1000
0000
2000
,
0100
0000
0001
0000
3010
0100
0010
0020
,
0030
1000
0000
0002
0000
0023
0000
0230
,
0001
0000
0010
0000
1300
0001
1000
0020
,
0030
0100
0000
0200
0000
0301
0000
1000
,
0001
0100
0001
0000
1000
0100
1000
0000
,
0101
0000
1010
0000
1100
0010
0002
0003
,
1000
0100
0001
0000
0100
0000
1100
0000
,
1000
0010
0001
0000
0010
0000
1010
0000
,
1000
0100
0010
0000
0020
0000
0031
0000
,
1100
0101
1010
0011
,
1000
0010
0001
0000
0010
0000
1010
0000
,
1000
0100
0001
0000
0100
0000
1100
0000
,
1000
0001
0100
0000
0020
0000
1030
0000
,
0011
1010
1100
0101
,
1000
0001
0100
0000
0110
0000
1000
0001
,
0010
0100
0010
0000
0110
0000
0001
1000
,
0100
1000
0010
0000
0110
0000
0100
0001
,
1000
0001
0100
0010
1000
1000
1000
0000
,
0001
0000
0101
0000
0001
0010
0100
0000
,
1000
0000
1100
0000
1000
0010
0100
0000
,
0101
0000
0001
1000
1100
0000
1000
0001
,
0010
0001
1000
0010
0100
0100
0100
0000
,
0001
0010
1000
0000
0002
0000
0003
0000
,
1000
0100
0001
0000
2000
0000
3000
0000
,
0001
0100
0010
0000
1000
0100
0010
0000
,
0200
0001
0010
1300
,
1000
0010
0001
0000
0001
0100
1000
0000
,
0001
0010
1000
0000
1000
0100
0001
0000
,
1000
0100
0010
0000
0100
1000
0010
0000
,
0020
0001
0100
1030
,
1200
0000
0010
0000
0301
0100
1000
0002
,
0003
0020
0000
0130
0000
1000
0000
2000
,
0100
0000
0001
0000
3010
0100
0010
0020
,
0030
2000
0000
3001
0000
0020
0030
0200
,
0001
0000
0010
0000
1300
0001
1000
0020
,
0030
0200
0300
0200
0000
0301
0000
1000
,
0001
0100
0001
0000
1000
0100
1000
0000
,
0101
0000
1010
0000
1100
0010
0002
0003
,
1000
0100
0001
0000
0100
0000
1100
0000
,
1000
0010
0001
0000
0010
0000
1010
0000
,
1000
0100
0010
0000
0020
0000
0031
0000
,
1100
0101
1010
0011
,
1000
0010
0001
0000
0010
0000
1010
0000
,
1000
0100
0001
0000
0100
0000
1100
0000
,
1000
0001
0100
0000
0020
0000
1030
0000
,
0011
1010
1100
0101
,
0220
0000
0330
0000
;

//---------------dance-single - ----------------
#NOTES:
     dance-single:
     9646_ESP:
     Hard:
     9:
     0.545613,0.632709,0.341804,0.490415,0.263784,514.000000,468.000000,46.000000,66.000000,0.000000,0.000000,0.545613,0.632709,0.341804,0.490415,0.263784,514.000000,468.000000,46.000000,66.000000,0.000000,0.000000:
// measure 0
0000
0000
0000
0000
,  // measure 1
0000
0000
0000
0000
,  // measure 2
0000
0000
0000
0000
,  // measure 3
0000
0000
0000
0000
,  // measure 4
0000
0000
0000
0000
,  // measure 5
0001
0000
0001
0000
0010
0000
1000
0000
0020
0000
0000
0031
0000
0000
0001
0000
,  // measure 6
1000
0000
1000
0000
0010
0000
0001
0000
0020
0000
0000
1030
0000
0000
0001
0000
,  // measure 7
0110
0000
0000
0000
1000
0000
0001
0000
0020
0000
0000
0130
0000
0000
1000
0000
,  // measure 8
1100
0001
0101
0010
1001
0000
2100
0000
,  // measure 9
3001
0000
0010
0100
1000
0000
0100
0000
0001
0000
0200
0000
1000
0000
0300
0000
,  // measure 10
1000
0000
1000
0000
0010
0000
0100
0000
0002
0000
0013
0100
1000
0000
0000
0000
,  // measure 11
0010
0000
1000
0010
0001
0000
0001
0010
1000
0000
0100
0010
0000
0020
0000
0000
,  // measure 12
0031
0000
1000
0000
0100
0000
1000
0000
0020
0000
0000
0130
0000
0000
0001
0000
,  // measure 13
0010
0000
0010
0100
1000
0000
0010
0000
1000
0000
1000
0100
0010
0000
0000
0000
,  // measure 14
0001
0000
0010
0100
0010
0000
0010
0000
0001
0000
0100
0010
1000
0000
0000
0001
,  // measure 15
1000
0000
1000
0000
0001
0000
0100
0000
0001
0000
0010
0100
0000
0200
0000
0300
,  // measure 16
0110
0000
0010
0000
0100
0000
1000
0000
0020
0000
1030
0010
0100
0000
0010
0000
,  // measure 17
0021
0000
0100
0000
1030
0001
0100
0020
,  // measure 18
1030
2000
3100
0100
0010
0001
1000
0200
,  // measure 19
0010
0000
0001
0000
1300
0100
1000
0002
,  // measure 20
1003
2000
3010
0020
0031
0010
0100
0200
,  // measure 21
1000
0000
0010
0000
0301
1000
0010
0200
,  // measure 22
0301
0002
1003
0002
0103
0010
1000
0001
,  // measure 23
1000
1000
0100
0010
0001
0001
0010
0100
,  // measure 24
1100
0001
0101
1000
1100
0002
0010
0003
,  // measure 25
1000
0010
0001
0100
2000
3001
0101
0000
,  // measure 26
1000
0000
0100
0000
0001
0000
0010
0000
2000
0000
3001
0000
0011
0000
0000
0100
,  // measure 27
0010
0010
0100
1000
0002
0023
0130
0000
,  // measure 28
1010
0101
1100
0011
,  // measure 29
0001
0010
1000
0100
0002
1003
1010
0000
,  // measure 30
0001
0000
0100
0000
1000
0000
0010
0000
0002
0000
1003
0000
1100
0000
1000
0001
,  // measure 31
1000
0001
0100
0010
2000
3200
0310
0000
,  // measure 32
0101
0000
0000
0000
1010
0000
0000
0000
0011
0000
0000
0000
1100
0000
0001
0100
,  // measure 33
0020
0000
1030
0100
0010
0000
0010
0000
0120
0000
0030
0000
0001
1000
0100
0010
,  // measure 34
0001
0000
1000
0100
1000
0001
0100
0000
1020
0000
0030
0000
1000
0001
1000
0001
,  // measure 35
0010
0000
0100
0000
0010
0000
0010
0001
2000
0000
3000
0000
1000
0100
0010
0100
,  // measure 36
1000
0001
0010
0001
1000
0001
1000
0010
0100
0000
0010
0000
0110
0000
0010
0000
,  // measure 37
1000
0010
0000
0100
0000
0100
0001
0000
0010
0000
0010
0100
1000
0100
0010
0000
,  // measure 38
0001
1000
0000
0010
0000
0010
0000
0100
0001
0000
0100
0001
0010
0100
1000
0000
,  // measure 39
2100
0000
3000
0000
0001
0000
0100
0000
0102
0000
0003
0000
1000
0010
0100
0001
,  // measure 40
1000
0010
0100
0010
1000
0100
0001
0100
0010
0000
0010
0000
0020
0000
0030
0000
,  // measure 41
0001
0000
0010
0000
1000
0000
0001
0000
0100
1000
0000
1000
0000
0000
0000
0000
,  // measure 42
1000
0000
0010
0000
0100
0000
0001
0000
1000
0010
0000
0010
0000
0000
0000
0000
,  // measure 43
0001
0000
1000
0000
0100
0000
0001
0000
0100
0001
0000
0001
0000
2000
0000
0000
,  // measure 44
3010
0000
0100
0000
0001
0000
0100
0000
0020
0000
0000
1030
0000
1000
0001
1000
,  // measure 45
0001
0000
0010
0100
1000
0000
1000
0000
0010
0000
0100
0010
1000
0000
0001
1000
,  // measure 46
0001
0000
0010
0000
0100
0000
0100
0010
0001
0000
0100
0010
1000
0000
0001
0000
,  // measure 47
1000
0000
1000
0000
0001
0000
0100
0000
0001
0000
0010
0100
2000
0000
3000
0000
,  // measure 48
0120
0000
0000
0031
0000
0000
1000
0000
1200
0000
2300
0000
0020
0000
3030
0000
,  // measure 49
0021
0000
0100
0000
1030
0001
0100
0020
,  // measure 50
1030
2000
3100
0100
0010
0001
1000
0200
,  // measure 51
0010
0000
0001
0000
1300
0100
1000
0002
,  // measure 52
1003
2000
3010
0020
0031
0010
0100
0200
,  // measure 53
1000
0000
0010
0000
0301
1000
0010
0200
,  // measure 54
0301
0002
1003
0002
0103
0010
1000
0001
,  // measure 55
1000
1000
0100
0010
0001
0001
0010
0100
,  // measure 56
1100
0001
0101
1000
1100
0002
0010
0003
,  // measure 57
1000
0010
0001
0100
2000
3001
0101
0000
,  // measure 58
1000
0000
0100
0000
0001
0000
0010
0000
2000
0000
3001
0000
0011
0000
0000
0100
,  // measure 59
0010
0010
0100
1000
0002
0023
0130
0000
,  // measure 60
1010
0101
1100
0011
,  // measure 61
0001
0010
1000
0100
0002
1003
1010
0000
,  // measure 62
0001
0000
0100
0000
1000
0000
0010
0000
0002
0000
1003
0000
1100
0000
1000
0001
,  // measure 63
1000
0001
0100
0010
2000
3200
0310
0000
,  // measure 64
0101
1010
0011
1100
,  // measure 65
0220
0000
0330
0000
;

//---------------dance-single - ----------------
#NOTES:
     dance-single:
     9646_CSP:
     Challenge:
     7:
     0.441585,0.486699,0.297221,0.341804,0.018576,416.000000,376.000000,40.000000,46.000000,32.000000,0.000000,0.441585,0.486699,0.297221,0.341804,0.018576,416.000000,376.000000,40.000000,46.000000,32.000000,0.000000:
0000
0000
0000
0000
,
0000
0000
0000
0000
,
0000
0000
0000
0000
,
0000
0000
0000
0000
,
0000
0000
0000
0000
,
0001
0100
0010
0000
1000
0000
MMMM
0000
,
1000
0100
0010
0000
0001
0000
MMMM
0000
,
0220
0000
0330
0000
1000
0001
0100
0000
,
1000
0100
0001
0010
1000
0000
0110
0000
,
0001
0100
0010
1000
0100
0100
MMMM
0000
,
0001
1000
0010
0001
0010
0010
1000
0000
,
0001
0010
0100
1000
0001
0100
0010
0100
,
0002
0100
1003
MMMM
,
1000
0100
0010
0100
1000
0010
0100
0000
,
0001
0100
0010
0100
0001
0010
0100
0000
,
1000
0100
1000
0010
0100
0001
1000
0010
,
0200
1000
0301
MMMM
,
0021
0000
1000
0000
0031
1000
0100
2000
,
3010
0020
0130
0100
0001
0010
0100
0020
,
1000
0000
0100
0000
0031
1000
0100
0002
,
0103
0200
1300
2000
3001
1000
0010
0020
,
0001
0000
0100
0000
1030
0010
0100
0002
,
0013
0020
0130
0020
0031
1000
0100
1000
,
0010
0010
0100
0100
0001
0010
0100
1000
,
1100
0001
0101
1000
1010
0002
0010
0003
,
1000
0100
0001
0100
2000
3000
1100
0000
,
1000
0010
0001
0010
2000
3000
1010
0000
,
1000
0001
0100
0010
2000
0000
3100
0000
,
0101
1010
1100
0011
,
1000
0010
0001
0010
2000
3000
1010
0000
,
1000
0100
0001
0100
2000
3000
1100
1000
,
0010
0100
0001
0010
0200
0000
0310
0000
,
1100
0011
0101
1010
,
0001
0010
0100
0010
0011
0000
1000
0100
,
0010
0100
1000
0010
1010
0000
1000
0001
,
0100
0010
0100
0001
0101
0000
0001
1000
,
0010
0100
0001
0010
0100
0100
0100
0010
,
0001
0000
0000
0001
0000
0000
1000
0000
0010
0000
0100
0000
0010
0000
0000
0000
,
1000
0000
0000
1000
0000
0000
0001
0000
0010
0000
0100
0000
1000
0000
0100
0000
,
0110
0000
0001
0100
0110
0000
1000
0001
,
0010
0100
1000
0100
0010
0010
0010
0000
,
0001
0000
0010
0000
0100
0000
1000
0000
0010
0000
0000
0010
0000
0000
MMMM
0000
,
0001
0000
1000
0000
0100
0000
0001
0000
0100
0000
0000
0100
0000
0000
MMMM
0000
,
0001
0100
0010
1000
0001
0010
0100
0010
,
0002
0010
1003
MMMM
,
1000
0010
0100
0010
1000
0100
0010
0000
,
0001
0010
0100
0010
0001
0100
0010
0000
,
1000
0010
1000
0100
0010
0001
0100
0000
,
0020
0000
0000
1030
0000
0000
1000
0000
0200
0000
0000
0000
0020
0000
0330
0000
,
0021
0000
1000
0000
0031
1000
0100
2000
,
3010
0020
0130
0100
0001
0010
0100
0020
,
1000
0000
0100
0000
0031
1000
0100
0002
,
0103
0200
1300
2000
3001
1000
0010
0020
,
0001
0000
0100
0000
1030
0010
0100
0002
,
0013
0020
0130
0020
0031
1000
0100
1000
,
0010
0010
0100
0100
0001
0010
0100
1000
,
1100
0001
0101
1000
1010
0002
0010
0003
,
1000
0100
0001
0100
2000
3000
1100
0000
,
1000
0010
0001
0010
2000
3000
1010
0000
,
1000
0001
0100
0010
2000
0000
3100
0000
,
0101
1010
1100
0011
,
1000
0010
0001
0010
2000
3000
1010
0000
,
1000
0100
0001
0100
2000
3000
1100
1000
,
0010
0100
0001
0010
0200
0000
0310
0000
,
1100
0011
0101
1010
,
2002
0000
3003
0000
;
