#TITLE:Nodding Hawk;
#SUBTITLE:;
#ARTIST:M2U;
#TITLETRANSLIT:;
#SUBTITLETRANSLIT:;
#ARTISTTRANSLIT:;
#GENRE:;
#CREDIT:;
#BANNER:Nod.png;
#BACKGROUND:Nod-bg.png;
#LYRICSPATH:;
#CDTITLE:;
#MUSIC:Nodding Hawk.ogg;
#OFFSET:0.314000;
#SAMPLESTART:18.463999;
#SAMPLELENGTH:12.000000;
#SELECTABLE:YES;
#BPMS:0.000000=128.000000
;
#STOPS:
;
#BGCHANGES:;
#KEYSOUNDS:;
#ATTACKS:;

//---------------dance-single - ----------------
#NOTES:
     dance-single:
     :
     Challenge:
     9:
     0.613933,0.614898,0.315332,0.441465,0.364885,477.000000,442.000000,35.000000,49.000000,0.000000,0.000000,0.613933,0.614898,0.315332,0.441465,0.364885,477.000000,442.000000,35.000000,49.000000,0.000000,0.000000:
// measure 0
0000
0000
0000
0000
,  // measure 1
0000
0000
0000
0000
,  // measure 2
1000
0000
0000
0100
0010
0000
0001
0000
0010
0000
0100
0000
1000
0000
0000
0000
,  // measure 3
0001
0000
0000
0010
0100
0000
0010
0000
0002
0000
0013
0000
0002
0000
0003
0000
,  // measure 4
0010
0000
0000
0100
0010
0000
0100
0000
1000
0000
0100
0000
1000
0000
0000
0000
,  // measure 5
0001
0000
0000
0010
0002
0000
0013
0000
0100
0000
0010
0000
0020
0000
0030
0000
,  // measure 6
1001
0000
0000
0100
0010
0000
0001
0000
0010
0000
0100
1000
0000
1000
0100
0000
,  // measure 7
0010
0100
1000
0100
0020
0030
0200
0300
,  // measure 8
1100
0000
0000
0100
0010
0000
0100
0000
1000
0000
0100
0000
0010
0000
0001
0000
,  // measure 9
1001
0000
0110
0000
1100
0100
0220
0330
,  // measure 10
0001
0000
0010
0000
0100
0000
0010
0000
0001
0000
0010
0100
0000
0100
0010
0000
,  // measure 11
0001
0100
0002
0103
0010
2000
3000
0000
,  // measure 12
1000
0000
0100
0000
0001
0000
0100
0000
1000
0000
0100
0010
0000
0010
0001
0000
,  // measure 13
0010
0100
0020
0130
2000
3100
1001
0000
,  // measure 14
1000
0000
0010
0000
1000
0000
0100
0000
0010
0000
0100
1000
0000
1000
0100
0000
,  // measure 15
0010
0001
0020
0130
1000
0200
0300
0000
,  // measure 16
0100
0000
0010
0000
0001
0000
0010
0000
0100
0000
1000
0010
0000
0010
1000
0000
,  // measure 17
0100
0000
0010
0000
0002
0000
0000
0000
0023
0000
0000
0000
0130
0000
1000
0100
,  // measure 18
1000
0000
0100
0000
0010
0000
0001
0000
0010
0100
0000
1000
0000
0000
0001
0010
,  // measure 19
0100
0000
0010
0000
0100
0000
1000
0000
0100
0010
0000
0001
0000
0000
1000
0010
,  // measure 20
1000
0000
0100
0000
0020
0000
0001
0000
0031
0000
0000
1000
0100
0010
0001
0000
,  // measure 21
1001
0000
0000
0000
0010
0000
0100
0000
2000
0000
0000
3100
0000
0000
0001
0010
,  // measure 22
0100
0000
1000
0000
0100
0000
0010
0000
0001
0010
0000
0100
0000
0000
0010
0100
,  // measure 23
0010
0000
0001
0000
0010
0000
0110
0000
0010
0100
0000
1000
0000
0000
0001
0100
,  // measure 24
0001
0010
0100
1000
1100
1000
1001
0001
,  // measure 25
1001
0000
0000
0000
0100
0000
1000
0000
0100
0020
0000
0031
0000
0000
1000
0001
,  // measure 26
1000
0000
1000
0000
1100
0000
0100
0000
0010
0002
0000
0013
0000
0000
0100
0000
,  // measure 27
1001
0000
0000
0000
1000
0000
0001
0000
0010
0200
0000
0310
0000
0000
0001
0010
,  // measure 28
0100
0000
1000
0000
1100
0000
0100
0000
0010
0002
0000
0013
0000
0000
0001
0000
,  // measure 29
1001
0000
0000
0000
0100
0000
0010
0000
0001
0200
0000
0301
0000
0000
0001
0010
,  // measure 30
0100
0000
0010
0000
0011
0000
0100
0000
1000
0200
0000
0310
0000
0000
0100
0000
,  // measure 31
1100
0000
0000
0000
0001
0000
0010
0000
0100
0020
0000
0031
0000
0000
0001
1000
,  // measure 32
0001
0000
0010
0000
0011
0000
0010
0000
0100
2000
0000
3100
0000
0000
0010
0000
,  // measure 33
0001
0000
0000
0010
0100
0000
1000
0000
1001
0000
0001
0000
1001
0000
0000
0000
,  // measure 34
1100
0000
0000
0010
0001
0000
0010
0000
0100
0000
0100
0000
1100
0000
0000
0000
,  // measure 35
1001
0000
0000
1000
0100
0000
0010
0000
0011
0000
0001
0000
1001
0000
0000
0000
,  // measure 36
0110
0000
0000
0001
0010
0000
0100
0000
1000
0000
1000
0000
1001
0000
1000
0000
,  // measure 37
0100
0000
0010
0001
0010
0000
0100
0000
1000
0000
0100
0010
0001
0000
0010
0000
,  // measure 38
0100
0000
1000
0010
0100
0000
0001
0000
0010
0000
0100
0010
0100
0000
1000
0001
,  // measure 39
1000
0000
0100
0010
0100
0000
1000
0100
0010
0000
0001
0100
0001
0000
0001
0000
,  // measure 40
1001
0000
2000
3100
0020
0031
0002
1003
,  // measure 41
0001
0000
0100
0000
1000
0000
0100
0000
0001
0000
0010
0100
0000
0100
1000
0000
,  // measure 42
0200
0310
0100
0010
0001
0020
0130
0000
,  // measure 43
1000
0000
0100
0000
0001
0000
0100
0000
1000
0000
0100
0010
0000
0010
0100
0000
,  // measure 44
1000
0001
2000
3100
2000
3010
1001
0000
,  // measure 45
1000
0000
0010
0000
1000
0000
0100
0000
0010
0000
0001
0010
0000
0100
1000
0000
,  // measure 46
0002
0013
1000
0010
0001
0020
0130
0000
,  // measure 47
1000
0000
0100
0000
0010
0000
0100
0000
0010
0000
0001
0010
0000
0010
0001
0000
,  // measure 48
0010
0100
2000
3010
2000
3100
2000
3010
,  // measure 49
1001
0000
0010
0000
0100
0000
1000
0000
0100
0000
0010
0100
0000
0100
0010
0000
,  // measure 50
0002
0103
0002
0013
0100
2000
0100
3100
,  // measure 51
1001
0000
0010
0000
0100
0000
1000
0000
0100
0000
0010
0001
0000
0001
0010
0000
,  // measure 52
0100
1000
0200
0310
0002
0013
1001
0000
,  // measure 53
1100
0000
0010
0000
0001
0000
0010
0000
0001
0000
1000
0100
0000
0010
0001
0000
,  // measure 54
2000
3100
2000
3100
0010
0002
0010
0013
,  // measure 55
1001
0000
0100
0000
1000
0000
0100
0000
0010
0000
0100
0010
0000
0010
0001
0000
,  // measure 56
0010
0100
2000
3100
0020
0031
2000
3001
;

//---------------dance-single - ----------------
#NOTES:
     dance-single:
     :
     Hard:
     8:
     0.467207,0.461174,0.000000,0.621655,0.234247,363.000000,363.000000,0.000000,69.000000,0.000000,0.000000,0.467207,0.461174,0.000000,0.621655,0.234247,363.000000,363.000000,0.000000,69.000000,0.000000,0.000000:
0000
0000
0000
0000
,
0000
0000
0000
0000
,
1000
0000
0000
0100
0010
0000
0001
0000
0020
0000
0000
0000
0230
0000
0000
0000
,
1300
0000
0000
1000
0100
0000
0010
0000
0200
0000
0000
0000
2300
0000
0000
0000
,
3100
0000
0000
0010
0001
0000
0010
0000
0200
0000
0000
0000
0320
0000
0000
0000
,
0031
0000
0000
0010
0100
0000
0010
0000
0100
0000
0100
0000
0200
0000
0000
0000
,
1300
0100
0010
0010
,
0001
0010
0100
0100
,
1000
0100
0010
0001
,
2000
0000
3100
0000
0020
0001
0031
0000
,
1000
0000
0100
0000
0010
0000
0100
0000
1000
0000
0100
0010
0000
0100
0010
0000
,
0001
0010
0100
1000
0100
0020
0030
0000
,
0001
0000
0100
0000
0001
0000
0010
0000
0100
0000
1000
0100
0000
0010
0001
0000
,
0010
0001
0020
0000
0230
0000
1300
0000
,
1000
0000
0100
0000
1000
0000
0100
0000
0010
0000
0001
0010
0000
0100
1000
0000
,
0100
0001
0100
1000
0100
0020
0030
0000
,
0001
0000
1000
0000
0001
0000
0010
0000
0100
0000
1000
0100
0000
0100
0010
0000
,
0002
0000
0023
0000
0230
0000
1300
0100
,
0020
0031
0002
0013
,
0200
0310
0020
0130
,
2000
0000
0000
0000
3100
0000
0000
0000
1000
0000
0000
0100
0000
0000
0010
0000
,
0002
0023
0032
0023
,
0230
1300
0200
0310
,
0002
0013
0200
0310
,
0002
0000
0013
0000
1000
0100
0010
0100
,
1000
0000
0100
0010
0002
0000
0013
0100
,
0020
0000
0031
0010
0200
0000
1300
0100
,
0020
0000
0031
0010
0200
0000
0310
0001
,
0020
0000
0130
1000
0002
0000
0023
0000
,
0130
0000
0000
1000
0100
0000
0010
0000
0002
0000
0000
0013
0100
0000
0010
0000
,
0200
0000
0000
1300
0100
0000
0010
0000
0002
0000
0000
0013
0100
0000
0010
0000
,
0002
0000
0000
0013
0100
0000
0010
0000
0200
0000
0000
0310
0001
0000
0010
0000
,
0002
0000
0000
0013
0100
0000
1000
0000
0100
0000
0000
0000
0010
0000
0001
0000
,
0010
0100
0000
1000
0000
0000
0100
0000
0010
0001
0000
0010
0000
0000
0100
0000
,
1000
0100
0000
0010
0000
0000
0010
0000
0100
1000
0000
0100
0000
0000
0010
0000
,
0001
0010
0000
0100
0000
0000
0010
0000
0001
0010
0000
0001
0000
0000
0010
0000
,
0100
0010
0000
0100
0000
0000
1000
0000
0010
0100
0000
0010
0000
0000
1000
0000
,
2000
3000
0020
0030
0200
0300
0020
0030
,
0200
0300
0002
0003
0200
0300
0020
0030
,
0100
0010
0100
0010
1000
0001
1000
0001
,
1000
0000
0002
0013
0200
1300
0200
0310
,
0001
0000
0010
0000
0100
0000
0010
0000
0001
0000
0010
0100
0000
0010
0100
0000
,
1000
0010
0100
0010
1000
0200
0300
0000
,
1000
0000
0001
0000
1000
0000
0001
0000
0010
0000
0100
1000
0000
0100
1000
0000
,
0100
0010
0002
0000
0023
0000
0130
0000
,
0001
0000
0010
0000
0001
0000
0010
0000
0100
0000
1000
0100
0000
1000
0100
0000
,
0010
0001
0010
0100
0010
0002
0003
0000
,
1000
0000
0010
0000
0100
0000
0010
0000
1000
0000
0100
0010
0000
0100
0010
0000
,
0001
0010
0200
0000
2300
0000
3200
0000
,
0310
0000
0001
0000
0100
0000
0001
0000
0010
0000
0100
1000
0000
0100
1000
0000
,
0100
0010
0100
0010
0001
0020
0130
0000
,
1000
0000
0100
0000
0010
0000
0100
0000
1000
0000
0100
0010
0000
0010
0001
0000
,
0010
0100
2000
3100
0020
0001
0031
0000
,
1000
0000
0100
0000
0001
0000
0100
0000
1000
0000
0100
0010
0000
0010
0001
0000
,
0010
0100
0010
0100
1000
0200
0310
0000
,
0001
0000
0100
0000
1000
0000
0100
0000
0001
0000
0010
0100
0000
0100
1000
0000
,
0100
0010
0002
0013
0002
0103
0002
1003
;

//---------------dance-single - ----------------
#NOTES:
     dance-single:
     :
     Medium:
     7:
     0.370676,0.409031,0.180190,0.423446,0.018019,288.000000,268.000000,20.000000,47.000000,0.000000,0.000000,0.370676,0.409031,0.180190,0.423446,0.018019,288.000000,268.000000,20.000000,47.000000,0.000000,0.000000:
0000
0000
0000
0000
,
0000
0000
0000
0000
,
1000
0000
0000
0100
0000
0000
0010
0000
0002
0000
0000
0000
0023
0000
0000
0000
,
0130
0000
0000
1000
0000
0000
0100
0000
0020
0000
0000
0000
0032
0000
0000
0000
,
0013
0000
0000
0100
0000
0000
1000
0000
0200
0000
0000
0000
0320
0000
0000
0000
,
0031
0000
0000
0010
0000
0000
0100
0000
1000
0000
1000
0000
2000
0000
0000
0000
,
3001
0100
0001
0001
,
0010
0100
1000
1000
,
0100
0010
0001
1000
,
0002
0023
0230
1300
,
1000
0100
1000
0000
0001
0010
0001
0000
,
1000
0100
0010
0000
0020
0000
0031
0000
,
0001
0010
0100
0000
1000
0100
0010
0000
,
0001
0010
0001
1001
,
0100
0010
0100
0000
1000
0001
1000
0000
,
0001
0100
0001
0000
0002
0000
0103
0000
,
1000
0010
1000
0000
0100
0010
0100
0000
,
2000
0000
3200
0000
0320
0000
0031
0010
,
0200
0300
2000
3000
,
0002
0003
0020
0230
,
1300
0200
0310
0020
,
0130
0100
1000
0100
,
0020
0130
2000
3100
,
0020
0032
0023
0230
,
2300
3100
0200
0310
,
2001
3001
0010
0100
,
0001
0010
0100
1000
,
2100
3100
0010
0100
,
1000
0100
0010
0001
,
0210
0310
0100
0010
,
1000
0100
1000
0100
,
0021
0031
0010
0100
,
1000
0010
1000
0010
,
0200
0000
0310
0000
1000
0100
0010
0000
,
0002
0000
0013
0100
2000
0000
3200
0000
,
0320
0000
0031
0010
0100
0010
0001
0000
,
0020
0000
0130
0010
0001
0001
0002
0000
,
0013
0110
1000
1001
,
1000
1100
0001
0011
,
1000
1010
0001
0101
,
1001
0000
0001
0010
0100
1000
1001
0000
,
1000
0100
1000
0000
0001
0010
0001
0000
,
1000
0001
1000
0001
2000
0000
3100
0000
,
0001
0010
0100
0000
1000
0100
1000
0000
,
0001
0010
0100
1001
,
1000
0100
0001
0000
0001
0100
1000
0000
,
1000
0100
0010
0100
2000
0000
3100
0000
,
0001
0100
0001
0000
0010
1000
0010
0000
,
1000
1010
1000
1001
,
1000
0100
1000
0000
0100
0010
0001
0000
,
0001
0010
0001
0100
0001
0020
0030
0000
,
0100
1000
0100
0000
0010
0001
0010
0000
,
1000
0100
2000
3100
0020
0031
1001
0000
,
0001
0010
1000
0000
1000
0010
0001
0000
,
1000
0100
0010
0100
1000
0200
0300
0000
,
0001
0100
0001
0000
1000
0010
0100
0000
,
0001
1001
0110
1001
;

//---------------dance-single - ----------------
#NOTES:
     dance-single:
     :
     Easy:
     5:
     0.281869,0.307449,0.099104,0.450475,0.000000,219.000000,208.000000,11.000000,50.000000,0.000000,0.000000,0.281869,0.307449,0.099104,0.450475,0.000000,219.000000,208.000000,11.000000,50.000000,0.000000,0.000000:
0000
0000
0000
0000
,
0000
0000
0000
0000
,
1000
0100
0010
0010
,
0001
0010
0100
0100
,
1000
0001
1000
1000
,
0100
0010
0001
0001
,
2000
3100
0020
0031
,
0020
0130
2000
3100
,
0001
0010
0100
2000
,
3100
0010
0100
1000
,
0001
0010
0001
0010
,
0100
1000
0200
0310
,
0001
0100
0001
0010
,
0100
2000
3200
0310
,
0001
1000
0100
0010
,
0001
0100
0002
0103
,
0010
0100
0010
1000
,
0200
0000
0000
0310
,
0002
0000
0103
0000
,
0020
0000
0130
0000
,
0002
0000
0013
0100
,
2000
0000
0010
3010
,
0020
0000
0130
0000
,
2000
0000
3100
0000
,
0100
0010
0100
0010
,
0002
0013
0100
0100
,
2000
3100
0010
0010
,
0002
1003
0100
0100
,
2000
3001
0010
0100
,
0020
0130
1000
0100
,
0020
0031
0010
0001
,
0020
0130
0010
0100
,
0200
0310
0100
0010
,
2000
3100
2000
3001
,
2000
3010
1000
1000
,
0002
1003
0002
0103
,
0002
0013
0001
0001
,
1000
1100
0010
0011
,
1000
0100
0010
0001
,
0001
0011
0100
1100
,
1001
0000
2000
3000
0200
0300
0020
0000
,
0031
0100
0010
0100
,
0001
0100
0020
1030
,
0001
0010
0001
0010
,
0100
2000
3200
0310
,
0010
0100
0010
0001
,
0100
0001
0200
0310
,
1000
0010
0100
0010
,
1000
0000
2000
3000
0200
0300
0020
0030
,
0001
0011
0001
1001
,
0001
0010
0200
1300
,
1000
1100
1000
1001
,
2000
3000
0200
0300
0020
0030
0002
0003
,
1000
1001
0001
1001
,
0001
0010
0002
0013
,
1000
0100
1000
0100
,
0020
0030
0002
0003
0020
0030
0200
0300
;

//---------------dance-single - ----------------
#NOTES:
     dance-single:
     :
     Beginner:
     3:
     0.158310,0.230080,0.009009,0.288304,0.000000,123.000000,122.000000,1.000000,32.000000,0.000000,0.000000,0.158310,0.230080,0.009009,0.288304,0.000000,123.000000,122.000000,1.000000,32.000000,0.000000,0.000000:
0000
0000
0000
0000
,
0000
0000
0000
0000
,
1000
0000
1000
0000
,
0001
0000
0001
0000
,
1000
0000
1000
0000
,
0001
0000
0002
0003
,
0200
0000
0000
0300
,
0020
0000
0000
0030
,
1000
0000
0100
0000
,
0020
0000
0000
0031
,
1000
0000
0100
0000
,
0010
0010
0010
0000
,
0001
0000
0010
0000
,
0100
0100
0100
0000
,
1000
0000
0100
0000
,
0010
0010
0010
0000
,
0001
0000
0001
0000
,
2000
0000
0000
3001
,
0002
0000
0000
0003
,
2000
0000
0000
3000
,
0200
0000
0000
0300
,
0020
0000
0000
0030
,
0002
0000
0000
0003
,
2000
0000
0000
3000
,
0002
0003
0020
0030
,
0001
0000
0100
0000
,
0001
0000
0100
0000
,
0010
0000
1000
0000
,
0010
0000
1000
0000
,
0001
0000
1000
0000
,
0001
0000
1000
0000
,
0100
0000
0010
0000
,
0100
0000
0010
0000
,
0002
0000
0000
0013
,
0200
0000
0000
1300
,
0002
0003
0020
0030
,
0200
0300
2000
3100
,
0020
0000
0000
0031
,
0200
0000
0000
0310
,
1000
1000
1000
2000
,
3100
0000
0000
1001
,
1000
0000
0100
0000
,
1000
1000
1000
0000
,
0010
0000
0100
0000
,
0010
0010
0010
0000
,
1000
0000
0100
0000
,
0010
0010
0010
0000
,
0001
0000
0010
0000
,
0100
0100
0200
0310
,
0002
0003
0020
0030
,
0100
1000
0200
0300
,
0020
0030
0002
0003
,
0010
0100
1000
1000
,
2000
3000
0200
0300
,
0010
0001
0020
0130
,
1000
1000
0001
0001
,
0002
0010
0010
0013
;
