#TITLE:High and Grab;
#SUBTITLE:;
#ARTIST:banvox;
#TITLETRANSLIT:;
#SUBTITLETRANSLIT:;
#ARTISTTRANSLIT:;
#GENRE:;
#CREDIT:;
#BANNER:[Round 2] - High and Grab.png;
#BACKGROUND:[Round 2] - High and Grab-bg.png;
#LYRICSPATH:;
#CDTITLE:;
#MUSIC:[Round 2] - High and Grab.ogg;
#OFFSET:1.329000;
#SAMPLESTART:62.154999;
#SAMPLELENGTH:12.387000;
#LASTBEATHINT:0.849917;
#SELECTABLE:YES;
#BPMS:0.000000=155.000000
;
#STOPS:
;
#BGCHANGES:;
#KEYSOUNDS:;
#ATTACKS:;

//---------------dance-single - ----------------
#NOTES:
     dance-single:
     :
     Hard:
     9:
     0.545499,0.776350,0.552071,0.276036,0.057507,498.000000,426.000000,72.000000,36.000000,0.000000,0.000000,0.545499,0.776350,0.552071,0.276036,0.057507,498.000000,426.000000,72.000000,36.000000,0.000000,0.000000:
// measure 0
0000
0000
0000
0000
,  // measure 1
0000
0000
0000
0000
,  // measure 2
0000
0000
0000
0000
,  // measure 3
0000
0000
0000
0000
,  // measure 4
0000
0000
0000
0000
,  // measure 5
0002
0000
2003
0000
3200
0000
0310
0100
,  // measure 6
1000
0010
0100
0010
1000
0000
0100
0000
,  // measure 7
2000
0000
3002
0000
0203
0000
0310
0100
,  // measure 8
0001
0000
1000
0010
1000
0000
0001
0010
0001
0000
0000
0000
1100
0000
0000
0000
,  // measure 9
0002
0000
0010
0000
0103
0010
0000
0100
,  // measure 10
0000
0001
0000
1000
0000
0100
0000
0010
,  // measure 11
0000
0100
0100
0020
,  // measure 12
0000
0000
0030
0001
0000
0001
0000
0001
,  // measure 13
2000
0000
0010
0000
3100
0010
0000
0100
,  // measure 14
0000
1000
0000
0001
0000
0100
0000
0010
,  // measure 15
0000
0000
2000
0000
3000
0002
0000
0203
,  // measure 16
0000
0320
0000
1030
0100
0010
0001
0000
,  // measure 17
0011
0000
1000
0100
1100
0000
0001
0000
,  // measure 18
0101
0000
1000
0010
1010
0000
0001
0000
,  // measure 19
0101
0000
0001
0010
0011
0000
1000
0000
,  // measure 20
1100
0000
1000
0010
1010
0000
0001
0000
,  // measure 21
1001
0000
0010
0100
0110
0000
1000
0000
,  // measure 22
1001
0000
0100
0010
0110
0000
0001
0000
,  // measure 23
1001
0000
0002
0000
0003
0020
0000
0230
,  // measure 24
0000
2300
0000
3001
0100
0010
1000
0000
,  // measure 25
0001
0000
0000
0010
0000
0000
0100
1000
,  // measure 26
1000
0000
0000
1000
0000
0000
0001
0000
,  // measure 27
0100
0000
0000
0010
0000
0000
1000
0001
,  // measure 28
0001
0000
0000
0010
0000
0000
0001
1000
,  // measure 29
1000
1000
0001
0001
,  // measure 30
0010
0000
0010
0000
0100
0000
0100
1000
,  // measure 31
1000
0000
0100
0000
0010
0000
0001
0000
0100
0010
1000
0001
0010
0100
1000
0010
,  // measure 32
0100
0000
0001
0000
1000
0100
0010
0000
,  // measure 33
0011
0000
1001
0000
1100
0000
1000
0100
,  // measure 34
0001
0100
1000
0010
0100
0000
0110
0000
,  // measure 35
1010
0000
1001
0000
0101
0000
0001
0100
,  // measure 36
1000
0100
0001
0010
0100
0000
0110
0000
,  // measure 37
1000
1000
0001
0001
1000
0100
0010
0001
,  // measure 38
0100
0100
0010
0010
1000
0010
0100
0001
,  // measure 39
1000
0100
1000
0100
0010
0001
0010
0001
0100
0010
0100
0010
1000
0001
1000
0001
,  // measure 40
0100
0000
0010
0000
1000
0001
1000
0000
,  // measure 41
0100
0000
0110
0000
0010
0001
0010
0100
,  // measure 42
0010
0000
0100
0000
1100
0000
0001
0100
,  // measure 43
0010
0000
1000
0100
0010
0100
1000
0001
,  // measure 44
0100
0100
0000
0010
0000
1000
0000
0001
,  // measure 45
0010
0000
0110
0000
0100
1000
0100
0010
,  // measure 46
0100
0000
0010
0000
0011
0000
0001
0100
,  // measure 47
0010
0000
1000
0010
0100
0010
1000
0100
,  // measure 48
0010
0000
0001
0000
0100
0010
1000
0000
,  // measure 49
0002
0000
0000
0000
0000
0003
0000
0000
1000
0000
0100
0000
0010
0000
0001
0000
,  // measure 50
0100
0000
0110
0000
0010
0000
1000
0001
,  // measure 51
0010
0000
0100
1000
0001
1000
0010
0100
,  // measure 52
0010
0010
0000
0100
0000
0001
0000
1000
,  // measure 53
0100
0000
0110
0000
0010
0001
1000
0001
,  // measure 54
0100
0000
0010
0000
1000
0000
0001
0100
,  // measure 55
0010
0000
1000
0010
0100
0001
1000
0100
,  // measure 56
0010
0000
0001
0000
1000
0001
0100
0000
,  // measure 57
0110
0000
1001
0000
0011
0001
0101
0100
,  // measure 58
0110
0010
1000
0001
1000
0000
1001
0000
,  // measure 59
1010
0000
0101
0000
0011
0010
0110
0100
,  // measure 60
1100
1000
0001
0100
0001
0000
0101
0000
,  // measure 61
0110
0000
1010
0000
1100
0100
0110
0010
,  // measure 62
0011
0001
0100
0010
1000
0000
1010
0000
,  // measure 63
1100
0000
0101
0000
0011
0001
1001
1000
,  // measure 64
0010
0000
0100
0000
0001
1000
0100
0000
,  // measure 65
0110
0000
1001
0000
0101
0001
1001
1000
,  // measure 66
1100
0100
0010
0001
0200
0000
1000
0000
,  // measure 67
0301
0000
1001
0000
1010
1000
1001
0001
,  // measure 68
0011
0010
0100
1000
0020
0000
0001
0000
,  // measure 69
1030
0000
0110
0000
0101
0001
1001
1000
,  // measure 70
1010
1000
0100
0010
0200
0000
0001
0000
,  // measure 71
1300
0000
0110
0000
0011
0001
1001
1000
,  // measure 72
1100
0000
0100
0000
0010
0001
1000
0000
,  // measure 73
2001
0000
3002
0000
0203
0000
0310
1000
,  // measure 74
0100
1000
0010
0100
0001
0000
1001
0000
,  // measure 75
0002
0000
2003
0000
3200
0000
0310
0001
,  // measure 76
0100
0001
0010
0100
1000
0000
1001
0000
,  // measure 77
0002
0000
2003
0000
3020
0000
0130
0010
,  // measure 78
1000
0010
0100
0001
0100
0000
0110
0000
,  // measure 79
2000
0000
3002
0000
0023
0000
0130
1000
,  // measure 80
0100
0000
0100
0000
0010
0100
0020
0000
0031
0000
1000
0000
2002
0000
0000
0000
,  // measure 81
3003
0000
0000
0000
;

//---------------dance-single - ----------------
#NOTES:
     dance-single:
     :
     Medium:
     6:
     0.405290,0.434756,0.260700,0.276036,0.000000,370.000000,336.000000,34.000000,36.000000,0.000000,0.000000,0.405290,0.434756,0.260700,0.276036,0.000000,370.000000,336.000000,34.000000,36.000000,0.000000,0.000000:
0000
0000
0000
0000
,
0000
0000
0000
0000
,
0000
0000
0000
0000
,
0000
0000
0000
0000
,
0000
0000
0000
0000
,
1000
0000
1000
0000
2000
0000
0000
0010
,
0000
0010
0000
3010
0100
0000
0001
0000
,
0010
0010
0020
0000
,
0031
0100
0010
0000
1000
0000
1001
0000
,
0002
0000
2003
0000
,
3002
0000
0023
0000
,
0230
0010
0310
0002
,
0000
0003
0000
1000
0000
1000
0000
1000
,
0020
0000
0230
0000
,
0320
0000
2030
0000
,
3002
0000
0203
0000
,
0310
0000
1000
0000
0001
1000
0001
0000
,
1001
1000
1100
1000
,
1001
0001
0101
0100
,
0110
0010
1010
0010
,
0110
0100
0101
0001
,
0011
0010
0110
0100
,
1100
1000
1001
0001
,
0110
1000
0110
0001
,
1000
0000
0100
0000
1000
0100
1000
0000
,
0001
0000
0000
0100
0000
0000
0010
0100
,
0010
0000
0000
1000
0000
0000
0100
1000
,
0100
0000
0000
0010
0000
0000
0001
0100
,
0001
0000
0000
0100
0000
0000
0010
1000
,
0010
0010
0010
0010
,
0100
0100
0100
0100
,
0001
0010
0100
0000
1000
0100
0010
0000
,
0001
0000
1000
0000
0010
0100
0010
0000
,
1000
0000
0100
0000
1200
0000
0000
0010
,
0000
1000
0000
0310
0001
0000
1000
0000
,
0001
0000
0100
0000
0201
0000
0000
0010
,
0000
0001
0000
0310
0100
0000
0010
0000
,
1000
0100
1000
0000
0001
0100
0001
0000
,
1000
0010
1000
0000
0001
0010
0001
0000
,
1000
0100
0010
0000
0001
0100
0010
0000
,
1000
0000
0001
0000
0010
0100
0010
0000
,
0100
0000
0100
0000
1000
0001
1000
0000
,
0010
0000
0100
0000
0001
0000
0001
1000
,
0100
0000
0100
0010
0001
0000
1000
0000
,
0010
0100
0000
0001
0000
1000
0000
0100
,
0010
0000
0010
0000
0001
1000
0001
0000
,
0100
0000
0010
0000
1000
0000
1000
0001
,
0100
0000
0001
0100
0010
0000
1000
0000
,
0200
0010
0010
0310
,
2002
0000
3003
0000
0001
0000
1000
0100
,
1000
0000
0010
0000
1000
0000
0100
1000
,
0100
0000
0010
0001
1000
0000
0010
0000
,
0100
0010
0000
0100
0000
0001
0000
1000
,
0100
0010
0100
0000
0010
0000
0001
0100
,
0001
0000
0100
0000
0010
0000
0100
0001
,
0100
0000
0010
1000
0001
0000
0010
0000
,
0200
0010
0010
0310
,
1001
0000
1001
0000
0001
1000
0001
0000
,
0100
0010
0100
0000
0002
0000
1003
0000
,
1001
0000
1001
0000
1000
0001
1000
0000
,
0010
0100
0010
0000
2000
0000
3001
0000
,
0011
0000
0011
0000
0001
0010
0001
0000
,
1000
0010
1000
0000
0020
0000
0130
0000
,
1010
0000
1010
0000
1000
0010
1000
0000
,
0002
0103
2000
3100
,
0110
0000
1001
0000
1000
0001
1000
0000
,
0010
0100
0010
0000
2000
0000
3100
0000
,
0110
0000
1001
0000
0001
1000
0001
0000
,
0100
0010
0100
0000
0002
0000
0013
0000
,
0011
0000
0110
0000
0100
1000
0100
0000
,
0010
0001
0100
0000
0020
0000
1030
0000
,
1010
0000
1001
0000
0001
0010
0001
0000
,
0020
0000
0230
0000
1300
0001
0100
0000
,
0010
0000
0010
0000
0020
0000
0000
1000
,
0000
0100
0000
1030
0100
0000
0010
0000
,
0001
0000
0001
0000
0002
0000
0000
0010
,
0000
1000
0000
0103
0010
0000
1000
0000
,
0100
0000
0100
0000
0200
0000
0000
0010
,
0000
1000
0000
0310
0001
0000
0001
0000
,
1000
0000
1000
0000
2000
0000
0000
3010
,
0100
0001
2000
0000
3100
0100
0020
0000
,
0030
0000
0000
0000
;

//---------------dance-single - ----------------
#NOTES:
     dance-single:
     :
     Easy:
     4:
     0.246460,0.279486,0.000000,0.207027,0.000000,225.000000,225.000000,0.000000,27.000000,0.000000,0.000000,0.246460,0.279486,0.000000,0.207027,0.000000,225.000000,225.000000,0.000000,27.000000,0.000000,0.000000:
0000
0000
0000
0000
,
0000
0000
0000
0000
,
0000
0000
0000
0000
,
0000
0000
0000
0000
,
0000
0000
0000
0000
,
1000
1000
1000
0000
,
0001
0001
0001
0000
,
0100
0100
0100
0000
,
0010
0010
0020
0030
,
2000
0000
3000
0000
,
0002
0000
0003
0000
,
2000
0000
3000
0000
,
0200
0300
0020
0030
,
0001
0000
0001
0000
,
1000
0000
1000
0000
,
0010
0000
0100
0000
,
0001
0000
1000
0000
,
0100
0100
0100
0000
,
0010
0010
0010
0000
,
0001
0001
0001
0000
,
1000
1000
1000
0000
,
0001
0001
1000
0000
,
1000
1000
0001
0000
,
0100
0100
0010
0010
,
1000
0100
0010
0001
,
1000
0000
0000
1000
0000
0000
2000
0000
,
3001
0000
0000
0001
0000
0000
0001
0000
,
0010
0000
0000
0010
0000
0000
0020
0000
,
0130
0000
0000
0100
0000
0000
0200
0000
,
1300
1000
1000
1000
,
0001
0001
0001
0001
,
0100
0010
1000
0001
,
0020
0000
0000
0000
,
0130
0000
0100
0000
0100
0000
0000
1000
,
0000
1000
0000
1000
0000
0000
0001
0000
,
0100
0000
0100
0000
0100
0000
0000
0010
,
0000
0010
0000
0010
0000
0000
0100
0000
,
0001
0000
0001
0000
0001
0000
0000
0010
,
0000
0010
0000
0010
0000
0000
0000
0000
,
1000
0100
0010
0001
,
0200
0310
0001
1000
,
1000
0100
0010
0010
,
0001
0100
0010
0010
,
1000
0001
1000
0100
,
0010
0010
0001
0001
,
0200
0000
0320
0000
,
1030
0001
0100
0010
,
1000
1000
0001
0001
,
0020
0000
0230
0000
,
2300
0000
3000
0001
,
1000
0001
0001
0100
,
0010
1000
0100
0010
,
0001
0001
1000
1000
,
0002
0000
2003
0000
,
3100
0010
0001
1000
,
0010
0100
0001
0010
,
0100
0100
1000
1000
,
0001
0001
0002
0000
,
0100
0000
0100
0000
,
1003
1000
2000
0000
,
0010
0000
0010
0000
,
3010
0010
0020
0000
,
0100
0000
0100
0000
,
0130
0100
0200
0000
,
0310
0010
1000
1000
,
0001
0010
0200
0000
,
1000
0000
1000
0000
,
0310
0001
2000
0000
,
0010
0000
0010
0000
,
3100
0010
0002
0000
,
0100
0000
0100
0000
,
0103
0010
2000
0000
,
3100
0100
0010
0010
,
0001
0000
0000
0000
1000
0000
0000
0010
,
0000
0010
0000
0010
0000
0000
0000
0000
,
1000
0000
0000
0000
0001
0000
0000
0100
,
0000
0100
0000
0100
0000
0000
0000
0000
,
0001
0000
0000
0000
0010
0000
0000
0100
,
0000
0100
0000
0100
0000
0000
0000
0000
,
1000
0000
0010
0000
,
0100
0100
0001
2000
,
3000
0000
0000
0000
;

//---------------dance-single - ----------------
#NOTES:
     dance-single:
     :
     Beginner:
     2:
     0.130350,0.216036,0.000000,0.046006,0.000000,119.000000,119.000000,0.000000,6.000000,0.000000,0.000000,0.130350,0.216036,0.000000,0.046006,0.000000,119.000000,119.000000,0.000000,6.000000,0.000000,0.000000:
0000
0000
0000
0000
,
0000
0000
0000
0000
,
0000
0000
0000
0000
,
0000
0000
0000
0000
,
0000
0000
0000
0000
,
1000
0000
0000
0000
,
1000
0000
0000
0000
,
0001
0000
0000
0000
,
0001
0000
1000
0000
,
0001
0000
0000
0000
,
0000
0000
0000
0000
,
0100
0000
0000
0000
,
0000
0000
0000
0000
,
0010
0000
0000
0000
,
0000
0000
0000
0000
,
1000
0000
0000
0000
,
0000
0000
0000
0000
,
0001
0000
0001
0000
,
0001
0000
0000
0000
,
1000
0000
1000
0000
,
1000
0000
0000
0000
,
0100
0000
0100
0000
,
0100
0000
0000
0000
,
0010
0000
0010
0000
,
0010
0000
0000
0000
,
0001
0000
0000
0000
,
1000
0000
0000
0000
,
0010
0000
0000
0000
,
0100
0000
0000
0000
,
0001
0000
0010
0000
,
0100
0000
1000
0000
,
0010
0000
0010
0000
,
0020
0000
0030
0000
,
0100
0000
0100
0000
,
0001
0000
0001
0000
,
1000
0000
1000
0000
,
0010
0000
0010
0000
,
1000
1000
1000
0000
,
0001
0001
0001
0000
,
1000
1000
1000
0000
,
0001
0001
0001
0000
,
1000
0000
1000
0000
,
0100
0000
0000
0000
,
0001
0000
0001
0000
,
0100
0000
0000
0000
,
0010
0000
0010
0000
,
0100
0000
0000
0000
,
0100
0000
0100
0000
,
0010
0000
0000
0000
,
2000
0000
3000
0000
,
0001
0000
1000
0000
,
0001
0000
0100
0000
,
0100
0000
0010
0000
,
0010
0000
1000
0000
,
1000
0000
0001
0000
,
0001
0000
0010
0000
,
0010
0000
0100
0000
,
0100
0000
0000
0000
,
0100
0000
0100
0000
,
1000
0000
0000
0000
,
1000
0000
1000
0000
,
0001
0000
0000
0000
,
0001
0000
0001
0000
,
0010
0000
0000
0000
,
0010
0000
0010
0000
,
1000
1000
1000
0000
,
1000
0000
1000
0000
,
0100
0100
0100
0000
,
0100
0000
0100
0000
,
0010
0010
0010
0000
,
0010
0000
0010
0000
,
0001
0001
0001
0000
,
0001
0000
0001
0000
,
2000
0000
0000
0000
,
3000
0000
1000
0000
,
0002
0000
0000
0000
,
0003
0000
0001
0000
,
0200
0000
0000
0000
,
0300
0000
0100
0000
,
0020
0000
0000
0000
,
0030
0000
0010
0000
;
