#TITLE:HUMBLE.;
#SUBTITLE:;
#ARTIST:Kendrick Lamar;
#TITLETRANSLIT:;
#SUBTITLETRANSLIT:;
#ARTISTTRANSLIT:;
#GENRE:;
#CREDIT:;
#BANNER:[Round 2] - HUMBLE.png;
#BACKGROUND:[Round 2] - HUMBLE-BG.png;
#LYRICSPATH:;
#CDTITLE:;
#MUSIC:[Round 2] - HUMBLE.ogg;
#OFFSET:-1.255000;
#SAMPLESTART:58.450008;
#SAMPLELENGTH:15.000000;
#SELECTABLE:YES;
#DISPLAYBPM:150.000000;
#BPMS:0.000000=150.000000
;
#STOPS:
;
#BGCHANGES:-3.250=[Round 2] - HUMBLE.avi=1.000=1=0=0=StretchNoLoop==CrossFade==,
99999=-nosongbg-=1.000=0=0=0 // don't automatically add -songbackground-
;
#KEYSOUNDS:;
#ATTACKS:;

//---------------dance-single - BEGINNER----------------
#NOTES:
     dance-single:
     BEGINNER:
     Beginner:
     2:
     0.176689,0.268186,0.129667,0.000000,0.000000,124.000000,111.000000,13.000000,0.000000,0.000000,0.000000,0.176689,0.268186,0.129667,0.000000,0.000000,124.000000,111.000000,13.000000,0.000000,0.000000,0.000000:
0000
0000
0000
0000
,
0000
0000
0000
0000
,
0000
0000
0000
0000
,
0000
0000
1001
1001
,
0000
0000
1000
0000
,
0001
0000
1000
0000
,
0100
0000
0100
0000
,
0010
0000
0010
0000
,
0001
0000
1000
0000
,
0001
0000
1000
0000
,
0100
0000
0001
0000
,
0100
0000
1000
0000
,
0010
0010
0000
0000
,
1000
0000
0001
0000
,
0100
0100
0000
0000
,
0001
0000
1000
0000
,
0001
0001
0000
0000
,
1000
0000
0100
0000
,
0010
0010
0000
0000
,
1000
0000
0001
0000
,
1001
0000
0100
0000
,
1001
0000
0100
0000
,
0110
0000
0100
0000
,
0001
0000
1000
0000
,
1001
0000
1000
0000
,
0010
0000
0100
0000
,
1001
0000
0010
0000
,
1000
0000
0001
0000
,
0100
0000
1000
1000
,
1000
1000
1000
0000
,
0000
0000
0001
0001
,
0001
0001
0001
0000
,
0001
0000
1000
0000
,
0001
0000
1000
0000
,
0010
0000
0100
0000
,
0010
0000
0100
0000
,
1001
0000
0000
0000
,
1000
0000
0000
0000
,
0100
0000
0000
0000
,
0001
0000
0000
0000
,
0100
0100
0100
0100
,
0100
0100
0100
0000
,
1001
0000
0000
0000
,
0001
0000
0000
0000
,
0010
0000
0000
0000
,
0100
0000
0000
0000
,
1000
0000
0000
0000
,
0010
0000
0000
0000
,
0001
0001
0001
0001
,
0001
0001
0001
0000
,
1001
0000
0000
0000
,
0110
0000
0000
0000
,
0010
0010
0000
0000
,
1000
1000
0000
0000
,
0001
0001
0000
0000
,
0100
0100
0000
0000
,
0010
0010
0000
0000
,
1000
1000
0000
0000
,
1001
1001
0000
0000
,
0001
0001
0000
0001
;

//---------------dance-single - BASIC----------------
#NOTES:
     dance-single:
     BASIC:
     Easy:
     4:
     0.344828,0.387379,0.269308,0.398975,0.000000,242.000000,215.000000,27.000000,40.000000,0.000000,0.000000,0.344828,0.387379,0.269308,0.398975,0.000000,242.000000,215.000000,27.000000,40.000000,0.000000,0.000000:
0000
0000
0000
0000
,
0000
0000
0000
0000
,
0000
0000
0000
0000
,
0000
0000
1001
1001
,
0000
0000
0010
0100
,
0001
0001
1000
0100
,
1001
1001
0100
1000
,
0010
0001
0010
1000
,
0110
0110
1000
0010
,
0100
0001
0010
0100
,
1100
1100
0001
0100
,
1000
0001
0010
1000
,
0010
0200
0300
0001
,
1000
0000
0001
0000
0010
0001
0010
0000
,
0100
2000
3000
0010
,
0100
0000
0001
0000
1000
0100
1000
0000
,
0001
2000
3000
0100
,
1000
0000
0001
0000
1000
0010
1000
0000
,
0100
2000
3000
0001
,
1000
0000
0010
0000
0100
0001
0100
0000
,
1002
1003
0100
0100
,
2001
3001
0100
0100
,
0120
0000
0130
0100
,
0002
0013
2000
3010
,
1002
0000
1003
1000
,
0020
1030
0002
0103
,
2001
0000
3010
0010
,
2000
3100
0020
0031
,
0100
0000
1000
1000
,
1000
1000
1000
0000
,
0001
0001
0001
0001
,
0001
0100
1000
0010
,
0001
0010
1000
0100
,
0001
0010
1000
0100
,
2000
3100
0002
0103
,
0010
0000
0100
0000
0001
1000
0001
0000
,
2002
3003
1000
0100
,
2000
3000
0001
1000
,
0100
0000
0001
0010
,
0002
0003
1000
0001
,
0200
0010
0010
0310
,
0020
0100
0100
0130
,
1001
2002
3003
1000
,
0002
0000
1003
0001
0000
0000
0010
0000
,
0200
1300
1000
0001
,
0200
0000
0301
0100
0000
0000
0001
0000
,
2000
3001
0001
0100
,
0020
0000
1030
0010
0000
0000
1000
0000
,
0002
0010
0010
0013
,
2000
0100
0100
3100
,
1100
1001
0001
0100
,
0101
0000
0010
0100
0000
0000
0010
0000
,
0110
0220
0330
1000
,
0100
0000
0010
0001
0000
0100
0001
0000
,
0101
0202
0303
0100
,
0010
0000
1000
0001
0000
1000
0010
0000
,
1010
2020
3030
1000
,
0010
0000
1000
0100
0000
0010
0001
0000
,
1001
2002
3003
0001
,
0010
0000
0001
0001
0000
1000
1000
0000
;

//---------------dance-single - DIFFICULT----------------
#NOTES:
     dance-single:
     DIFFICULT:
     Medium:
     7:
     0.468795,0.536372,0.568539,0.219436,0.000000,329.000000,272.000000,57.000000,22.000000,0.000000,0.000000,0.468795,0.536372,0.568539,0.219436,0.000000,329.000000,272.000000,57.000000,22.000000,0.000000,0.000000:
0000
0000
0000
0000
,
0000
0000
0000
0000
,
0000
0000
0000
0000
,
0000
0000
0110
0110
,
1001
0000
1001
0000
1000
0001
1000
0000
,
0010
0000
0100
0010
0000
0010
0100
0000
,
0001
0100
0001
0000
1000
0000
0001
0000
,
0010
0000
0001
0010
0000
0010
0001
0000
,
1000
0100
1000
0000
0010
0000
1000
0000
,
0001
0000
0100
0001
0000
1000
0100
0000
,
1000
0001
1000
0000
0010
0000
0100
0000
,
0001
0000
0010
0100
0000
1000
0001
0000
,
0100
0010
1000
0000
2100
0000
3100
0000
,
0010
0001
0010
0000
2001
0000
3001
0000
,
1000
0001
1000
0000
0102
0000
1003
0000
,
0010
0100
0010
0000
2100
0000
3001
0000
,
1000
0100
0001
0000
1002
0000
0103
0000
,
0001
0100
1000
0000
2001
0000
3010
0000
,
1000
0010
0001
0000
0012
0000
0103
0000
,
0001
0010
1000
0000
2010
0000
3100
0000
,
2002
0000
3003
0000
0001
0100
0001
0000
,
1000
0100
1000
0000
0110
0000
1000
0000
,
2002
0000
3003
0000
0010
0100
0010
0000
,
1000
0001
1000
0000
1100
0000
0001
0000
,
0202
0000
0303
0000
1000
0100
0010
0000
,
0001
0100
0010
0000
1010
0000
0100
0000
,
0022
0000
0033
0000
1000
0010
0001
0000
,
1000
0100
0001
0000
0011
0000
1100
0000
,
1001
0000
1000
1010
,
1000
1100
1000
1001
,
0000
0101
0011
1001
,
0001
0100
1000
0000
0001
0010
1000
0000
,
0010
0100
0001
1000
,
0010
1000
0100
0000
0010
0001
0100
0000
,
0001
0000
1000
0000
0100
0010
0001
0000
,
0100
0010
1000
0000
1001
0000
0110
0000
,
0101
0000
0001
0100
0010
0000
1000
0010
,
0100
0000
1000
0100
0000
1000
0001
0000
,
1100
0000
0001
0100
1000
0000
0001
0010
,
1000
0000
0010
0100
0000
0100
0010
0000
,
1000
1100
1100
0011
,
0011
0000
0101
0000
0101
0000
1010
0010
,
0100
0000
0010
0000
1000
0000
0010
0100
,
0001
0000
1000
0100
0000
0001
0100
0000
,
1100
0000
1000
0100
0010
0000
0001
0010
,
0100
0000
1000
0010
0000
0010
0100
0000
,
0101
0000
0001
0100
0010
0000
1000
0001
,
0100
0000
0100
0010
0000
1000
0001
0000
,
1001
0101
0101
0011
,
0011
0000
1100
0000
1100
0000
1010
1000
,
0100
0000
1000
0000
0001
0000
1000
0010
,
0100
0000
0010
0100
0000
0001
1000
0000
,
0102
1003
2100
3001
,
0010
0000
0001
1000
0000
0010
1000
0000
,
1020
0130
0201
0310
,
1000
0000
0001
0010
0000
0100
1000
0000
,
2100
3010
0012
0103
,
1000
0000
0010
0100
0000
0001
0010
0000
,
0110
1001
0100
0010
,
0001
0000
1000
1000
0000
0001
0001
0000
;

//---------------dance-single - EXPERT----------------
#NOTES:
     dance-single:
     EXPERT:
     Hard:
     9:
     0.584213,0.536372,0.299231,0.129667,0.189513,410.000000,380.000000,30.000000,13.000000,0.000000,0.000000,0.584213,0.536372,0.299231,0.129667,0.189513,410.000000,380.000000,30.000000,13.000000,0.000000,0.000000:
0000
0000
0000
0000
,
0000
0000
0000
0000
,
0000
0000
0000
0000
,
0000
0000
0110
1001
,
0010
0000
0010
0000
0010
0100
0001
1000
,
0100
1000
0001
0100
0010
0100
0001
0010
,
1000
1000
0001
0000
1000
0010
0001
0010
,
1000
0100
0010
0001
1000
0001
0100
0010
,
0100
0100
0001
0000
1000
0001
0100
0010
,
0100
0001
1000
0100
1000
0010
1000
0001
,
0010
0010
0100
0000
0010
0001
0100
0010
,
1000
0100
0001
0100
1000
0001
0100
1000
,
0100
0001
0001
0000
1002
0000
0013
0100
,
1000
0100
0001
0100
1000
0000
1000
0010
,
0101
0000
1010
0000
0001
0100
0010
1000
,
1001
0000
0110
0000
0001
0010
1000
0010
,
0110
0000
1001
0000
0010
1000
0100
1000
,
0011
0000
1100
0000
0001
0100
0001
1000
,
0101
0000
1010
0000
0001
0010
1000
0010
,
0001
0010
1000
0100
0001
0100
1000
0001
,
0101
0000
1010
0000
0001
0100
0010
1000
,
0100
1000
0010
0100
0001
0100
0010
1000
,
2002
0000
3003
0000
1000
0100
1000
0001
,
0010
0100
0010
0001
0100
0010
1000
0001
,
0202
0000
0303
0000
0001
0100
1000
0100
,
0001
1000
0010
0100
0001
1000
0010
0100
,
2020
0000
3030
0000
0010
1000
0100
1000
,
0001
0100
0001
0010
0001
1000
0010
1000
,
0100
0000
2000
0100
,
0010
0100
0001
0002
,
3003
0000
0110
0000
1001
0000
0001
0100
,
1000
0100
0001
0010
1000
0010
0001
0000
,
1000
0010
0100
0010
1000
0001
0010
0100
,
1000
1000
0100
0100
0010
0001
0100
0000
,
0010
0100
0001
1000
0001
0100
0010
1000
,
1100
0000
0011
0000
1000
0100
0001
0100
,
1001
0000
0000
0000
0001
0100
0000
0000
1000
0000
0000
0000
0010
1000
0000
0000
,
1000
0100
0000
0000
0100
0010
0000
0000
0010
0001
0000
0000
0001
0000
0100
0000
,
1000
0000
0000
0000
0100
0010
0000
0000
1000
0000
0000
0000
0100
1000
0000
0000
,
1000
0001
0000
0000
0001
0000
0010
0000
1000
0000
0010
0000
0001
0000
0100
0000
,
1000
0000
0000
0000
0100
0001
0000
0000
0100
0001
0000
0000
1000
0010
0000
0000
,
1000
0010
0000
0000
0100
0001
0000
0000
1000
0010
0000
0000
1000
0000
0001
0000
,
1001
0000
0000
0000
1000
0100
0000
0000
1000
0000
0000
0000
0001
0000
0001
0000
,
1000
0010
0000
0000
1000
0001
0000
0000
0010
0001
0000
0000
1000
0000
0001
0000
,
0101
0000
0000
0000
1000
0010
0000
0000
0010
1000
0000
0000
0100
1000
0000
0000
,
1000
0100
0000
0000
0010
0001
0000
0000
0001
0010
0000
0000
0100
0000
1000
0000
,
0001
0000
0000
0000
0010
0001
0000
0000
1000
0000
0000
0000
0001
0010
0000
0000
,
0100
0000
1000
0000
0001
0010
0000
0000
0001
0000
0100
0000
0010
1000
0000
0000
,
0100
0000
0000
0000
0001
0100
0000
0000
0001
0100
0000
0000
0010
1000
0000
0000
,
0010
1000
0000
0000
0100
0010
0000
0000
1000
0001
0000
0000
0010
0000
0100
0000
,
1001
0000
0001
0100
0010
1000
0010
0010
,
1000
0100
0000
0000
0100
0010
0000
0000
0010
0001
0000
0000
0001
1000
0000
0000
,
1002
0000
1003
0000
0100
1000
0010
0100
,
0001
1000
0100
0100
1000
0010
0010
0000
,
1020
0000
0130
0000
0100
0001
0010
0100
,
1000
0010
0100
0100
0001
1000
1000
0000
,
2100
0000
3010
0000
0001
0010
0100
1000
,
0001
1000
0010
0010
0100
0001
0001
0000
,
1002
0000
0013
0000
1000
0010
0100
0010
,
0001
0010
0100
0100
0001
1000
1000
0000
;

//---------------dance-double - BASIC----------------
#NOTES:
     dance-double:
     :
     Easy:
     4:
     0.344828,0.387379,0.269308,0.398975,0.000000,242.000000,215.000000,27.000000,40.000000,0.000000,0.000000,0.344828,0.387379,0.269308,0.398975,0.000000,242.000000,215.000000,27.000000,40.000000,0.000000,0.000000:
00000000
00000000
00000000
00000000
,
00000000
00000000
00000000
00000000
,
00000000
00000000
00000000
00000000
,
00000000
00000000
10010000
10010000
,
00000000
00000000
00100000
01000000
,
00010000
00010000
00001000
00000100
,
00011000
00011000
00000100
00000001
,
00000010
00001000
00010000
01000000
,
01100000
01100000
10000000
00100000
,
01000000
00010000
00001000
00000010
,
00000011
00000011
00000001
00000100
,
00001000
00010000
00100000
10000000
,
00100000
00020000
00030000
00001000
,
00010000
00000000
00001000
00000000
00000010
00001000
00000010
00000000
,
00001000
00000002
00000003
00000010
,
00000100
00000000
00001000
00000000
00010000
01000000
00010000
00000000
,
00001000
00020000
00030000
01000000
,
00010000
00000000
10000000
00000000
00010000
00100000
00010000
00000000
,
00001000
00000200
00000300
00001000
,
00000001
00000000
00000010
00000000
00000100
00001000
00000100
00000000
,
00021000
00031000
01000000
01000000
,
20010000
30010000
01000000
01000000
,
01200000
00000000
01300000
01000000
,
00020000
00130000
00020000
00031000
,
00002001
00000000
00003001
00000001
,
00000020
00001030
00020000
01030000
,
20010000
00000000
30100000
00100000
,
20000000
31000000
00200000
00310000
,
00001000
00000000
00010000
00010000
,
00010000
00010000
00010000
00000000
,
00001000
00001000
00001000
00001000
,
00001000
00000100
00000001
00000010
,
00001000
00010000
00100000
10000000
,
01000000
00010000
00001000
00000010
,
00000002
00000103
00002000
00003100
,
00000010
00000000
00000100
00000000
00010000
00001000
00010000
00000000
,
00022000
00033000
00010000
01000000
,
20000000
30000000
00010000
00001000
,
00000100
00000000
00000001
00000010
,
00000002
00000003
00000100
00010000
,
00020000
00000100
00000100
00030100
,
02000000
00001000
00001000
03001000
,
00011000
00022000
00033000
00010000
,
00000020
00000000
00001030
00000001
00000000
00000000
00000010
00000000
,
00000200
00001300
00001000
00010000
,
02000000
00000000
03010000
01000000
00000000
00000000
00010000
00000000
,
00002000
00013000
00010000
01000000
,
00200000
00000000
00310000
00100000
00000000
00000000
00001000
00000000
,
00020000
00000010
00000010
00030010
,
00200000
00001000
00001000
00301000
,
00001100
00011000
00001000
00000100
,
00000101
00000000
00000010
00001000
00000000
00000000
00010000
00000000
,
01100000
02200000
03300000
10000000
,
01000000
00000000
00100000
00010000
00000000
01000000
00010000
00000000
,
00011000
00022000
00033000
00000100
,
00000010
00000000
00000001
00001000
00000000
00010000
00001000
00000000
,
00110000
00220000
00330000
00001000
,
00100000
00000000
00010000
01000000
00000000
00100000
10000000
00000000
,
10010000
20020000
30030000
00010000
,
00100000
00000000
00010000
00010000
00000000
00001000
00001000
00000000
;

//---------------dance-double - DIFFICULT----------------
#NOTES:
     dance-double:
     :
     Medium:
     7:
     0.468795,0.536372,0.568539,0.219436,0.000000,329.000000,272.000000,57.000000,22.000000,0.000000,0.000000,0.468795,0.536372,0.568539,0.219436,0.000000,329.000000,272.000000,57.000000,22.000000,0.000000,0.000000:
// measure 0
00000000
00000000
00000000
00000000
,  // measure 1
00000000
00000000
00000000
00000000
,  // measure 2
00000000
00000000
00000000
00000000
,  // measure 3
00000000
00000000
00000110
00000110
,  // measure 4
00011000
00000000
00011000
00000000
00001000
00010000
00001000
00000000
,  // measure 5
00100000
00000000
01000000
00100000
00000000
00100000
01000000
00000000
,  // measure 6
10000000
01000000
10000000
00000000
00100000
00000000
00010000
00000000
,  // measure 7
00100000
00000000
00001000
00010000
00000000
00010000
00001000
00000000
,  // measure 8
00010000
00000100
00010000
00000000
00000010
00000000
00000001
00000000
,  // measure 9
00001000
00000000
00000010
00001000
00000000
00000001
00000010
00000000
,  // measure 10
00000100
00001000
00000100
00000000
00010000
00000000
00100000
00000000
,  // measure 11
10000000
00000000
00100000
01000000
00000000
00010000
10000000
00000000
,  // measure 12
00010000
01000000
00010000
00000000
00021000
00000000
00031000
00000000
,  // measure 13
00000010
00001000
00000010
00000000
00001002
00000000
00001003
00000000
,  // measure 14
00010000
00001000
00010000
00000000
00020100
00000000
00031000
00000000
,  // measure 15
00001000
00010000
00001000
00000000
02001000
00000000
03010000
00000000
,  // measure 16
10000000
01000000
00010000
00000000
01020000
00000000
10030000
00000000
,  // measure 17
00010000
01000000
10000000
00000000
20100000
00000000
30010000
00000000
,  // measure 18
00100000
00010000
00001000
00000000
00102000
00000000
00013000
00000000
,  // measure 19
00010000
00001000
00000010
00000000
00000012
00000000
00000103
00000000
,  // measure 20
00002002
00000000
00003003
00000000
00001000
00000100
00001000
00000000
,  // measure 21
00010000
00000100
00010000
00000000
00011000
00000000
00100000
00000000
,  // measure 22
00202000
00000000
00303000
00000000
00100000
01000000
00100000
00000000
,  // measure 23
00100000
10000000
00100000
00000000
10100000
00000000
00010000
00000000
,  // measure 24
00220000
00000000
00330000
00000000
00100000
00010000
00001000
00000000
,  // measure 25
00010000
00001000
00000100
00000000
00001100
00000000
00000001
00000000
,  // measure 26
00002020
00000000
00003030
00000000
00010000
00000010
00001000
00000000
,  // measure 27
00010000
00001000
01000000
00000000
01010000
00000000
10100000
00000000
,  // measure 28
10010000
00000000
00010000
00110000
,  // measure 29
00010000
01010000
00010000
00011000
,  // measure 30
00000000
00001100
00001010
00001001
,  // measure 31
00001000
00000100
00000001
00000000
00001000
00000010
00000001
00000000
,  // measure 32
00000010
00000100
00001000
00010000
,  // measure 33
00100000
00010000
01000000
00000000
00000010
00001000
00000100
00000000
,  // measure 34
00010000
00000000
00001000
00000000
01000000
00100000
10000000
00000000
,  // measure 35
01000000
00100000
00010000
00000000
10010000
00000000
01100000
00000000
,  // measure 36
00011000
00000000
00001000
00000100
00000010
00000000
00000001
00000100
,  // measure 37
00000010
00000000
00001000
00000100
00000000
00001000
00010000
00000000
,  // measure 38
01010000
00000000
10000000
01000000
00010000
00000000
00010000
00100000
,  // measure 39
10000000
00000000
00100000
01000000
00000000
01000000
00100000
00000000
,  // measure 40
00010000
01010000
01010000
00011000
,  // measure 41
00011000
00000000
00001100
00000000
00001100
00000000
00000011
00000010
,  // measure 42
00000100
00000000
00001000
00000000
00000100
00000000
00000010
00000001
,  // measure 43
00000100
00000000
00001000
00000100
00000000
00010000
00001000
00000000
,  // measure 44
11000000
00000000
10000000
01000000
00100000
00000000
01000000
00100000
,  // measure 45
00010000
00000000
00001000
00010000
00000000
00010000
00000010
00000000
,  // measure 46
00001010
00000000
00001000
00000100
00010000
00000000
00010000
00000010
,  // measure 47
00001000
00000000
00001000
00000100
00000000
00000010
00000001
00000000
,  // measure 48
00001001
00001010
00001010
00011000
,  // measure 49
00011000
00000000
00110000
00000000
00110000
00000000
10100000
10000000
,  // measure 50
01000000
00000000
10000000
00000000
00010000
00000000
01000000
00100000
,  // measure 51
10000000
00000000
01000000
00100000
00000000
00001000
00010000
00000000
,  // measure 52
02010000
03001000
00001200
00010300
,  // measure 53
00100000
00000000
10000000
00010000
00000000
00100000
00010000
00000000
,  // measure 54
00210000
00301000
00001020
00010030
,  // measure 55
00001000
00000000
00010000
00100000
00000000
10000000
01000000
00000000
,  // measure 56
21000000
30010000
00210000
00301000
,  // measure 57
00010000
00000000
00000010
00000100
00000000
00000001
00001000
00000000
,  // measure 58
00011000
10010000
01000000
00100000
,  // measure 59
00010000
00000000
00001000
00001000
00000000
00010000
00010000
00000000
;

//---------------dance-double - EXPERT----------------
#NOTES:
     dance-double:
     :
     Hard:
     9:
     0.584213,0.536372,0.299231,0.129667,0.189513,410.000000,380.000000,30.000000,13.000000,0.000000,0.000000,0.584213,0.536372,0.299231,0.129667,0.189513,410.000000,380.000000,30.000000,13.000000,0.000000,0.000000:
00000000
00000000
00000000
00000000
,
00000000
00000000
00000000
00000000
,
00000000
00000000
00000000
00000000
,
00000000
00000000
00000110
00001001
,
00010000
00000000
00001000
00000000
00010000
00001000
00100000
01000000
,
10000000
01000000
00100000
00001000
00010000
00001000
01000000
00001000
,
00000100
00000100
00000001
00000000
00000001
00000010
00001000
00000010
,
00000001
00000010
00000100
00001000
00010000
00100000
10000000
01000000
,
00100000
00100000
00010000
00000000
10000000
00010000
01000000
00100000
,
01000000
00010000
00001000
00000100
00001000
00000010
00001000
00000001
,
00000010
00000010
00000100
00000000
00000010
00000001
00000100
00000010
,
00010000
00001000
00010000
00000100
00010000
01000000
00100000
00010000
,
01000000
00010000
00010000
00000000
00021000
00000000
00031000
00000010
,
00000001
00000100
00001000
00000100
00000001
00000000
00000100
00000001
,
00001010
00000000
00000101
00000000
00000001
00000100
00000010
00001000
,
00011000
00000000
10010000
00000000
00010000
00100000
10000000
00100000
,
01100000
00000000
10010000
00000000
00100000
00001000
01000000
00001000
,
00101000
00000000
01010000
00000000
00001000
01000000
00001000
00010000
,
00010100
00000000
00001010
00000000
00001000
00000010
00000001
00000010
,
00001000
00000010
00000001
00000100
00001000
00000100
00000001
00000010
,
00000011
00000000
00001100
00000000
00010000
00001000
00100000
00010000
,
01000000
00010000
00100000
01000000
10000000
01000000
00100000
00010000
,
00022000
00000000
00033000
00000000
00010000
01000000
00010000
10000000
,
00100000
01000000
00100000
10000000
01000000
00100000
00010000
00001000
,
00022000
00000000
00033000
00000000
00001000
00000100
00000001
00000100
,
00001000
00000001
00000100
00000010
00001000
00000100
00010000
00001000
,
00022000
00000000
00033000
00000000
00100000
00010000
01000000
00010000
,
10000000
01000000
00100000
00010000
00001000
00000010
00000100
00000001
,
00001000
00000000
00020000
01000000
,
00100000
01000000
10000000
20000000
,
30030000
00000000
00011000
00000000
00001001
00000000
00001000
00000100
,
00000001
00000100
00001000
00000010
00000001
00000010
00001000
00000000
,
00000001
00000010
00000100
00000010
00000001
00000100
00001000
01000000
,
00010000
00010000
01000000
01000000
00100000
10000000
01000000
00000000
,
00100000
01000000
10000000
00010000
10000000
01000000
00100000
00010000
,
00110000
00000000
00011000
00000000
00010000
00001000
01000000
00010000
,
10010000
00000000
00000000
00000000
00010000
01000000
00000000
00000000
00010000
00000000
00000000
00000000
00010000
00001000
00000000
00000000
,
00001000
00000010
00000000
00000000
00000010
00000100
00000000
00000000
00000100
00000001
00000000
00000000
00000001
00000000
00000100
00000000
,
00001000
00000000
00000000
00000000
00010000
00100000
00000000
00000000
10000000
00000000
00000000
00000000
01000000
10000000
00000000
00000000
,
10000000
00010000
00000000
00000000
00010000
00000000
00001000
00000000
00000010
00000000
00001000
00000000
00010000
00000000
01000000
00000000
,
10000000
00000000
00000000
00000000
00010000
01000000
00000000
00000000
00010000
01000000
00000000
00000000
00100000
10000000
00000000
00000000
,
00100000
10000000
00000000
00000000
00010000
01000000
00000000
00000000
00100000
10000000
00000000
00000000
10000000
00000000
00010000
00000000
,
10010000
00000000
00000000
00000000
00010000
01000000
00000000
00000000
00001000
00000000
00000000
00000000
00010000
00000000
00010000
00000000
,
00000010
00001000
00000000
00000000
00001000
00000001
00000000
00000000
00000001
00000100
00000000
00000000
00000100
00000000
00000001
00000000
,
00000101
00000000
00000000
00000000
00001000
00000010
00000000
00000000
00000010
00001000
00000000
00000000
00010000
01000000
00000000
00000000
,
01000000
00010000
00000000
00000000
00100000
00010000
00000000
00000000
00001000
00000100
00000000
00000000
00000100
00000000
00010000
00000000
,
00001000
00000000
00000000
00000000
00100000
00010000
00000000
00000000
10000000
00000000
00000000
00000000
00010000
00100000
00000000
00000000
,
01000000
00000000
10000000
00000000
00010000
00100000
00000000
00000000
00001000
00000000
00010000
00000000
00000100
00000010
00000000
00000000
,
00000001
00000000
00000000
00000000
00000100
00000001
00000000
00000000
00000100
00000001
00000000
00000000
00001000
00000010
00000000
00000000
,
00001000
00000010
00000000
00000000
00000100
00000010
00000000
00000000
00001000
00000001
00000000
00000000
00001000
00000000
00000100
00000000
,
00011000
00000000
00010000
01000000
00100000
00010000
00100000
01000000
,
00100000
00010000
00000000
00000000
00010000
00001000
00000000
00000000
00001000
00000100
00000000
00000000
00000100
00000001
00000000
00000000
,
00001002
00000000
00001003
00000000
00000010
00000001
00000100
00000010
,
00001000
00000100
00010000
00010000
00001000
00100000
00100000
00000000
,
10200000
00000000
01300000
00000000
01000000
00010000
00100000
00001000
,
00010000
00000100
00000010
00000010
00000001
00001000
00001000
00000000
,
02001000
00000000
03010000
00000000
00010000
00100000
01000000
10000000
,
00010000
01000000
00001000
00001000
00010000
00000010
00000010
00000000
,
00001002
00000000
00000103
00000000
00001000
00010000
00000100
00010000
,
00000010
00010000
00001000
00001000
01000000
00010000
00010000
00000000
;
