#TITLE:Got You;
#SUBTITLE:;
#ARTIST:Sunset Neon;
#TITLETRANSLIT:;
#SUBTITLETRANSLIT:;
#ARTISTTRANSLIT:;
#GENRE:;
#CREDIT:;
#BANNER:Got You-bn.png;
#BACKGROUND:Got You-bg.jpg;
#LYRICSPATH:;
#CDTITLE:;
#MUSIC:Got You.ogg;
#OFFSET:0.000000;
#SAMPLESTART:41.381847;
#SAMPLELENGTH:33.111172;
#SELECTABLE:YES;
#DISPLAYBPM:58.000000:116.000000;
#BPMS:0.000000=58.000000
,4.000000=116.000000
,58.000000=58.000000
,66.000000=116.000000
,161.000000=464.000000
,162.000000=58.000000
,168.000000=116.000000
;
#STOPS:24.000000=1.034483,
161.979172=0.387924,
168.000000=2.068960
;
#BGCHANGES:;
#KEYSOUNDS:;
#ATTACKS:;

//---------------dance-single - Axis----------------
#NOTES:
     dance-single:
     Axis:
     Challenge:
     9:
     0.625972,0.561629,0.529997,0.298590,0.724081,587.000000,516.000000,71.000000,40.000000,16.000000,0.000000,0.625972,0.561629,0.529997,0.298590,0.724081,587.000000,516.000000,71.000000,40.000000,16.000000,0.000000:
0000
0000
0000
0000
,
0M01
0000
1000
0000
1010
0000
0010
0100
0000
0100
0000
0010
0000
1000
0001
1000
,
0100
0000
0010
0000
0011
0000
0001
0100
0000
0100
0000
0010
0000
1000
0001
0010
,
0001
0000
1000
0000
1100
0000
0100
0010
0000
0010
0000
0100
0000
1000
0001
1000
,
0010
0000
0100
0000
0101
0000
0001
0010
0000
0010
0000
0100
0000
1000
0001
0100
,
0001
0000
1000
0000
1010
0000
0010
0100
0000
0100
0000
0010
0000
1000
0100
0010
,
0M01
1000
0000
0000
0000
0000
0000
0000
0000
0000
0000
0000
0010
0000
0000
0000
0000
0000
0000
0000
0000
0000
0000
0000
0000
0000
0000
0000
0000
0000
0000
0000
0000
0000
0000
0000
0010
0000
0000
0000
0000
0000
0000
0000
0000
0000
0000
0000
0000
0000
0000
0000
0000
0000
0000
0000
0000
0000
0000
0000
0010
0000
0000
0000
0000
0000
0000
0000
0000
0000
0000
0000
0100
0000
0000
0000
0000
0000
0000
0000
0000
0000
0000
0000
0000
0000
0000
0000
0000
0000
0000
0000
0000
0000
0000
0000
0101
0000
0000
0000
0000
0000
0000
0000
0000
0000
0000
0000
0000
0000
0000
0000
0000
0000
0000
0000
0000
0000
0000
0000
0000
0000
0000
0000
0000
0000
0000
0000
0000
0000
0000
0000
0000
0000
0000
0000
0000
0000
0000
0000
0000
0000
0000
0000
0001
0000
0000
0000
0000
0000
0000
0000
0000
0000
0000
0000
0000
0000
0000
0000
0000
0000
0000
0000
0000
0000
0000
0000
1000
0000
0000
0000
0000
0000
0000
0000
0000
0000
0000
0000
0000
0000
0000
0000
0000
0000
0000
0000
0000
0000
0000
0000
,
1100
0000
0000
0000
0011
0000
0000
1100
0000
0000
1000
0000
0001
0000
0100
0000
,
0101
0000
0000
0000
1010
0000
0000
0101
0000
0000
0001
0000
1000
0000
0010
0000
,
1010
0000
0000
0000
0101
0000
0000
1010
0000
0000
1000
0000
0001
0000
0000
0000
,
1000
0100
1000
0000
0001
0000
0001
0010
0000
0000
0100
0000
0110
0000
0010
0000
,
0011
0000
0000
0000
1100
0000
0000
0011
0000
0000
0001
0000
1000
0000
0010
0000
,
1010
0000
0000
0000
0101
0000
0000
1010
0000
1000
0100
0000
0010
0000
0001
0000
,
0101
0000
0000
0000
1010
0000
0000
0101
0000
0000
0001
0000
0010
0000
0000
0000
,
0001
0100
0001
0000
1000
0000
1000
0010
0M00
0000
0000
1000
0001
0000
0001
0010
,
0001
0000
0001
1000
0001
0000
0001
0100
0000
0010
1000
0001
1000
0000
1000
0010
,
1000
0000
1000
0001
1000
0000
1000
0100
M010
0000
0001
0000
0101
0000
0100
0010
,
0000
0010
1000
0000
1001
0000
0001
0000
0010
0000
0100
0000
1100
0000
1000
0010
,
0000
0010
0100
0000
0220
0330
0000
0000
2002
3003
0001
0000
1000
0000
0010
0100
,
0000
0100
0000
0010
0000
1000
0100
0010
0001
0000
1000
0000
0001
0000
0010
0100
,
0000
0100
0000
0010
0000
0001
0100
0010
1000
0000
0001
0000
0011
0000
0010
0100
,
0000
0100
1000
0000
1001
0000
0001
0000
0100
0000
0010
0000
1010
0000
1000
0100
,
0000
0100
0010
0000
0220
0330
0000
0000
2002
3003
0001
0000
1000
0000
0100
0010
,
0000
0010
0000
0100
0000
1000
0010
0100
0001
0000
1000
0000
0001
0000
0100
0010
,
0000
0010
0000
0100
0000
0001
0010
0100
1000
0000
0010
0000
0110
0000
0100
0001
,
0000
0001
1000
0000
1100
0000
0100
0000
0010
0000
0001
0000
0011
0000
0010
0001
,
0000
0001
0100
0000
0202
0303
0000
0000
2020
3030
0010
0000
1000
0000
0100
0010
,
0000
0010
0000
0100
0000
1000
0010
0100
0001
0000
0010
0000
0001
0000
0100
0010
,
0000
0010
0000
0100
0000
0001
0010
0100
1000
0000
0100
0000
0110
0000
0010
0001
,
0000
0001
1000
0000
1010
0000
0010
0000
0100
0000
0001
0000
0101
0000
0100
0001
,
0000
0001
0010
0000
0022
0033
0000
0000
2200
3300
0100
0000
1000
0000
0010
0100
,
0000
0100
0000
0010
0000
1000
0100
0010
0001
0000
1000
0010
0100
0000
0100
0001
,
0000
0001
1000
0000
1100
0000
0110
0000
0020
0000
0000
0000
0031
0000
0010
0001
,
0000
0010
0100
1000
0100
0000
1000
0000
0020
0000
0000
0000
1030
0000
0000
1010
,
0000
1000
0010
0000
0110
0000
0101
0000
0200
0000
0000
0000
0301
0000
0100
0001
,
0000
0100
0010
1000
0010
0000
1000
0000
0100
0010
0001
0010
0100
0000
2000
0M02
,
0000
00M0
0M00
0000
00M0
0000
3M03
0000
1001
0000
0000
0000
0001
0000
1000
0100
,
0000
0100
0010
0001
0010
0000
0100
0000
1000
0000
0001
0000
0100
0000
0010
1000
,
0000
0010
1000
0000
0100
0000
0010
0000
0001
0100
0001
1000
0001
0000
1000
0010
,
0000
0010
0100
0001
0100
0000
0010
0000
1000
0000
0100
1000
0001
1000
0010
0100
,
0001
1000
0100
0010
0002
0000
0000
0000
M003
0000
0000
0001
1000
0000
1000
0010
,
1000
0000
1000
0001
1000
0000
1000
0100
0000
0010
0001
1000
0001
0000
0001
0010
,
0M01
1000
0000
0000
0000
0000
0000
0000
0000
0000
0000
0000
0000
0000
0000
0000
0000
0000
0000
0000
0000
0000
0000
0000
0001
0000
0000
0000
0000
0000
0000
0000
0000
0000
0000
0000
0000
0000
0000
0000
0000
0000
0000
0000
0000
0000
0000
0000
0011
0000
0000
0000
0000
0000
0000
0000
0000
0000
0000
0000
0000
0000
0000
0000
0000
0000
0000
0000
0000
0000
0000
0000
0010
0000
0000
0000
0000
0000
0000
0000
0000
0000
0000
0000
0100
0000
0000
0000
0000
0000
0000
0000
0000
0000
0000
0000
0000
0000
0000
0000
0000
0000
0000
0000
0000
0000
0000
0000
0100
0000
0000
0000
0000
0000
0000
0000
0000
0000
0000
0000
1000
0000
0000
0000
0000
0000
0000
0000
0000
0000
0000
0000
0000
0000
0000
0000
0000
0000
0000
0000
0000
0000
0000
0000
1001
0000
0000
0000
0000
0000
0000
0000
0000
0000
0000
0000
0000
0000
0000
0000
0000
0000
0000
0000
0000
0000
0000
0000
0001
0000
0000
0000
0000
0000
0000
0000
0000
0000
0000
0000
0000
0000
0000
0000
0000
0000
0000
0000
0000
0000
0000
0000
,
0100
0000
0010
0000
1010
0000
1000
0100
0000
0100
0010
0000
0220
0330
0000
0000
,
2002
3003
0001
0000
1000
0000
0100
0010
0000
0010
0000
0100
0000
1000
0010
0100
,
0001
0000
1000
0000
0001
0000
0100
0010
0000
0010
0000
0100
0000
0001
0010
0100
,
1000
0000
0001
0000
0101
0000
0100
0010
0000
0010
1000
0000
1001
0000
0001
0000
,
0010
0000
0100
0000
1100
0000
1000
0010
0000
0010
0100
0000
0220
0330
0000
0000
,
2002
3003
0001
0000
1000
0000
0010
0100
0000
0100
0000
0010
0000
1000
0100
0010
,
0001
0000
1000
0000
0001
0000
0010
0100
0000
0100
0000
0010
0000
0001
0100
0010
,
1000
0000
0100
0000
0110
0000
0010
0001
0000
0001
1000
0000
1010
0000
0010
0000
,
0100
0000
0001
0000
0101
0000
0100
0001
0000
0001
0010
0000
0022
0033
0000
0000
,
2200
3300
0100
0000
1000
0000
0010
0100
0000
0100
0000
0010
0000
1000
0100
0010
,
0001
0000
0100
0000
0001
0000
0010
0100
0000
0100
0000
0010
0000
0001
0100
0010
,
1000
0000
0010
0000
0110
0000
0100
0001
0000
0001
1000
0000
1100
0000
0100
0000
,
0010
0000
0001
0000
0011
0000
0010
0001
0000
0001
0100
0000
0202
0303
0000
0000
,
2020
3030
0010
0000
1000
0000
0100
0010
0000
0010
0000
0100
0000
1000
0010
0100
,
0001
1000
0100
0010
0100
1000
0020
020M
0000
M000
000M
0000
M000
0000
033M
0000
;

//---------------dance-single - ----------------
#NOTES:
     dance-single:
     :
     Hard:
     8:
     0.534263,0.496826,0.298590,0.313519,0.496406,501.000000,461.000000,40.000000,42.000000,16.000000,0.000000,0.534263,0.496826,0.298590,0.313519,0.496406,501.000000,461.000000,40.000000,42.000000,16.000000,0.000000:
0000
0000
0000
0000
,
M001
0000
0010
0000
0001
0000
0000
1000
0000
0100
1000
0000
0001
0000
0000
0000
,
1000
0000
0010
0000
1000
0000
0000
0001
0000
0100
0001
0000
1000
0000
0000
0000
,
0100
0000
0010
0000
0100
0000
0000
1000
0000
0001
1000
0000
0010
0000
0000
0000
,
0100
0000
0010
0000
0100
0000
0000
0001
0000
1000
0010
0000
0220
0330
0000
0000
,
2002
3003
1000
0000
0001
0000
0000
0010
0000
0100
0010
0000
0001
0000
0000
0000
,
1M00
0001
0000
0000
0000
0000
0000
0000
0000
0000
0000
0000
1000
0000
0000
0000
0000
0000
0000
0000
0000
0000
0000
0000
0000
0000
0000
0000
0000
0000
0000
0000
0000
0000
0000
0000
0001
0000
0000
0000
0000
0000
0000
0000
0000
0000
0000
0000
0000
0000
0000
0000
0000
0000
0000
0000
0000
0000
0000
0000
1000
0000
0000
0000
0000
0000
0000
0000
0000
0000
0000
0000
0001
0000
0000
0000
0000
0000
0000
0000
0000
0000
0000
0000
0000
0000
0000
0000
0000
0000
0000
0000
0000
0000
0000
0000
0100
0000
0000
0000
0000
0000
0000
0000
0000
0000
0000
0000
0000
0000
0000
0000
0000
0000
0000
0000
0000
0000
0000
0000
0000
0000
0000
0000
0000
0000
0000
0000
0000
0000
0000
0000
0000
0000
0000
0000
0000
0000
0000
0000
0000
0000
0000
0000
0010
0000
0000
0000
0000
0000
0000
0000
0000
0000
0000
0000
0000
0000
0000
0000
0000
0000
0000
0000
0000
0000
0000
0000
0100
0000
0000
0000
0000
0000
0000
0000
0000
0000
0000
0000
0000
0000
0000
0000
0000
0000
0000
0000
0000
0000
0000
0000
,
0101
0000
0000
0000
0110
0000
0000
1010
0000
0000
1000
0000
0100
0000
0000
0000
,
1100
0000
0000
0000
0110
0000
0000
0011
0000
0000
0001
0000
0100
0000
0000
0000
,
0101
0000
0000
0000
1001
0000
0000
1010
0000
0010
1000
0000
0001
0000
0000
0000
,
1000
0100
1000
0000
0001
0000
0100
0010
0000
0000
0100
0000
0001
0000
0010
0000
,
0011
0000
0000
0000
0110
0000
0000
1100
0000
0000
1000
0000
0010
0000
0000
0000
,
1010
0000
0000
0000
0110
0000
0000
0101
0000
0100
0001
0000
1000
0000
0100
0000
,
1100
0000
0000
0000
1001
0000
0000
1010
0000
0010
0100
0000
0001
0000
1000
0000
,
0001
0010
0001
0000
1000
0000
0001
0010
M000
0000
0000
0001
0100
0000
0000
0100
,
0010
0000
0010
1000
0010
0000
1000
0100
0000
0000
0000
0100
0010
0000
0000
0010
,
0001
0000
0001
1000
0001
0000
1000
0001
10M0
0000
0100
0000
1000
0000
0001
0010
,
0000
0001
0010
0000
0100
0000
0000
0000
1000
0000
0010
0000
1000
0000
0001
0100
,
0000
0001
0100
0000
0220
0330
0000
0000
2002
3003
0001
0000
0010
0000
0100
1000
,
0000
0001
1000
0000
0010
0000
0100
0000
0001
0000
1000
0000
0100
0000
0010
0001
,
0000
1000
0001
0000
0100
0000
0001
0010
0001
0000
0100
0000
0001
0000
1000
0010
,
0000
1000
0010
0000
0100
0000
0000
0000
0001
0000
0010
0000
0001
0000
1000
0100
,
0000
1000
0100
0000
0220
0330
0000
0000
2002
3003
1000
0000
0010
0000
0100
0001
,
0000
1000
0001
0000
0010
0000
0100
0000
1000
0000
0001
0000
0100
0000
0010
1000
,
0000
0001
1000
0000
0100
0000
1000
0001
1000
0000
0010
0000
1000
0000
0001
0100
,
0000
0001
0100
0000
0010
0000
0000
0000
1000
0000
0100
0000
1000
0000
0001
0010
,
0000
0001
0010
0000
0220
0330
0000
0000
2002
3003
0001
0000
0100
0000
0010
1000
,
0000
0001
1000
0000
0100
0000
0010
0000
0001
0000
1000
0000
0010
0000
0100
0001
,
0000
1000
0001
0000
0010
0000
0001
0100
0001
0000
0010
0000
0001
0000
1000
0100
,
0000
1000
0100
0000
0010
0000
0000
0000
0001
0000
0100
0000
0001
0000
1000
0010
,
0000
1000
0010
0000
0220
0330
0000
0000
2002
3003
1000
0000
0100
0000
0010
0001
,
0000
1000
0001
0000
0100
0000
0010
0000
1000
0000
0001
0000
0010
0000
0100
1000
,
0000
0001
1000
0000
0010
0000
1000
0000
0001
0000
0000
0000
0011
0000
0000
0001
,
0000
1000
0010
1000
0010
0000
0000
0000
1000
0000
0000
0000
1100
0000
0000
0100
,
0000
1000
0001
0000
0100
0000
0001
0000
1000
0000
0000
0000
1010
0000
0000
1000
,
0000
0001
0010
0001
0010
0000
0000
0000
0001
0000
0000
0000
0100
0000
0002
M200
,
0000
00M0
M000
0000
00M0
0000
M303
0000
0001
0000
0000
0000
0100
0000
0010
1000
,
0000
1000
0001
0000
0010
0000
0100
0000
1000
0000
0100
0000
0010
0000
0001
0100
,
0000
0100
0010
0000
1000
0000
0001
0000
1000
0000
0100
0000
0010
0000
0001
1000
,
0000
1000
0010
0000
0100
0000
0010
0000
1000
0000
0001
0000
0010
0000
0100
1000
,
0000
1000
0001
0000
2002
0000
0000
0000
30M3
0000
0000
1000
0010
0000
0000
0010
,
0100
0000
0100
0001
0100
0000
0001
0010
0000
0000
0000
0010
0100
0000
0000
0100
,
10M0
0001
0000
0000
0000
0000
0000
0000
0000
0000
0000
0000
0000
0000
0000
0000
0000
0000
0000
0000
0000
0000
0000
0000
0100
0000
0000
0000
0000
0000
0000
0000
0000
0000
0000
0000
0000
0000
0000
0000
0000
0000
0000
0000
0000
0000
0000
0000
0001
0000
0000
0000
0000
0000
0000
0000
0000
0000
0000
0000
0000
0000
0000
0000
0000
0000
0000
0000
0000
0000
0000
0000
1000
0000
0000
0000
0000
0000
0000
0000
0000
0000
0000
0000
0010
0000
0000
0000
0000
0000
0000
0000
0000
0000
0000
0000
0000
0000
0000
0000
0000
0000
0000
0000
0000
0000
0000
0000
1000
0000
0000
0000
0000
0000
0000
0000
0000
0000
0000
0000
0010
0000
0000
0000
0000
0000
0000
0000
0000
0000
0000
0000
0000
0000
0000
0000
0000
0000
0000
0000
0000
0000
0000
0000
0100
0000
0000
0000
0000
0000
0000
0000
0000
0000
0000
0000
0000
0000
0000
0000
0000
0000
0000
0000
0000
0000
0000
0000
0000
0000
0000
0000
0000
0000
0000
0000
0000
0000
0000
0000
0000
0000
0000
0000
0000
0000
0000
0000
0000
0000
0000
0000
,
0001
0000
0010
0000
0001
0000
1000
0100
0000
1000
0100
0000
0220
0330
0000
0000
,
2002
3003
1000
0000
0010
0000
0100
0001
0000
1000
0001
0000
0010
0000
0100
0000
,
1000
0000
0001
0000
0100
0000
0010
1000
0000
0001
1000
0000
0100
0000
1000
0010
,
1000
0000
0100
0000
1000
0000
0001
0010
0000
0001
0010
0000
0100
0000
0000
0000
,
1000
0000
0010
0000
1000
0000
0001
0100
0000
0001
0100
0000
0220
0330
0000
0000
,
2002
3003
0001
0000
0010
0000
0100
1000
0000
0001
1000
0000
0010
0000
0100
0000
,
0001
0000
1000
0000
0100
0000
0010
0001
0000
1000
0001
0000
0100
0000
0001
1000
,
0001
0000
0010
0000
0001
0000
1000
0100
0000
1000
0100
0000
0010
0000
0000
0000
,
0001
0000
0100
0000
0001
0000
1000
0010
0000
1000
0010
0000
0220
0330
0000
0000
,
2002
3003
1000
0000
0100
0000
0010
0001
0000
1000
0001
0000
0100
0000
0010
0000
,
1000
0000
0001
0000
0010
0000
0100
1000
0000
0001
1000
0000
0010
0000
1000
0100
,
1000
0000
0010
0000
1000
0000
0001
0100
0000
0001
0100
0000
0010
0000
0000
0000
,
1000
0000
0100
0000
1000
0000
0001
0010
0000
0001
0010
0000
0220
0330
0000
0000
,
2002
3003
0001
0000
0100
0000
0010
1000
0000
0001
1000
0000
0100
0000
0010
0000
,
0001
0100
0010
1000
0001
0100
0020
200M
0000
0M00
000M
0000
0M00
0000
303M
0000
;

//---------------dance-single - ----------------
#NOTES:
     dance-single:
     :
     Medium:
     6:
     0.314586,0.345618,0.074647,0.037324,0.085845,295.000000,285.000000,10.000000,5.000000,9.000000,0.000000,0.314586,0.345618,0.074647,0.037324,0.085845,295.000000,285.000000,10.000000,5.000000,9.000000,0.000000:
0000
0000
0000
0000
,
1000
0000
0000
0000
0001
0000
0000
0100
0000
0000
0001
0000
0010
0000
0000
0000
,
0001
0000
0000
0000
1000
0000
0000
0100
0000
0000
1000
0000
0010
0000
0000
0000
,
1000
0000
0000
0000
0100
0000
0000
0010
0000
0000
0001
0000
0100
0000
0000
0000
,
0001
0000
0000
0000
0100
0000
0000
0010
0000
0000
1000
0000
0100
0000
0000
0000
,
1000
0000
0000
0000
0001
0000
0000
0010
0000
0000
0100
0000
1000
0000
0000
0000
,
0002
0003
1000
0100
,
0010
0000
0000
0000
0100
0000
0000
0100
0000
0000
0000
0000
1000
0000
0000
0000
,
0010
0000
0000
0000
0100
0000
0000
0100
0000
0000
0000
0000
0010
0000
0000
0000
,
1000
0000
0000
0000
0001
0000
0000
0001
0000
0000
0000
0000
0010
0000
0000
0000
,
0001
0000
0100
0000
0001
0000
0000
0001
0000
0000
0000
0000
0100
0000
0000
0000
,
0010
0000
0000
0000
0100
0000
0000
0100
0000
0000
0000
0000
0001
0000
0000
0000
,
0010
0000
0000
0000
0100
0000
0000
0100
0000
0000
0000
0000
0010
0000
0000
0000
,
0001
0000
0000
0000
1000
0000
0000
1000
0000
0000
0000
0000
0010
0000
0000
0000
,
1000
0000
0100
0000
1000
0000
0000
1000
00M0
0000
0000
0000
0001
0000
0001
0000
,
1000
1000
0010
0100
0010
0100
0001
0001
,
1000
1000
0100
0010
010M
0000
1000
0000
,
0001
0100
0001
0100
0000
0100
0000
0010
,
0000
0010
0000
1000
0000
1000
0100
0000
,
0010
0100
1000
0001
,
0010
0001
1000
0010
,
1000
0100
1000
0100
0000
0100
0000
0010
,
0000
0010
0000
0001
0000
0001
0100
0001
,
1000
1000
0000
0100
0000
0010
0100
0000
,
1000
0001
0010
0001
,
1000
0010
1000
0010
0000
0010
0000
0100
,
0000
0100
0000
0001
0000
0001
0010
0000
,
0100
0010
0001
1000
,
0100
1000
0001
0100
,
0001
0010
0001
0010
0000
0010
0000
0100
,
0000
0100
0000
1000
0000
1000
0010
1000
,
0001
0000
0001
0000
0000
0000
0010
0000
0000
0000
0100
0000
0010
0000
0000
0001
,
0000
1000
0001
0000
0100
0000
0100
0000
0001
0000
0000
0000
0101
0000
0000
0000
,
0100
0000
0000
0000
0110
0000
0000
0000
0010
0000
0000
0000
1010
0000
0000
1000
,
0000
0001
1000
0000
0100
0000
0100
0000
1000
0000
0000
0000
1100
0000
0000
0000
,
0100
0110
0010
0022
,
0033
0000
0001
1001
,
1000
0010
1000
0010
0100
0000
0110
0000
,
0010
0100
0010
0100
0001
0000
0101
0000
,
0100
0001
0100
0001
1000
0000
1100
0000
,
0100
0010
0002
0000
M003
0000
1000
1000
,
0001
0001
0100
0010
0100
0010
1000
1000
,
0M01
0010
0000
0000
0000
0000
0000
0000
0000
0000
0000
0000
0000
0000
0000
0000
0000
0000
0000
0000
0000
0000
0000
0000
0000
0000
0000
0000
0000
0000
0000
0000
0000
0000
0000
0000
0000
0000
0000
0000
0000
0000
0000
0000
0000
0000
0000
0000
0001
0000
0000
0000
0000
0000
0000
0000
0000
0000
0000
0000
0000
0000
0000
0000
0000
0000
0000
0000
0000
0000
0000
0000
0000
0000
0000
0000
0000
0000
0000
0000
0000
0000
0000
0000
0000
0000
0000
0000
0000
0000
0000
0000
0000
0000
0000
0000
1000
0000
0000
0000
0000
0000
0000
0000
0000
0000
0000
0000
0000
0000
0000
0000
0000
0000
0000
0000
0000
0000
0000
0000
0010
0000
0000
0000
0000
0000
0000
0000
0000
0000
0000
0000
0000
0000
0000
0000
0000
0000
0000
0000
0000
0000
0000
0000
1000
0000
0000
0000
0000
0000
0000
0000
0000
0000
0000
0000
0000
0000
0000
0000
0000
0000
0000
0000
0000
0000
0000
0000
0010
0000
0000
0000
0000
0000
0000
0000
0000
0000
0000
0000
0000
0000
0000
0000
0000
0000
0000
0000
0000
0000
0000
0000
,
0000
0010
0000
0100
0000
0100
0000
0001
,
0000
0001
0010
0000
0100
0000
0010
0000
,
0001
1000
0100
1000
,
0001
0000
0100
0000
0001
0010
0001
0010
,
0000
0010
0000
0100
0000
0100
0000
1000
,
0000
1000
0010
1000
0001
0001
0000
0010
,
0000
0100
0010
0000
0001
0000
1000
0000
,
0100
0000
1000
0000
0001
0100
0001
0100
,
0000
0100
0000
0010
0000
0010
0000
1000
,
0000
1000
0100
0000
0010
0000
0100
0000
,
1000
0001
0010
0001
,
1000
0000
0010
0000
1000
0100
1000
0100
,
0000
0100
0000
0010
0000
0010
0000
0001
,
0000
0001
0100
0001
1000
1000
0000
0100
,
0010
0100
0010
0100
1000
0100
1000
020M
0000
000M
000M
0000
000M
0000
030M
0000
;

//---------------dance-single - ----------------
#NOTES:
     dance-single:
     :
     Easy:
     3:
     0.179154,0.236073,0.014929,0.007465,0.000000,168.000000,166.000000,2.000000,1.000000,0.000000,0.000000,0.179154,0.236073,0.014929,0.007465,0.000000,168.000000,166.000000,2.000000,1.000000,0.000000,0.000000:
0000
0000
0000
0000
,
1000
0001
1000
0000
,
0010
0100
0010
0000
,
1000
0001
1000
0000
,
0100
0010
0100
0000
,
1000
0001
1000
0001
,
1001
0000
1000
0000
,
0001
0010
0100
0000
,
1000
0010
0100
0000
,
0001
0100
0010
0000
,
1000
0100
0010
0000
,
0001
1000
0100
0000
,
1000
0001
0100
0000
,
0001
1000
0010
0000
,
1000
0001
0000
1000
,
1000
0100
0100
1000
,
1000
0001
0001
0000
,
1000
0000
0001
0100
,
0001
0100
0010
0000
,
0010
0000
1000
0000
,
1000
0000
0001
0000
,
1000
0000
0001
0010
,
0001
0010
0100
0010
,
0100
0010
0001
0000
,
0001
0000
1000
0000
,
0001
0000
1000
0100
,
1000
0100
0010
0000
,
0010
0000
0001
0000
,
0001
0000
1000
0000
,
0001
0000
1000
0010
,
1000
0010
0100
0010
,
0100
0010
1000
1000
,
0001
0001
1000
0000
,
1000
0000
0001
0000
,
0001
1000
0100
0000
,
1000
0000
1100
0000
,
0000
0000
1000
0000
,
0001
0001
0001
0000
,
1000
1000
1000
0000
,
0010
0010
0010
0000
,
0100
0200
0300
0001
,
0001
0100
0100
0001
,
0001
0000
1000
0000
,
0001
0010
0001
0010
,
0100
0000
0100
0000
,
1000
0000
1000
0000
,
0001
0000
1000
0000
,
0001
0100
0001
0100
,
0010
0100
0010
0100
,
0001
0000
0001
0000
,
1000
0000
0001
0000
,
1000
0010
1000
0010
,
0100
0000
0100
0000
,
0001
0000
0001
0000
,
1000
0000
0001
0000
,
1000
0100
1000
0100
,
0010
0100
0010
0100
,
1000
0001
1000
0001
1000
0000
0000
0000
;

//---------------dance-single - ----------------
#NOTES:
     dance-single:
     :
     Beginner:
     1:
     0.076780,0.107306,0.000000,0.000000,0.000000,72.000000,72.000000,0.000000,0.000000,0.000000,0.000000,0.076780,0.107306,0.000000,0.000000,0.000000,72.000000,72.000000,0.000000,0.000000,0.000000,0.000000:
// measure 0
0000
0000
0000
0000
,  // measure 1
0001
0000
0000
0000
,  // measure 2
0001
0000
0000
0000
,  // measure 3
1000
0000
0000
0000
,  // measure 4
1000
0000
0000
0010
,  // measure 5
0010
0000
0000
0000
,  // measure 6
0100
0000
0001
0000
,  // measure 7
0000
0000
0001
0000
,  // measure 8
0000
0000
1000
0000
,  // measure 9
0000
0000
1000
0000
,  // measure 10
0000
0000
0100
0000
,  // measure 11
0000
0000
0100
0000
,  // measure 12
0000
0000
0010
0000
,  // measure 13
0000
0000
0010
0000
,  // measure 14
0000
0000
0000
0000
,  // measure 15
0001
0000
1000
0000
,  // measure 16
0001
0000
1000
0000
,  // measure 17
0000
0000
0001
0000
,  // measure 18
0001
0000
0001
0000
,  // measure 19
0000
0000
1000
0000
,  // measure 20
0000
0000
0001
0000
,  // measure 21
0000
0000
0100
0000
,  // measure 22
0100
0000
0100
0000
,  // measure 23
0000
0000
0010
0000
,  // measure 24
0000
0000
0100
0000
,  // measure 25
0000
0000
0001
0000
,  // measure 26
0001
0000
0001
0000
,  // measure 27
0000
0000
1000
0000
,  // measure 28
0000
0000
0001
0000
,  // measure 29
0000
0000
0010
0000
,  // measure 30
0010
0000
0010
0000
,  // measure 31
0000
0000
0100
0100
,  // measure 32
0100
0000
1000
0000
,  // measure 33
0000
0000
0001
0000
,  // measure 34
0000
0000
1000
0000
,  // measure 35
0000
0000
0001
0000
,  // measure 36
0000
0000
0100
0000
,  // measure 37
0000
0000
0010
0000
,  // measure 38
0000
0000
0100
0000
,  // measure 39
0000
0000
0010
0000
,  // measure 40
0000
0000
0000
0000
,  // measure 41
1000
0000
0001
0000
,  // measure 42
1000
0000
0000
0000
,  // measure 43
0001
0000
0001
0000
,  // measure 44
0001
0000
0000
0000
,  // measure 45
1000
0000
0000
0000
,  // measure 46
0010
0000
0000
0000
,  // measure 47
0100
0000
0100
0000
,  // measure 48
0100
0000
0000
0000
,  // measure 49
0001
0000
0000
0000
,  // measure 50
1000
0000
0000
0000
,  // measure 51
0001
0000
0001
0000
,  // measure 52
0001
0000
0000
0000
,  // measure 53
1000
0000
0000
0000
,  // measure 54
0100
0000
0000
0000
,  // measure 55
0010
0000
0010
0000
,  // measure 56
0010
0000
0000
0000
,  // measure 57
0001
1000
0001
0000
;
