#TITLE:Yine;
#SUBTITLE:;
#ARTIST:Kurban;
#TITLETRANSLIT:;
#SUBTITLETRANSLIT:;
#ARTISTTRANSLIT:;
#GENRE:;
#CREDIT:;
#MENUCOLOR:;
#METERTYPE:DDR;
#BANNER:[Round 1] - Yine.png;
#BACKGROUND:[Round 1] - Yine-bg.png;
#LYRICSPATH:;
#CDTITLE:./CDTITLES/NONE.PNG;
#MUSIC:[Round 1] - Yine.ogg;
#OFFSET:0.000;
#SAMPLESTART:44.690;
#SAMPLELENGTH:15.000;
#SELECTABLE:YES;
#LISTSORT:;
#BPMS:0.000=145.000;
#STOPS:;
#BGCHANGES:0.000=[Round 1] - Yine.avi=1.000=0=0=0,
99999=-nosongbg-=1.000=0=0=0 // don't automatically add -songbackground-
;
#ATTACKS:;

//---------------dance-single - ----------------
#NOTES:
     dance-single:
     :
     Beginner:
     1:
     0.094,0.144,0.009,0.079,0.000:
0000
0000
0000
0000
,
0000
0000
0000
0000
,
0000
0000
0000
0000
,
0000
0000
0000
0000
,
0000
0000
0000
0000
,
0000
0000
0000
0000
,
0000
0000
0000
0000
,
0010
0000
0000
0000
,
0010
0000
0000
0000
,
0100
0000
0100
0000
,
0100
0000
0000
0000
,
0001
0000
0000
0000
,
1000
0000
0000
0000
,
0001
0000
0000
0000
,
0010
0000
0000
0000
,
0100
0000
0000
0000
,
1000
0000
0000
0000
,
0001
0000
0000
0000
,
0100
0000
0010
0000
,
1000
0000
0000
0000
,
0001
0000
1000
0000
,
0001
0000
0000
0000
,
1000
0000
0100
0000
,
0010
0000
0000
0000
,
0001
0000
0100
0000
,
0010
0000
0000
0000
,
2000
0000
3000
0000
,
1001
0000
0000
0000
,
0010
0000
0000
0000
,
0100
0000
0100
0000
,
0100
0000
0000
0000
,
0001
0000
0000
0000
,
0010
0000
0000
0000
,
0001
0000
0001
0000
,
0001
0000
0000
0000
,
2000
0000
0000
0000
,
3000
0000
0000
0000
,
0002
0000
0000
0000
,
0003
0000
0000
0000
,
0200
0000
0000
0000
,
0300
0000
0000
0000
,
0020
0000
0000
0000
,
0030
0000
0000
0000
,
1000
0000
0000
0000
,
1000
0000
1000
0000
,
0001
0000
0000
0000
,
0001
0000
0001
0000
,
0010
0000
0000
0000
,
0100
0000
0100
0000
,
0010
0000
0000
0000
,
0001
0000
0001
0000
,
1000
0000
0000
0000
,
0001
0000
0000
0000
,
0100
0000
0100
0000
,
0100
0000
0000
0000
,
0010
0000
0000
0000
,
1000
0000
0000
0000
,
0001
0000
0001
0000
,
0001
0000
0000
0000
,
2000
0000
0000
0000
,
3000
0000
0000
0000
,
0002
0000
0000
0000
,
0003
0000
0000
0000
,
0200
0000
0000
0000
,
0300
0000
0000
0000
,
0020
0000
0000
0000
,
0030
0000
0000
0000
;

//---------------dance-single - ----------------
#NOTES:
     dance-single:
     :
     Easy:
     3:
     0.175,0.231,0.044,0.201,0.000:
0000
0000
0000
0000
,
0000
0000
0000
0000
,
0000
0000
0000
0000
,
0000
0000
0000
0000
,
0000
0000
0000
0000
,
0000
0000
0000
0000
,
0000
0000
0000
0000
,
0010
0000
0010
0000
,
0100
0100
0100
0000
,
0002
0003
2000
3000
,
0002
0000
0000
0003
,
2000
0000
0000
3000
,
0020
0000
0000
0030
,
0200
0000
0000
0300
,
0002
0000
0000
0003
,
2000
0000
0000
3000
,
0200
0000
0000
0300
,
0020
0000
0000
0030
,
0002
0000
0000
0003
,
1000
0000
1000
0000
,
0020
0000
0000
0030
,
0100
0000
0100
0000
,
0002
0000
0000
0003
,
1000
0000
0001
0000
,
2000
0000
0000
3000
,
0010
0000
0100
0000
,
0020
0000
0000
0030
,
1001
0000
0000
0000
,
0100
0100
0100
0000
,
0010
0000
0010
0000
,
0001
0000
0001
0000
,
1001
0000
0000
0000
,
0010
0010
0010
0000
,
1000
0000
1000
0000
,
0001
0000
0000
0000
,
2000
0001
0000
0001
,
3001
0000
0000
0000
,
0002
1000
0000
1000
,
1003
0000
0000
0000
,
0020
0100
0000
0100
,
0130
0000
0000
0000
,
0200
0010
0000
0010
,
0310
0000
0000
0000
,
1001
0000
1000
0000
,
0001
0001
0001
0000
,
0010
0000
0100
0000
,
0010
0010
0010
0000
,
0001
0000
1000
0000
,
0001
0010
0001
0000
,
1000
0000
0001
0000
,
1000
0100
1000
0000
,
1001
0000
0000
0000
,
0010
0010
0010
0000
,
0100
0000
0100
0000
,
0001
0000
1000
0001
,
1001
0000
0000
0000
,
0100
0100
0100
0000
,
1000
0000
0010
0000
,
0100
0000
0001
0000
,
2000
0100
0000
0100
,
3100
0000
0000
0000
,
0002
0100
0000
0100
,
0103
0000
0000
0000
,
0020
1000
0000
1000
,
1030
0000
0000
0000
,
0002
0010
0000
0010
,
0013
0000
0000
0000
;

//---------------dance-single - ----------------
#NOTES:
     dance-single:
     :
     Medium:
     6:
     0.420,0.410,0.061,0.315,0.000:
0000
0000
0000
0000
,
0000
0000
0000
0000
,
0000
0000
0000
0000
,
0000
0000
0000
0000
,
0000
0000
0000
0000
,
0000
0000
0000
0000
,
0000
0000
0000
0000
,
0020
1000
1030
0000
,
0001
0100
0001
0000
0100
0000
0000
0000
,
0001
0020
0000
0031
1000
0000
0001
0000
,
1000
0020
0000
1030
0001
1000
0000
1000
,
0020
0000
0130
0000
0001
0100
0000
0000
,
0001
0000
0001
0000
1000
0100
0000
0000
,
2000
0000
3001
0000
1000
0010
0000
0000
,
1000
0000
0100
0000
0010
0001
0000
0000
,
2000
0000
3010
0000
0100
0010
0000
0000
,
1000
0000
0100
0000
0010
0001
0000
0000
,
0200
0000
0310
0000
1000
0001
0000
0000
,
0010
0000
0100
0000
1000
0010
0000
0000
,
2000
0000
3001
0000
0100
0001
0000
0000
,
0100
0000
0010
0000
0100
0010
0000
0000
,
2000
0000
3001
0000
0010
0100
0000
0000
,
1000
0000
0001
0000
1000
0001
0000
0000
,
0200
0000
0310
0000
0100
0001
0000
0000
,
1000
0100
1000
0000
0001
1000
0000
0000
,
0020
0000
0130
0000
0001
1000
0000
0000
,
0002
0010
0100
1003
,
2001
0000
3010
0000
0100
0001
0100
0000
,
0001
0010
0100
1000
,
0001
0020
0000
0031
1000
0002
0000
1003
,
0010
2000
0000
3001
0100
0001
0000
1000
,
0020
0000
0130
0000
0010
1000
0010
0000
,
1000
0100
0010
0001
,
1000
0200
0000
1300
0010
2000
0000
3001
,
1000
0002
0000
0013
0001
0010
0000
0001
,
2000
0100
0010
3001
,
0100
0000
0100
0000
0010
1000
0001
0000
,
0020
0001
0100
1030
,
0001
0000
0100
0000
0010
1000
0000
0001
,
2000
0010
0100
3001
,
1000
0000
0100
0000
1000
0001
0100
0000
,
0002
0010
1000
0103
,
0010
0000
0001
0000
1000
0010
0000
0100
,
0020
0000
1030
0010
1000
0010
0000
1000
,
0001
0001
1000
0000
0001
0010
0000
0001
,
2000
0000
3010
0100
0010
0100
0000
0001
,
1000
1000
0100
0000
0010
0001
0000
1000
,
0020
0000
0130
0010
0100
0010
0000
1000
,
0001
0001
0010
0000
0001
1000
0000
0001
,
0200
0000
0310
0100
0010
0100
0000
0001
,
0010
0001
1000
0000
0010
0000
0110
0000
,
0020
0000
1030
0000
0001
0100
0001
0000
,
1000
0100
0010
0001
,
1000
0200
0000
1300
0010
0200
0000
0301
,
0010
0200
0000
0310
0001
1000
0000
0001
,
0200
0000
0310
0000
0100
0001
0100
0000
,
0001
0010
0100
1000
,
0001
0020
0000
0031
1000
0200
0000
1300
,
0010
0200
0000
0310
1000
0001
0000
1000
,
0010
0000
1010
0000
0001
0100
0001
0000
,
1000
0000
0100
0000
1000
0001
1000
0000
,
0001
0000
0011
0000
0001
0010
0100
0000
,
0010
0001
0100
0000
0010
1000
0000
0001
,
1000
0000
1001
0000
1000
0100
0010
0000
,
0001
0100
0001
0000
0010
0001
0100
0000
,
0010
0000
0110
0000
0100
0001
1000
0000
,
0001
0010
0100
0000
1000
0010
0000
0110
;

//---------------dance-single - ----------------
#NOTES:
     dance-single:
     :
     Hard:
     8:
     0.646,0.556,0.140,0.438,0.092: // measure 1
0000
0000
0000
0000
,  // measure 2
0000
0000
0000
0000
,  // measure 3
0000
0000
0000
0000
,  // measure 4
0000
0000
0000
0000
,  // measure 5
0000
0000
0000
0000
,  // measure 6
0000
0000
0000
0000
,  // measure 7
0000
0000
0000
0000
,  // measure 8
0020
0000
0000
0000
1030
0000
0000
0001
0100
0000
0001
0000
0010
0000
0001
0000
,  // measure 9
1000
0000
0100
0000
1000
0000
0000
0001
0100
0000
0001
0000
0010
0000
0001
0000
,  // measure 10
1000
2000
0010
3100
0001
0002
0010
0103
,  // measure 11
1000
0000
2000
0000
0010
0000
3001
0000
0100
0000
0010
0000
1000
0000
0001
1000
,  // measure 12
0002
0000
0013
0100
0010
0010
0001
1000
,  // measure 13
0010
0010
0100
0001
1000
0010
0000
1000
,  // measure 14
0002
0000
0013
0100
0010
0010
0001
0100
,  // measure 15
0001
0000
0001
0000
1000
0100
1000
0000
0010
0000
0010
0000
0100
0000
0001
0000
,  // measure 16
2000
0000
3010
0100
0010
0010
1000
0100
,  // measure 17
0010
0010
0001
1000
0010
1000
0000
0010
,  // measure 18
0200
0000
0301
0010
0001
0001
1000
0100
,  // measure 19
1000
0000
0010
0000
1000
0001
1000
0000
0010
0000
0100
0000
0000
0000
0010
0000
,  // measure 20
2000
0000
3001
0010
0001
0001
1000
0100
,  // measure 21
0010
0010
0100
1000
0010
0100
0001
1000
,  // measure 22
0002
0000
1003
0010
1000
1000
0001
0100
,  // measure 23
0010
0000
0100
0000
0001
1000
0001
0000
0010
0000
0001
0000
0000
0000
1000
0000
,  // measure 24
0020
0000
1030
0100
1000
1000
0001
0100
,  // measure 25
0001
0010
0001
0100
0001
0010
0100
1000
,  // measure 26
0020
0000
0130
0001
0100
0100
0010
1000
,  // measure 27
0001
0000
0001
0000
1000
0100
1000
0000
0010
0000
0100
0000
0001
0000
1000
0000
,  // measure 28
2001
0000
0000
0000
3010
0000
0000
1000
0010
0000
1000
0000
0100
0000
0010
0000
,  // measure 29
0002
0000
0000
0000
0103
0000
0000
0001
0100
0000
0001
0000
0010
0000
0001
0000
,  // measure 30
1000
2000
0100
3001
0010
0020
0100
1030
,  // measure 31
0001
0002
0010
0103
1000
0010
0100
0010
,  // measure 32
2010
0000
0000
0000
3100
0000
0000
0010
0001
0000
0100
0000
0001
0000
1000
0000
,  // measure 33
0001
0001
0010
0010
0100
0100
1000
1000
,  // measure 34
0001
0002
0010
1003
0100
0200
0010
0301
,  // measure 35
1000
2000
0100
3001
0100
0010
1000
0001
,  // measure 36
1002
0000
0000
0000
0013
0000
0000
0001
0100
0000
0001
0000
1000
0000
0001
0000
,  // measure 37
2000
0000
0000
0000
3100
0000
0000
0010
0001
0000
1000
0000
0001
0000
0100
0000
,  // measure 38
0001
0200
1000
0310
1000
0200
0001
0310
,  // measure 39
1000
0020
1000
0130
0001
0010
0001
1000
,  // measure 40
2001
0000
0000
0000
3010
0000
0000
1000
0100
0000
1000
0000
0010
0000
0100
0000
,  // measure 41
0001
0010
1000
0010
0001
0100
1000
0100
,  // measure 42
0001
0020
0001
1030
0010
0200
0001
0310
,  // measure 43
1000
0000
0200
0000
1000
0000
0301
0000
0100
0000
0010
0000
1000
0000
0001
1000
,  // measure 44
0002
0000
0013
0001
0100
0101
0000
0001
,  // measure 45
1000
1000
0100
0100
0001
0100
0000
1000
,  // measure 46
0020
0000
1030
1000
0010
1010
0000
1000
,  // measure 47
0100
0000
0100
0000
1000
0001
1000
0000
0010
0000
0100
0000
0000
0000
0100
0000
,  // measure 48
0120
0000
1030
0001
0010
0001
0000
0001
,  // measure 49
1000
1000
0010
0010
0001
0011
0000
0010
,  // measure 50
2000
0000
3001
0010
1000
0010
0000
0010
,  // measure 51
0001
0000
1000
0000
0001
0100
0001
0000
0100
0000
0000
0000
0110
0000
0000
0000
,  // measure 52
1010
0000
0000
0000
1001
0000
0000
1000
0100
0000
0010
0000
0100
0000
1000
0000
,  // measure 53
0001
0010
1000
0010
0001
0100
1000
0100
,  // measure 54
0001
0002
0010
1003
0100
0200
0010
0301
,  // measure 55
1000
2000
0100
3001
0100
0010
1000
0001
,  // measure 56
1001
0000
0000
0000
1100
0000
0000
1000
0100
0000
0010
0000
0001
0000
1000
0000
,  // measure 57
0001
0010
1000
0010
0001
0100
1000
0100
,  // measure 58
0001
0020
0001
1030
0100
0020
1000
0130
,  // measure 59
1000
0002
0010
1003
0100
0010
1000
0001
,  // measure 60
2001
0000
0000
0000
3010
0000
0000
1000
0020
0000
0000
0000
2030
0000
0000
0000
,  // measure 61
3001
0010
0100
1000
0010
0100
1000
0100
,  // measure 62
0001
0002
0010
1003
0100
0200
1000
0310
,  // measure 63
1000
2000
0100
3001
0100
0010
0001
1000
,  // measure 64
1002
0000
0000
0000
0013
0000
0000
0001
0100
0000
0001
0000
1000
0000
0010
0000
,  // measure 65
1000
0100
0001
0100
1000
0010
0001
0010
,  // measure 66
1000
0200
0001
0310
0001
0200
1000
0310
,  // measure 67
0001
0000
0020
0000
0100
0000
1030
0001
0100
0000
0010
0000
1000
0000
1001
0000
;
