#VERSION:0.83;
#TITLE:Right On Time;
#SUBTITLE:;
#ARTIST:Robbie Danzie;
#TITLETRANSLIT:;
#SUBTITLETRANSLIT:;
#ARTISTTRANSLIT:;
#GENRE:;
#CREDIT:;
#MUSIC:[Round 1] - Right On Time.ogg;
#BANNER:[Round 1] - Right On Time.png;
#BACKGROUND:[Round 1] - Right On Time-bg.png;
#CDTITLE:;
#SAMPLESTART:6.992;
#SAMPLELENGTH:17.491;
#SELECTABLE:YES;
#OFFSET:-0.386;
#BPMS:0.000=136.000;
#STOPS:;
#DISPLAYBPM:136.000;
#BGCHANGES:;
#FGCHANGES:;

//--------------- dance-single - forcednature ----------------
#NOTEDATA:;
#STEPSTYPE:dance-single;
#DESCRIPTION:forcednature;
#DIFFICULTY:Beginner;
#METER:1;
#RADARVALUES:0,0,0,0,0;
#NOTES:
0000
0000
0000
0000
,
0000
0000
0000
0000
,
0000
0000
0000
0000
,
0000
0000
0000
0000
,
1000
0000
0001
0000
,
0100
0000
0001
0000
,
1000
0000
0100
0000
,
0010
0010
0010
0000
,
0001
0000
1000
0000
,
0010
0000
0100
0000
,
0001
0000
1000
0000
,
0100
0000
0010
0000
,
0001
0000
0000
0000
,
1000
0000
0000
0000
,
0010
0000
0000
0000
,
0100
0000
0000
0000
,
0001
0000
0100
0000
,
0001
0000
0100
0000
,
1000
0000
0100
0000
,
0010
0000
0000
0000
,
1000
0000
0100
0000
,
0010
0000
0001
0000
,
1000
0000
0010
0000
,
0100
0000
0000
0000
,
0001
0000
0100
0000
,
0010
0010
0010
0000
,
1000
0000
0100
0000
,
0010
0000
0000
0000
,
0001
0000
1000
0000
,
0100
0100
0100
0000
,
1000
0000
0001
0000
,
0100
0000
0000
0000
,
0010
0000
1000
0000
,
0001
0000
0100
0000
,
0010
0000
1000
0000
,
0010
0010
0010
0000
,
0100
0000
0001
0000
,
0010
0000
0100
0000
,
1000
0000
0001
0000
,
0010
0010
0000
0010
0000
0000
0000
0000
,
0100
0000
1000
0000
,
0001
0000
0100
0000
,
0010
0000
1000
0000
,
0010
0010
0010
0000
,
1000
0000
0001
0000
,
0010
0000
0100
0000
,
1000
0000
0001
0000
,
0100
0000
0010
0000
,
1000
0000
0000
0000
,
0001
0000
0000
0000
,
0100
0000
0000
0000
,
0010
0000
0000
0000
,
1001
0000
0000
0000
;

//--------------- dance-single - forcednature ----------------
#NOTEDATA:;
#STEPSTYPE:dance-single;
#DESCRIPTION:forcednature;
#DIFFICULTY:Easy;
#METER:4;
#RADARVALUES:0,0,0,0,0;
#NOTES:
0000
0000
0000
0000
,
0000
0000
0000
0000
,
0000
0000
0000
0000
,
0000
0000
0000
1000
,
0100
0010
0001
1000
,
0010
0000
0100
0000
0001
0000
1000
0100
,
1000
0010
0100
0001
,
1001
1001
1001
0001
,
0010
0100
1000
0010
,
0001
0000
0010
0000
1000
0000
0001
0100
,
0010
1000
0100
0010
,
0220
0330
2002
3003
,
2020
0000
0000
0000
3030
0000
0000
0100
,
0002
0000
0000
0000
0003
0000
0000
1000
,
0100
0010
0001
1000
,
0210
0010
0010
0310
,
1000
0000
0001
0000
0010
0001
0010
0000
,
0001
0000
1000
0000
0010
0100
0010
0000
,
1000
0000
0100
0000
0010
0001
0010
0000
,
0110
0000
0000
1001
0000
0000
0000
0000
,
0001
0000
0100
0000
0010
1000
0010
0000
,
1000
0000
0100
0000
0010
0001
0010
0000
,
0100
0000
1000
0000
0001
0100
0001
0000
,
1001
0000
0000
0110
0000
0000
0000
0000
,
1000
0000
0010
0000
1000
0100
0010
0000
,
0100
0000
1000
0000
0001
0100
0010
0000
,
0100
0000
0001
0000
0010
1000
0010
0000
,
0002
1003
2000
3001
,
0001
0000
1000
0000
0010
0100
1000
0000
,
0010
0000
0100
0000
0001
0010
0100
0000
,
1000
0000
0010
0000
0100
0001
0010
0000
,
0220
0330
1001
0001
,
0100
1000
0010
0100
,
0001
0000
1000
0000
0100
0000
0010
0001
,
1000
0010
0100
0001
,
1001
1001
1001
0001
,
0010
1000
0010
0100
,
1000
0100
0001
0100
,
1000
0010
0100
0001
,
0100
0010
0000
0100
0000
0000
0010
0000
,
1000
0001
1000
0100
,
0010
0001
1000
0010
,
0100
0001
1000
0100
,
1001
1001
1001
0001
,
0100
0010
1000
0001
,
1000
0000
0100
0000
0010
0000
0001
1000
,
0010
0100
0001
0010
,
0220
0330
2002
3003
,
2020
0000
0000
0000
3030
0000
0000
0100
,
0002
0000
0000
0000
0003
0000
0000
1000
,
0200
0000
0300
0000
,
0010
0001
1000
0010
,
1001
0000
0000
0000
;

//--------------- dance-single - forcednature ----------------
#NOTEDATA:;
#STEPSTYPE:dance-single;
#DESCRIPTION:forcednature;
#DIFFICULTY:Medium;
#METER:6;
#RADARVALUES:0,0,0,0,0;
#NOTES:
0000
0000
0000
0000
,
0000
0000
0000
0000
,
0000
0000
0000
0000
,
0000
0000
0000
0000
0000
0000
0001
0100
,
0010
0000
1000
0001
0010
0000
0100
1000
,
0001
0000
1000
0010
0100
0000
0001
1000
,
0100
0000
0010
0001
1000
0001
0010
0100
,
1000
0000
0001
0000
1001
0000
0010
1000
,
0001
0000
0100
0001
1000
0000
0100
1000
,
0001
0000
0010
0001
1000
0000
0010
0100
,
0001
0000
1000
0100
0010
0100
1000
0001
,
2000
3000
0002
0003
,
2002
0000
0000
0000
3003
0000
0000
0100
,
0220
0000
0000
0000
0330
0000
0000
0010
,
1000
0001
1000
0001
,
1000
0010
0100
0000
0001
0100
0010
0000
,
1000
0100
0010
0000
0100
0000
1000
0000
,
0001
0010
0100
0000
1000
0000
0010
0000
,
0100
0001
1000
0000
0100
0000
0010
0000
,
0202
0000
0303
2020
0000
3030
0000
0000
,
1000
0000
0001
0000
0010
0100
1000
0000
,
0010
0000
0100
0000
0001
1000
0100
0000
,
0010
0000
0001
0000
1000
0010
0100
0000
,
0220
0000
0330
2002
0000
3003
0000
0000
,
0001
0000
0100
0010
0000
1000
0000
0000
,
0011
0000
0110
0000
1100
0000
0000
1000
,
0010
0000
0100
0001
0000
0010
0000
0000
,
0220
0330
2002
3003
,
1000
0000
0001
0100
0000
0000
0000
0000
,
1100
0000
1001
0000
0011
0000
0000
0100
,
1000
0100
0010
0001
0000
0000
0000
0000
,
2002
0000
3003
0000
0110
0000
1000
0001
,
0100
0000
0010
1000
0100
0000
0010
0001
,
1000
0000
0001
0100
0010
0000
1000
0100
,
0010
0000
0100
1000
0001
0010
0100
1000
,
0001
0000
1000
0000
1001
0000
1000
0010
,
0100
0000
0001
0010
0001
0000
1000
0010
,
1000
0000
0001
0100
0010
0000
1000
0100
,
0010
0000
0100
1000
0001
0010
0100
1000
,
0001
1000
0000
1001
0000
0000
1000
0001
,
0100
0000
0001
0010
0100
0000
1000
0010
,
0100
0000
0001
1000
0100
0000
0010
0001
,
1000
0000
0010
0100
0001
0100
0010
1000
,
0001
0000
1000
0000
1001
0000
1000
0001
,
1000
0000
0100
1000
0001
0000
0010
0001
,
1000
0000
0010
0100
0001
0000
1000
0100
,
0010
0000
0100
0010
0001
0010
0100
1000
,
0002
0003
2000
3000
,
2002
0000
0000
0000
3003
0000
0000
0100
,
0220
0000
0000
0000
0330
0000
0000
0010
,
2002
0000
3003
0000
,
1000
0001
0010
0100
1000
0001
0100
0010
,
1000
0000
0000
0000
;

//--------------- dance-single - forcednature ----------------
#NOTEDATA:;
#STEPSTYPE:dance-single;
#DESCRIPTION:forcednature;
#DIFFICULTY:Hard;
#METER:7;
#RADARVALUES:0,0,0,0,0;
#NOTES:
0000
0000
0000
0000
,
0000
0000
0000
0000
,
0000
0000
0000
0000
,
0000
0000
0000
0000
0000
0000
1000
0001
,
0100
0000
0010
1000
0100
0000
0010
0001
,
1000
0000
0010
0001
0010
0000
1000
0100
,
0010
0000
0001
1000
0010
0100
0001
1000
,
0200
0300
0020
0030
2002
3003
1000
0001
,
0100
0000
0001
1000
0100
0000
0010
1000
,
0010
0000
0001
1000
0010
0000
0100
0001
,
1000
0000
0100
1000
0001
0010
1000
0010
,
0002
0000
0000
0000
2003
0000
3010
0100
,
0001
0000
0100
0000
0010
0000
0000
1000
0000
0000
0001
0000
0000
0000
0010
0000
,
0100
0000
1000
0000
0001
0000
0000
1000
0000
0000
0010
0000
0000
0000
0100
0000
,
0001
0000
1000
0000
0010
0000
0000
1000
0000
0000
0001
0000
0000
0000
0010
0000
,
0100
1000
0100
0010
0100
1000
0100
0010
,
0100
1000
0001
1000
0010
1000
0001
0100
,
0001
1000
0001
0010
0100
1000
0100
0010
,
0001
1000
0001
0100
0010
1000
0001
0100
,
0010
1000
0001
0020
0000
0000
0000
0000
,
0130
1000
0001
1000
0010
1000
0001
0100
,
0001
0010
0100
1000
0100
0010
0001
1000
,
0010
0100
0001
1000
0100
1000
0001
0010
,
0001
0100
0010
2000
0000
0000
0000
3010
,
0100
0001
0100
0010
0000
1001
0000
0100
,
0010
1000
0100
0010
0100
0000
1000
0001
,
0010
1000
0010
0001
0000
1000
0010
0100
,
0002
1003
2000
3001
,
0001
1000
0010
0100
0000
1001
0000
0001
,
0010
1000
0010
0100
1000
0001
0010
0100
,
1000
0001
0100
0010
1000
0001
1000
0010
,
0100
0001
0100
0001
1000
0000
0100
1000
,
0001
0000
0010
0001
1000
0000
0010
1000
,
0100
0000
0010
0001
1000
0000
0010
0100
,
0001
0000
1000
0100
0010
0100
1000
0010
,
0200
0300
0020
0030
2002
3003
1000
0001
,
0010
0000
0100
1000
0001
0000
1000
0010
,
0001
0000
0010
1000
0100
0000
0010
0001
,
1000
0000
0001
0100
1000
0100
0010
1000
,
0200
0320
0030
2002
3003
0000
1000
0010
,
0100
0000
0001
0010
1000
0000
0010
0001
,
1000
0000
0010
0100
0001
0000
1000
0100
,
0010
0000
0100
1000
0100
0001
0100
1000
,
0020
0030
0200
0300
2002
3003
1000
0010
,
0100
0000
0001
0010
1000
0000
0010
0001
,
0100
0000
0010
0100
1000
0000
0100
0001
,
1000
0000
0100
0010
0001
0010
1000
0010
,
0002
0000
0000
0000
2003
0000
3010
0100
,
0010
0000
1000
0000
0001
0000
0000
0010
0000
0000
0100
0000
0000
0000
1000
0000
,
0001
0000
1000
0000
0010
0000
0000
0100
0000
0000
0001
0000
0000
0000
1000
0000
,
0100
0000
1000
0000
0001
0000
0000
0010
0000
0000
0100
0000
0000
0000
1000
0000
,
0010
1000
0001
0100
0010
1000
0100
0010
,
0001
0000
0000
0000
;

//--------------- dance-single - forcednature ----------------
#NOTEDATA:;
#STEPSTYPE:dance-single;
#DESCRIPTION:forcednature;
#DIFFICULTY:Challenge;
#METER:9;
#RADARVALUES:0,0,0,0,0;
#NOTES:
0000
0000
0000
0000
,
0000
0000
0000
0000
,
0000
0000
0000
0000
,
0000
0000
0000
0000
0000
0000
1000
0100
,
0020
0000
1030
0010
0002
0000
1003
0010
,
0200
0000
0301
1000
0100
0000
0010
0001
,
2000
0000
3001
0100
0010
1000
0100
0010
,
1001
0000
0110
0000
1001
0000
1000
0010
,
0200
0000
0301
0010
2000
0000
3010
0100
,
2000
0000
3010
0100
0001
0000
1000
0010
,
0002
0000
0013
1000
0100
0010
0001
0100
,
2002
0000
0000
0000
3003
0000
0000
0000
0220
0000
0330
0000
1000
0001
1000
0001
,
1000
0000
1000
0000
0010
0100
0000
0001
0000
0000
0010
0000
0000
0000
0100
1000
,
0100
0000
1000
0000
0010
0100
0000
0001
0000
0000
0100
0000
0000
0010
1000
0010
,
1000
0000
0001
0000
0100
0010
0000
1000
0000
0000
0100
0000
0000
0000
0010
0001
,
0010
0100
0010
0100
1000
0100
1000
0100
1000
0001
1000
0001
0100
0001
0100
0001
,
0100
0010
1000
0001
0010
0100
1000
0000
,
0010
1000
0001
0100
0010
1000
0001
0000
,
1000
0100
0001
0100
1000
0010
0100
0001
,
0022
0000
0000
0033
0000
0000
2200
0000
0000
3300
0000
0000
0000
0000
0000
0000
,
1000
0001
0100
0010
1000
0100
0010
0000
,
0100
1000
0001
0100
1000
0100
0010
0000
,
1000
0100
0010
1000
0010
0001
1000
0010
,
2020
0000
0000
3030
0000
0000
0202
0303
0100
0001
0100
0001
1000
0100
1000
0100
,
0020
0000
0032
0100
0000
0010
0003
0000
,
1010
0000
0101
0000
1010
0000
0000
0001
,
0010
0100
1000
0010
0000
0100
0000
0000
,
0202
0000
0303
2200
0000
3300
0000
0010
,
2100
0000
3010
0102
0000
0000
0003
0000
,
1100
0000
0101
0000
0110
0000
0001
1000
,
0010
0100
0010
2000
0000
0000
3000
0000
,
0001
1000
0001
1000
0100
1000
0100
1000
0010
0000
0000
0000
1000
0000
0010
0000
,
0200
0000
0301
0010
0200
0000
1300
0010
,
0002
0000
0013
1000
0100
0000
0010
0001
,
0200
0000
0310
1000
0001
0010
0100
1000
,
1001
0000
0110
0000
1001
0000
1000
0010
,
0002
0000
0013
1000
0200
0000
0310
0001
,
2000
0000
3001
0100
1000
0000
0100
0010
,
2000
0000
3100
0010
1000
0010
0001
1000
,
1010
0000
0011
0000
0000
0000
1001
0000
0000
0000
0000
0000
0001
0100
0001
0100
,
0002
0000
0013
0100
1000
0000
0010
0001
,
0020
0000
1030
0100
0010
0000
0100
1000
,
0002
0000
1003
0010
0001
0010
0100
0010
,
1001
0000
0110
0000
1001
0000
1000
0100
,
0002
0000
0103
0010
0001
0000
1000
0010
,
0002
0000
0013
1000
0100
0000
0010
0001
,
2000
0000
3001
0010
0100
0001
0100
1000
,
2002
0000
0000
0000
3003
0000
0000
0000
0220
0000
0330
0000
0001
1000
0001
1000
,
0001
0000
0100
0000
0010
1000
0000
0001
0000
0000
0010
0000
0000
0000
0100
1000
,
0100
0000
1000
0000
0001
0100
0000
0010
0000
0000
1000
0000
0000
0001
0010
0001
,
0010
0000
0001
0000
1000
0010
0000
0100
0000
0000
0001
0000
0000
0000
1000
0100
,
1000
0001
1000
0001
0100
0001
0100
0001
1000
0010
1000
0010
1000
0001
1000
0001
,
0010
0000
0000
0000
;

//--------------- dance-single - forcednature vs. KONAMI ----------------
#NOTEDATA:;
#STEPSTYPE:dance-single;
#DESCRIPTION:forcednature vs. KONAMI;
#DIFFICULTY:Edit;
#METER:8;
#RADARVALUES:0,0,0,0,0;
#NOTES:
0000
0000
0000
0000
,
0000
0000
0000
0000
,
0000
0000
0000
0000
,
0000
0000
0000
0000
0000
0000
0101
MMMM
,
0101
0000
1100
MMMM
1100
0000
0110
MMMM
,
0110
0000
1010
0000
0011
0000
0011
MMMM
,
0011
0000
1010
MMMM
1010
0000
0110
MMMM
,
1001
0000
0110
0000
1001
0000
0010
1000
,
MMMM
0000
0010
0001
MMMM
0000
0010
0100
,
MMMM
0000
0101
0000
1100
0000
0100
1000
,
MMMM
0000
0100
0001
MMMM
0000
0100
0001
,
0101
MMMM
1100
MMMM
,
2020
0000
0000
3030
,
0022
0000
0000
0033
,
1010
0011
0101
1100
,
1001
0000
0000
MMMM
0000
0000
0110
0000
0000
MMMM
0000
0000
1001
0000
MMMM
0000
,
0011
0011
0011
0011
,
0101
0101
0101
0101
,
1100
0000
1100
0000
1100
0000
1100
1100
,
1010
0000
0000
MMMM
0000
0000
2002
0000
0000
0000
0000
0000
3003
0000
0000
0000
,
1100
1100
1100
1100
,
1010
0000
1010
0000
1010
0000
1010
1010
,
0011
0000
0000
0000
0011
0000
0000
0000
0011
0000
0000
0011
0000
0000
0011
0000
,
1001
0000
0000
MMMM
0000
0000
0220
0000
0000
0000
0000
0000
0330
0000
0000
0000
,
1001
MMMM
1010
MMMM
0011
MMMM
0101
MMMM
,
1001
MMMM
0101
MMMM
1100
MMMM
0110
MMMM
,
0011
MMMM
1001
MMMM
1100
MMMM
1010
MMMM
,
0011
MMMM
0101
MMMM
0110
MMMM
0110
MMMM
,
1001
MMMM
1001
MMMM
0110
MMMM
0110
MMMM
,
1001
MMMM
1001
MMMM
0110
MMMM
0110
MMMM
,
0101
MMMM
1010
MMMM
1100
MMMM
0011
MMMM
,
0001
1000
0100
0010
0001
0000
1010
MMMM
,
1010
0000
0011
MMMM
0011
0000
0110
MMMM
,
0110
0000
0101
0000
1100
0000
1100
MMMM
,
1100
0000
0101
MMMM
0101
MMMM
0110
MMMM
,
1001
0000
0110
0000
1001
0000
0100
0001
,
MMMM
0000
0100
1000
MMMM
0000
0100
0010
,
MMMM
0000
1010
0000
0011
0000
0010
0001
,
MMMM
0000
0010
1000
MMMM
0000
0010
1000
,
1010
1001
MMMM
0011
0000
0000
0001
0011
,
1001
0000
1000
1010
1001
0000
0100
0101
,
0110
0000
0010
1010
0110
0000
0100
1100
,
0011
0000
0001
0101
1010
0000
0010
0011
,
1001
0000
0110
0000
1001
0000
1010
1001
,
1001
MMMM
0101
0110
0110
MMMM
1010
1001
,
1001
MMMM
1100
0110
0110
MMMM
0011
0110
,
1100
MMMM
1010
0101
0011
MMMM
1100
0101
,
1001
MMMM
0110
MMMM
,
2200
0000
0000
3300
,
0202
0000
0000
0303
,
0110
1001
0110
1001
,
0011
0000
0000
1010
0000
0000
1100
0000
0000
0101
0000
0000
0011
0000
0110
0000
,
1001
0000
0000
0000
;

//--------------- dance-double - forcednature ----------------
#NOTEDATA:;
#STEPSTYPE:dance-double;
#DESCRIPTION:forcednature;
#DIFFICULTY:Easy;
#METER:4;
#RADARVALUES:0,0,0,0,0;
#NOTES:
00000000
00000000
00000000
00000000
,
00000000
00000000
00000000
00000000
,
00000000
00000000
00000000
00000000
,
00000000
00000000
00000000
00010000
,
00001000
00100000
00010000
10000000
,
01000000
00000000
00010000
00000000
00100000
00000000
00001000
00010000
,
00000010
00001000
00000001
00000100
,
00001001
00001001
00001001
00000010
,
00010000
00100000
00010000
01000000
,
00100000
00000000
00001000
00000000
01000000
00000000
00100000
10000000
,
01000000
00100000
00001000
00010000
,
00022000
00033000
02020000
03030000
,
20200000
00000000
00000000
00000000
30300000
00000000
00000000
01000000
,
02002000
00000000
00000000
00000000
03003000
00000000
00000000
00000100
,
00010100
00001000
00001000
00001000
,
00000010
00001000
00000001
00000100
,
00000001
00000000
00000010
00000000
00000100
00010000
00000100
00000000
,
00010000
00000000
00001000
00000000
01000000
00001000
01000000
00000000
,
00010000
00000000
00100000
00000000
01000000
10000000
01000000
00000000
,
02200000
03300000
00000000
20020000
30030000
00000000
00000000
00000000
,
10000000
00000000
00100000
00000000
01000000
00001000
01000000
00000000
,
00001000
00000000
00010000
00000000
00000100
00001000
00000100
00000000
,
00001000
00000000
00000010
00000000
00000100
00000001
00000100
00000000
,
00000220
00000330
00000000
00002002
00003003
00000000
00000000
00000000
,
00000001
00000010
00000100
00010000
,
00011000
01010000
00011000
01010000
,
10000000
00100000
01000000
00010000
,
00022000
00033000
00002200
00003300
,
00000010
00000001
00001000
00000010
,
00001010
00011000
00001010
00011000
,
00001000
00000010
00010000
00001000
,
00220000
00330000
11000000
01000000
,
10000000
00100000
01000000
00010000
,
00100000
00000000
00001000
00000000
00010000
00000000
00000100
00000001
,
00000100
00001000
00010000
01000000
,
00011000
00011000
00011000
00100000
,
00010000
10000000
00100000
01000000
,
00010000
00000000
00100000
00000000
01000000
00000000
10000000
01000000
,
00100000
01000000
10000000
00010000
,
10000000
00010000
00000000
01100000
00000000
00000000
00100000
00000000
,
01000000
00001000
00010000
00000100
,
00001000
00000000
00000010
00000000
00000100
00000000
00000001
00000010
,
00000100
00010000
01000000
00100000
,
00011000
00011000
00011000
01000000
,
00100000
10000000
01000000
00100000
,
10000000
00000000
00010000
00000000
01000000
00000000
10000000
00100000
,
10000000
01000000
00100000
01000000
,
00022000
00033000
02020000
03030000
,
00002200
00000000
00000000
00000000
00003300
00000000
00000000
00000010
,
00000002
00000000
00000000
00000000
00000003
00000000
00000000
00000001
,
00000200
00000000
00000300
00000000
,
00011000
01000000
00010000
00001000
,
00011000
00000000
00000000
00000000
;

//--------------- dance-double - forcednature ----------------
#NOTEDATA:;
#STEPSTYPE:dance-double;
#DESCRIPTION:forcednature;
#DIFFICULTY:Medium;
#METER:7;
#RADARVALUES:0,0,0,0,0;
#NOTES:
00000000
00000000
00000000
00000000
,
00000000
00000000
00000000
00000000
,
00000000
00000000
00000000
00000000
,
00000000
00000000
00000000
00000000
00000000
00000000
00010000
00001000
,
00100000
00000000
00010000
01000000
00001000
00000000
00100000
01000000
,
10000000
00000000
00010000
01000000
00001000
00000000
00010000
00000100
,
00000010
00000000
00000001
00000100
00000010
00010000
00001000
00100000
,
00010000
00000000
10000000
00000000
10010000
00000000
10000000
00100000
,
01000000
00000000
00001000
00010000
00000100
00000000
00001000
00000010
,
00000100
00000000
00000001
00000010
00001000
00000000
00010000
01000000
,
00100000
00000000
00010000
01000000
00100000
10000000
01000000
00100000
,
02000000
03000000
00200000
00300000
,
00022000
00000000
00000000
00033000
,
00002020
00000000
00000000
00003030
,
00210000
00010000
00010000
00010000
,
00301000
00010000
00001000
00010000
00001000
00010000
00001000
00010000
,
00001000
01000000
00010000
10000000
01000000
00000000
00100000
00000000
,
00010000
01000000
00001000
00010000
00000100
00000000
00001000
00000000
,
00000010
00000100
00000001
00000010
00000100
00000000
00001000
00000000
,
00022000
00000000
00033000
00022000
00000000
00033000
00000000
00000000
,
00010000
00001000
00100000
00010000
01000000
00000000
00100000
00000000
,
10000000
01000000
00100000
01000000
10000000
00000000
00010000
00000000
,
01000000
00001000
00010000
00000010
00001000
00000000
00000001
00000000
,
00002002
00000000
00003003
00002002
00000000
00000000
00003003
00000000
,
00000001
00000000
00000010
00000100
00000000
00001000
00000000
00000000
,
00011000
00000000
01010000
00000000
00001100
00000000
00000000
00010000
,
00001000
00100000
00001000
01000000
00000000
00100000
00000000
00000000
,
20020000
00000000
00000000
00000000
00000000
00000000
30030000
00000000
00000000
00000000
00000000
00000000
02200000
00000000
00000000
00000000
03300000
00000000
00000000
00000000
00000000
10000000
00000000
00000000
,
00100000
01000000
00010000
00100000
00000000
00000000
00001000
00000000
,
00011000
00000000
01010000
00000000
00001100
00000000
00010000
00001000
,
00010000
00000010
00001000
00000001
00000010
00000000
00000100
00000000
,
00000220
00000000
00000330
00000000
00002002
00003003
00000001
00000100
,
00000001
00000000
00010000
00001000
00100000
00000000
00010000
01000000
,
00001000
00000000
00100000
01000000
10000000
00000000
00010000
01000000
,
00001000
00000000
00010000
00000010
00000100
00000010
00001000
00000100
,
00000010
00000000
00000100
00000000
00001001
00000000
00000010
00000100
,
00000001
00000000
00000010
00000100
00010000
00000000
01000000
00100000
,
00001000
00000000
00010000
01000000
10000000
00000000
00100000
01000000
,
00010000
00000000
10000000
01000000
00100000
00010000
01000000
00001000
,
00010000
00001000
00000000
00011000
00000000
00000000
00001000
00010000
,
00000010
00000000
00001000
00000001
00000100
00000000
00000010
00010000
,
00001000
00000000
00100000
01000000
10000000
00000000
00100000
01000000
,
00010000
00000000
00100000
00001000
00010000
00000010
00001000
00000001
,
00000100
00000000
00000010
00000000
00001001
00000000
00001000
00000010
,
00000100
00000000
00000001
00000010
00000100
00000000
00010000
00001000
,
01000000
00000000
00010000
00100000
01000000
00000000
10000000
00100000
,
01000000
00000000
00010000
00100000
01000000
10000000
00010000
01000000
,
00002000
00003000
00020000
00030000
,
00022000
00000000
00000000
00033000
,
02020000
00000000
00000000
03030000
,
00002200
00000000
00000000
00003300
,
01000000
00001000
00010000
00000100
00100000
00001000
00010000
00000010
,
00001000
00000000
00000000
00000000
;

//--------------- dance-double - forcednature ----------------
#NOTEDATA:;
#STEPSTYPE:dance-double;
#DESCRIPTION:forcednature;
#DIFFICULTY:Hard;
#METER:8;
#RADARVALUES:0,0,0,0,0;
#NOTES:
00000000
00000000
00000000
00000000
,
00000000
00000000
00000000
00000000
,
00000000
00000000
00000000
00000000
,
00000000
00000000
00000000
00000000
00000000
00000000
00010000
00001000
,
00100000
00000000
00010000
00100000
10000000
00000000
00100000
00010000
,
01000000
00000000
00001000
00010000
00000100
00000000
00001000
00000100
,
00000001
00000000
00000100
00010000
00001000
01000000
00010000
10000000
,
01000000
00000000
00100000
00000000
10010000
00000000
10000000
01000000
,
00010000
00000000
00001000
00100000
00000010
00000000
00000100
00000001
,
00000010
00000000
00000100
00010000
01000000
00000000
00100000
00010000
,
10000000
00000000
00100000
01000000
00001000
00010000
00000010
00000100
,
00000002
00000000
00000000
00000000
00002003
00000000
00003010
00000100
,
00000001
00000000
00000010
00000000
00000100
00000000
00000000
00010000
00000000
00000000
01000000
00000000
00000000
00000000
00100000
00000000
,
00010000
00000000
10000000
00000000
00010000
00000000
00000000
01000000
00000000
00000000
00100000
00000000
00000000
00000000
00010000
00000000
,
00001000
00000000
00100000
00000000
00000010
00000000
00000000
00000100
00000000
00000000
00001000
00000000
00000000
00000000
00000100
00000000
,
00000001
00000000
00000100
00000000
00001000
00000000
00000000
00010000
00000000
00000000
00100000
00000000
00000000
00000000
01000000
00000000
,
00010000
00100000
10000000
00100000
01000000
00100000
00010000
00001000
,
00000100
00000001
00000100
00001000
00000010
00000100
00000001
00000010
,
00001000
00010000
01000000
10000000
00100000
01000000
00001000
00010000
,
01000000
00010000
00001000
00000100
00000000
00000000
00000000
00000000
,
00000010
00000100
00000001
00000010
00001000
00010000
01000000
10000000
,
00100000
00010000
00001000
00000100
00000010
00001000
00000100
00010000
,
01000000
00010000
00001000
00010000
01000000
10000000
00100000
00010000
,
00001000
00000100
00000001
00000010
00000000
00000000
00000000
00000100
,
00010000
01000000
00010000
00001000
00100000
00010000
10000000
00100000
,
00010000
00100000
10000000
01000000
00010000
00001000
00000010
00000001
,
00000100
00001000
00010000
00100000
10000000
01000000
00010000
00001000
,
00000200
00000000
00000010
00000300
00002000
00000000
00000100
00003000
,
00010000
00001000
01000000
00100000
10000000
00100000
00010000
00001000
,
00000010
00000100
00010000
00001000
01000000
00010000
00000100
00001000
,
00010000
00000010
00001000
00100000
00010000
00000100
00000010
00001000
,
00010000
01000000
00010000
00001000
00000100
00000000
00000100
00000100
,
00010000
00000000
00001000
01000000
00010000
00000000
10000000
01000000
,
00100000
00000000
00010000
01000000
00001000
00000000
00010000
00000010
,
00000100
00000000
00000001
00000010
00001000
00010000
01000000
10000000
,
00100000
00000000
01000000
00000000
10010000
00000000
10000000
01000000
,
00010000
00000000
00001000
00000010
00000001
00000000
00000100
00001000
,
00010000
00000000
00100000
10000000
01000000
00000000
00100000
00010000
,
01000000
00000000
00001000
00010000
00000100
00000001
00000100
00001000
,
00000100
00000010
00000000
00001001
00000000
00000000
00000001
00000100
,
00000010
00000000
00010000
00001000
00100000
00000000
00010000
10000000
,
00100000
00000000
01000000
00000100
00001000
00000000
00000001
00000100
,
00000010
00000000
00010000
00001000
01000000
00010000
00001000
00010000
,
01000000
00000000
00100000
00000000
10010000
00000000
10000000
00100000
,
00010000
00000000
00001000
00000010
00000001
00000000
00000001
00000100
,
00001000
00000000
00010000
01000000
10000000
00000000
00100000
00010000
,
00000010
00000000
00000100
00001000
00000001
00000100
00000010
00010000
,
00000200
00000000
00020300
00000000
,
00031000
00000000
00010000
00000000
00100000
00000000
00000000
00010000
00000000
00000000
00001000
00000000
00000000
00000000
10000000
00000000
,
01000000
00000000
00100000
00000000
00010000
00000000
00000000
00000010
00000000
00000000
00000001
00000000
00000000
00000000
00000100
00000000
,
00000010
00000000
00001000
00000000
00010000
00000000
00000000
01000000
00000000
00000000
00100000
00000000
00000000
00000000
10000000
00000000
,
01000000
00100000
00010000
00001000
00000100
00000010
00000001
00000100
,
00001000
00000000
00000000
00000000
;

//--------------- dance-double - forcednature ----------------
#NOTEDATA:;
#STEPSTYPE:dance-double;
#DESCRIPTION:forcednature;
#DIFFICULTY:Challenge;
#METER:9;
#RADARVALUES:0,0,0,0,0;
#NOTES:
00000000
00000000
00000000
00000000
,
00000000
00000000
00000000
00000000
,
00000000
00000000
00000000
00000000
,
00000000
00000000
00000000
00000000
00000000
00000000
00010000
00001000
,
01001000
00000000
00010000
00100000
10100000
00000000
00100000
00010000
,
01010000
00000000
00001000
00010000
00000100
00000000
00001000
00000010
,
00000011
00000000
00000010
00001000
00100000
01000000
00010000
00001000
,
00000100
00000000
01000000
00000000
00011000
00000000
00010000
01000000
,
11000000
00000000
10000000
00010000
00011000
00000000
00000010
00000100
,
00000101
00000000
00000001
00000010
00001000
00000000
00010000
01000000
,
01010000
00000000
00100000
00010000
00001000
00000100
00010000
00000010
,
00001100
00000000
00000000
00000000
00000000
00000000
00000000
00000000
01010000
00000000
00000000
00000000
00010000
00001000
00010000
00001000
,
00010000
00000000
00001000
00000000
01000000
00010000
00000000
10000000
00000000
00000000
01000000
00000000
00000000
00000000
00100000
00001000
,
00010000
00000000
00000010
00000000
00000100
00000001
00000000
00000010
00000000
00000000
00000100
00000000
00000000
00010000
00001000
01000000
,
00010000
00000000
10000000
00000000
01000000
00100000
00000000
00001000
00000000
00000000
00010000
00000000
00000000
00000000
00000010
00000100
,
00000001
00001000
00000100
00010000
00001000
00100000
00010000
01000000
00100000
10000000
00010000
01000000
00001000
00010000
00000100
00001000
,
00000001
00000010
00001000
00010000
01000000
10000000
00100000
00010000
,
00001000
00000100
00001000
00010000
01000000
00100000
00001000
00010000
,
00000010
00100000
00010000
01000000
00001000
00010000
01000000
00100000
,
00001000
01000000
00010000
00000100
00000000
00000000
00011000
00000000
,
00010000
01000000
00100000
00010000
10000000
00100000
00010000
00001000
,
00000100
00000001
00000100
00000010
00001000
00010000
01000000
00100000
,
10000000
01000000
00100000
00010000
00000010
00001000
00010000
00000100
,
00001000
00000000
01000000
00000000
00100000
00000000
00001000
00000000
01000000
00010000
10000000
01000000
00100000
00001000
00010000
00000010
,
00000100
00000001
00000100
00001000
00010000
01000000
10000000
01000000
,
00100000
00010000
00001000
00000100
00000010
00000001
00000100
00000010
,
00001000
00010000
01000000
00100000
10000000
01000000
00100000
00001000
,
00000010
00000000
00000000
00011000
,
00001000
00010000
00000100
00001000
01000000
00001000
00000100
00010000
,
00001000
01000000
00100000
00010000
00001000
00000010
00000100
00001000
,
00010000
00100000
01000000
00010000
00001000
00000100
00000001
00000010
,
00000100
00010000
00001000
01000000
00010000
00100000
00001000
00010000
00000010
00000000
00000000
00000000
00000100
00000000
00000001
00000000
,
00000011
00000000
00000100
00010000
00010010
00000000
00010000
00001000
,
00101000
00000000
00010000
01000000
11000000
00000000
01000000
00100000
,
00101000
00000000
00001000
00010000
00000100
00001000
01000000
00100000
,
01000000
00000000
00000100
00000000
00011000
00000000
00000100
00001000
,
00000101
00000000
00010000
00001000
01100000
00000000
00010000
10000000
,
01100000
00000000
00001000
00010000
00001010
00000000
00000100
00000001
,
00001010
00000000
00000100
00001000
01000000
00010000
00001000
00010000
,
00100000
00000000
10000000
00000000
00000000
00000000
01010000
00000000
00000000
00000000
00000000
00000000
01000000
00001000
00010000
00000100
,
00001000
00000000
00000001
00000010
00001100
00000000
00010000
00001000
,
01100000
00000000
00010000
10000000
01000000
00000000
00100000
00001000
,
00010100
00000000
00001000
00000010
00000100
00001000
00010000
00001000
,
01000000
00000000
00000100
00000000
00011000
00000000
00100000
00010000
,
11000000
00000000
00010000
00100000
00011000
00000000
00000010
00000100
,
00001001
00000000
00000010
00001000
00010000
00000000
00100000
00010000
,
11000000
00000000
00100000
00001000
00010000
00000010
00000100
00001000
,
01001000
00000000
00000000
00000000
00000000
00000000
00000000
00000000
00010100
00000000
00000000
00000000
00010000
00001000
00010000
00001000
,
00010000
00000000
00001000
00000000
01000000
00010000
00000000
10000000
00000000
00000000
01000000
00000000
00000000
00000000
00100000
00010000
,
00100000
00000000
00001000
00000000
00010000
00000010
00000000
00000100
00000000
00000000
00000001
00000000
00000000
00000010
00000100
00001000
,
00000100
00000000
00010000
00000000
00001000
01000000
00000000
00010000
00000000
00000000
10000000
00000000
00000000
00000000
01000000
00100000
,
00010000
01000000
00001000
00010000
00000100
00000010
00000001
00000100
00000010
00010000
00001000
00100000
01000000
10000000
00100000
01000000
,
00001000
00000000
00000000
00000000
;

//--------------- dance-double - forcednature vs. KONAMI ----------------
#NOTEDATA:;
#STEPSTYPE:dance-double;
#DESCRIPTION:forcednature vs. KONAMI;
#DIFFICULTY:Edit;
#METER:8;
#RADARVALUES:0,0,0,0,0;
#NOTES:
00000000
00000000
00000000
00000000
,
00000000
00000000
00000000
00000000
,
00000000
00000000
00000000
00000000
,
00000000
00000000
00000000
00000000
00000000
00000000
00110000
MMMMMMMM
,
00110000
00000000
11000000
MMMMMMMM
11000000
00000000
01100000
MMMMMMMM
,
01100000
00000000
01010000
00000000
00011000
00000000
00001100
MMMMMMMM
,
00001100
00000000
00000011
MMMMMMMM
00000011
00000000
00000101
MMMMMMMM
,
00001001
00000000
00000110
00000000
00001001
00000000
00000001
00000010
,
MMMMMMMM
00000000
00000010
00000100
MMMMMMMM
00000000
00000100
00001000
,
MMMMMMMM
00000000
00001100
00000000
00011000
00000000
00010000
00100000
,
MMMMMMMM
00000000
00100000
01000000
MMMMMMMM
00000000
01000000
10000000
,
11000000
MMMMMMMM
01010000
MMMMMMMM
,
00022000
00000000
00000000
00033000
,
00002200
00000000
00000000
00003300
,
00000101
00000011
00001010
00001100
,
00000110
00000000
00000000
MMMMMMMM
00000000
00000000
00011000
00000000
00000000
MMMMMMMM
00000000
00000000
01100000
00000000
MMMMMMMM
00000000
,
11000000
11000000
11000000
11000000
,
00110000
00110000
00110000
00110000
,
00011000
00000000
00011000
00000000
00011000
00000000
00011000
00011000
,
00010100
00000000
00000000
MMMMMMMM
00000000
00000000
00002002
00000000
00000000
00000000
00000000
00000000
00003003
00000000
00000000
00000000
,
00000011
00000011
00000011
00000011
,
00001100
00000000
00001100
00000000
00001100
00000000
00001100
00001100
,
00011000
00011000
00011000
00011000
,
00101000
00000000
00000000
MMMMMMMM
00000000
00000000
20020000
00000000
00000000
00000000
00000000
00000000
30030000
00000000
00000000
00000000
,
10100000
MMMMMMMM
01010000
MMMMMMMM
00011000
MMMMMMMM
00001100
MMMMMMMM
,
00011000
MMMMMMMM
00000110
MMMMMMMM
00010100
MMMMMMMM
00000011
MMMMMMMM
,
00000101
MMMMMMMM
00001100
MMMMMMMM
00011000
MMMMMMMM
01010000
MMMMMMMM
,
00101000
MMMMMMMM
11000000
MMMMMMMM
01010000
MMMMMMMM
01100000
MMMMMMMM
,
10100000
MMMMMMMM
01010000
MMMMMMMM
00101000
MMMMMMMM
00010100
MMMMMMMM
,
00001010
MMMMMMMM
00000101
MMMMMMMM
00001001
MMMMMMMM
00010010
MMMMMMMM
,
00010100
MMMMMMMM
00101000
MMMMMMMM
01001000
MMMMMMMM
10010000
MMMMMMMM
,
10000000
01000000
00100000
00010000
00001000
00000000
00001100
MMMMMMMM
,
00001100
00000000
00000011
MMMMMMMM
00000011
00000000
00000110
MMMMMMMM
,
00000110
00000000
00001010
00000000
00011000
00000000
00110000
MMMMMMMM
,
00110000
00000000
11000000
MMMMMMMM
11000000
00000000
10100000
MMMMMMMM
,
10010000
00000000
01100000
00000000
10010000
00000000
10000000
01000000
,
MMMMMMMM
00000000
01000000
00100000
MMMMMMMM
00000000
00100000
00010000
,
MMMMMMMM
00000000
00110000
00000000
00011000
00000000
00001000
00000100
,
MMMMMMMM
00000000
00000100
00000010
MMMMMMMM
00000000
00000010
00000001
,
00000011
00000011
MMMMMMMM
00001001
00000000
00000000
00000001
00000101
,
00001001
00000000
00001000
00001001
00001100
00000000
00000100
00001100
,
00010100
00000000
00010000
00010100
00011000
00000000
00001000
00011000
,
00101000
00000000
00100000
00110000
01100000
00000000
01000000
11000000
,
10010000
00000000
01100000
00000000
10010000
00000000
01010000
10010000
,
10010000
MMMMMMMM
00110000
00011000
00011000
MMMMMMMM
00001100
00001001
,
00001001
MMMMMMMM
00001010
00011000
00011000
MMMMMMMM
00110000
01100000
,
00110000
MMMMMMMM
00101000
00011000
00010100
MMMMMMMM
00001010
00000110
,
00001010
MMMMMMMM
00011000
MMMMMMMM
,
02200000
00000000
00000000
03300000
,
00000220
00000000
00000000
00000330
,
00000101
00001010
00010100
00101000
,
01010000
00000000
00000000
10100000
00000000
00000000
11000000
00000000
00000000
01010000
00000000
00000000
00110000
00000000
00011000
00000000
,
00001100
00000000
00000000
00000000
;
