#TITLE:Pon n' Wei (Will Take You To Kawaii);
#SUBTITLE:;
#ARTIST:PISS SPEARS;
#TITLETRANSLIT:;
#SUBTITLETRANSLIT:;
#ARTISTTRANSLIT:;
#GENRE:Pisscore;
#CREDIT:TiKAL;
#MUSIC:[Round 1] - Pon n' Wei (Will Take You To Kawaii).ogg;
#BANNER:[Round 1] - Pon n' Wei (Will Take You To Kawaii).png;
#BACKGROUND:[Round 1] - Pon n' Wei (Will Take You To Kawaii)-bg.png;
#CDTITLE:cdtitle.png;
#SAMPLESTART:31.065;
#SAMPLELENGTH:29.999;
#SELECTABLE:YES;
#OFFSET:0.808;
#BPMS:0.000=128.000
,35.000=256.000
,36.000=128.000
,68.000=512.000
,68.500=256.000
,68.750=128.000
,68.875=64.000
,68.938=16.000
,69.000=512.000
,69.500=256.000
,69.750=128.000
,69.875=64.000
,69.938=16.000
,70.000=128.000
,70.500=256.000
,71.000=128.000
,72.500=256.000
,73.000=128.000
,74.000=256.000
,74.500=128.000
,75.000=512.000
,75.500=256.000
,75.750=128.000
,75.875=64.000
,75.938=16.000
,76.000=512.000
,76.500=256.000
,76.750=128.000
,76.875=64.000
,76.938=16.000
,77.000=512.000
,77.500=256.000
,77.750=128.000
,77.875=64.000
,77.938=16.000
,78.000=128.000
,78.500=256.000
,79.000=128.000
,84.000=512.000
,84.500=256.000
,84.750=128.000
,84.875=64.000
,84.938=16.000
,85.000=512.000
,85.500=256.000
,85.750=128.000
,85.875=64.000
,85.938=16.000
,86.000=128.000
,86.500=256.000
,87.000=128.000
,88.000=128.500
,88.500=256.000
,89.000=128.000
,90.000=256.000
,90.500=128.000
,91.000=512.000
,91.500=256.000
,91.750=128.000
,91.875=64.000
,91.938=16.000
,92.000=512.000
,92.500=256.000
,92.750=128.000
,92.875=64.000
,92.938=16.000
,93.000=512.000
,93.500=256.000
,93.750=128.000
,93.875=64.000
,93.938=16.000
,94.000=128.000
,94.500=256.000
,95.000=128.000
,100.000=512.000
,100.500=256.000
,100.750=128.000
,100.875=64.000
,100.938=16.000
,101.000=512.000
,101.500=256.000
,101.750=128.000
,101.875=64.000
,101.938=16.000
,102.000=128.500
,102.500=256.000
,103.000=128.000
,104.500=256.000
,105.000=128.000
,106.000=256.000
,106.500=127.500
,106.750=128.000
,107.000=512.000
,107.500=256.000
,107.750=128.000
,107.875=64.000
,107.938=16.000
,108.000=512.000
,108.500=256.000
,108.750=128.000
,108.875=64.000
,108.938=16.000
,109.000=512.000
,109.500=256.000
,109.750=128.000
,109.875=64.000
,109.938=16.000
,110.000=128.000
,110.500=256.000
,111.000=128.000
,116.000=512.000
,116.500=256.000
,116.750=128.000
,116.875=64.000
,116.938=16.000
,117.000=512.000
,117.500=256.000
,117.750=128.000
,117.875=64.000
,117.938=16.000
,118.000=128.000
,118.500=256.000
,119.000=127.500
,119.250=128.000
,120.500=256.000
,121.000=128.000
,122.000=256.000
,122.500=128.000
,123.000=512.000
,123.500=256.000
,123.750=128.000
,123.875=64.000
,123.938=16.000
,124.000=512.000
,124.500=256.000
,124.750=128.000
,124.875=64.000
,124.938=16.000
,125.000=512.000
,125.500=256.000
,125.750=128.000
,125.875=64.000
,125.938=16.000
,126.000=128.000
,126.500=256.000
,127.000=128.000
,128.000=129.000
,128.500=128.000
,136.500=128.500
,136.625=128.000
,164.000=512.000
,164.500=256.000
,164.750=128.000
,164.875=64.000
,164.938=16.000
,165.000=512.000
,165.500=256.000
,165.750=128.000
,165.875=64.000
,165.938=16.000
,166.000=128.000
,166.500=256.000
,167.000=127.750
,168.000=128.000
,168.500=256.000
,169.000=128.000
,170.000=256.000
,170.500=128.000
,170.750=128.500
,171.000=512.000
,171.500=256.000
,171.750=128.000
,171.875=64.000
,171.938=16.000
,172.000=512.000
,172.500=256.000
,172.750=128.000
,172.875=64.000
,172.938=16.000
,173.000=512.000
,173.500=256.000
,173.750=128.000
,173.875=64.000
,173.938=16.000
,174.000=128.000
,174.500=256.000
,175.000=128.000
,180.000=512.000
,180.500=256.000
,180.750=128.000
,180.875=64.000
,180.938=16.000
,181.000=512.000
,181.500=256.000
,181.750=128.000
,181.875=64.000
,181.938=16.000
,182.000=128.000
,182.500=256.000
,183.000=128.250
,184.000=128.000
,184.500=256.000
,185.000=128.000
,185.500=127.500
,186.000=256.000
,186.500=128.000
,187.000=512.000
,187.500=256.000
,187.750=128.000
,187.875=64.000
,187.938=16.000
,188.000=512.000
,188.500=256.000
,188.750=128.000
,188.875=64.000
,188.938=16.000
,189.000=512.000
,189.500=256.000
,189.750=128.000
,189.875=64.000
,189.938=16.000
,190.000=128.000
,190.500=256.000
,191.000=128.250
,192.000=128.000
,208.500=256.000
,209.000=128.000
,210.000=256.000
,210.500=128.000
;
#STOPS:35.000=0.059
,35.250=0.058
,35.500=0.058
,35.750=0.059
,70.500=0.058
,70.750=0.059
,72.500=0.058
,72.750=0.059
,74.000=0.058
,74.250=0.059
,78.500=0.059
,78.750=0.058
,86.500=0.059
,86.750=0.059
,88.500=0.059
,88.750=0.058
,90.000=0.059
,90.250=0.058
,94.500=0.060
,94.750=0.058
,102.500=0.060
,102.750=0.058
,104.500=0.058
,104.750=0.059
,106.000=0.058
,106.250=0.059
,110.500=0.059
,110.750=0.058
,118.500=0.059
,118.750=0.058
,120.500=0.058
,120.750=0.059
,122.000=0.058
,122.250=0.059
,126.500=0.059
,126.750=0.059
,166.500=0.059
,166.750=0.058
,168.500=0.058
,168.750=0.060
,170.000=0.058
,170.250=0.059
,174.500=0.058
,174.750=0.059
,182.500=0.058
,182.750=0.060
,184.500=0.059
,184.750=0.058
,186.000=0.059
,186.250=0.058
,190.500=0.058
,190.750=0.059
,208.500=0.059
,208.750=0.058
,210.000=0.059
,210.250=0.058
;
#DISPLAYBPM:128.000;
#ORIGIN:;
#PREVIEWVID:;
#JACKET:;
#CDIMAGE:;
#DISCIMAGE:;
#BGCHANGES:;
#FGCHANGES:;

//--------------- dance-single - TiKAL ----------------
#NOTES:
     dance-single:
     TiKAL:
     Challenge:
     9:
     0.152214,0.183479,0.017048,0.110812,0.161956,125,123,2,13,18,0,0,0,0,0.152214,0.183479,0.017048,0.110812,0.161956,125,123,2,13,18,0,0,0,0:
0000
0000
0000
0000
,
0000
0000
0000
0000
,
0000
0000
0000
0000
,
0000
0000
0000
0000
,
0000
0000
0000
0000
,
0000
0001
0100
0001
0000
1000
0100
1000
,
0000
0001
0010
0001
0000
1000
0010
1000
,
0000
0001
0100
0010
0000
1000
0100
0010
,
0000
0000
0001
0000
0010
0000
0100
0000
0000
0000
1000
0000
0010
0100
0010
0100
,
0001
1000
0000
1000
0001
0000
0000
1000
0001
0000
0001
1000
0100
0000
0000
0100
,
0010
0100
0010
0100
1000
0000
1000
0000
0001
0000
0100
0010
0100
0000
0000
0000
,
0001
1000
0000
1000
0001
0000
0000
1000
0001
0000
0001
1000
0010
0000
0000
0010
,
0100
0010
0100
0010
1000
0000
1000
0000
0001
0000
0010
0100
0010
0000
0001
0000
,
1000
0001
0000
0001
1000
0000
0000
0001
1000
0000
1000
0001
0100
0000
0000
0100
,
0010
0100
0010
0100
0001
0000
0001
0000
1000
0000
0100
0010
0100
0000
0000
0000
,
1000
0001
0000
0001
1000
0000
0000
0001
1000
0000
1000
0001
0010
0000
0000
0010
,
0100
0010
0100
0010
0001
0000
0001
0000
1000
0000
0010
M000
0010
0000
0001
0000
,
0022
0000
0000
0033
2200
0000
0000
3300
0001
0000
0100
010M
2000
0000
0000
0000
,
3001
0000
1000
0010
0001
0000
0010
0000
1000
0100
0001
0100
2000
0000
0000
3000
,
2200
0000
0000
3300
0022
0000
0000
0033
1000
0000
0010
M010
0002
0000
0000
0000
,
1003
0000
0200
0000
0310
0000
0100
1000
0000
0100
1000
0100
1000
0000
0001
0000
,
0202
0000
0000
0303
2020
0000
0000
3030
0001
0000
0010
001M
2000
0000
0000
0000
,
3001
0000
1000
0100
0001
0000
0100
0000
1000
0010
0001
0010
2000
0000
0000
3000
,
2020
0000
0000
3030
0202
0000
0000
0303
1000
0000
0100
M100
0002
0000
0000
0000
,
1003
0000
0020
0000
0130
0000
0010
1000
0000
0010
1000
0010
1000
0000
0001
0000
,
2020
0000
0000
3030
0202
0000
0000
0303
1000
0000
0100
M100
0002
0000
0000
0000
,
1003
0000
0001
0010
1000
0000
0010
0000
0001
0100
1000
0100
0002
0000
0000
0003
,
0202
0000
0000
0303
2020
0000
0000
3030
0001
0000
0010
001M
2000
0000
0000
0000
,
3001
0000
0200
0000
0310
0000
0100
0001
0000
0100
0001
0100
0000
0001
1000
0000
,
2200
0000
0000
3300
0022
0000
0000
0033
1000
0000
0010
M010
0002
0000
0000
0000
,
1003
0000
0001
0100
1000
0000
0100
0000
0001
0010
1000
0010
0002
0000
0000
0003
,
0022
0000
0000
0033
2200
0000
0000
3300
0001
0000
0100
010M
2000
0000
0000
0000
,
3001
0000
0000
0000
0010
0000
0000
0100
0000
0000
2000
0000
0000
0000
0000
0000
3001
0000
0000
0000
1000
0000
0100
0000
0010
0000
0001
0000
1000
0000
0010
0000
,
1000
0001
0010
0001
2000
0000
0010
0000
,
3001
1000
0100
1000
0002
0000
0100
0000
,
1003
0001
0010
0001
0200
0000
0320
0000
,
1030
0000
0001
0000
0010
0000
0100
1000
0001
0000
0001
0000
1000
0000
0001
1000
,
0001
1000
0010
1000
0002
0000
0010
0000
,
1003
0001
0100
0001
2000
0000
0100
0000
,
3001
1000
0010
1000
0200
0000
0320
0000
,
0031
0000
0001
1000
0000
1000
0000
0000
0001
0000
0010
0100
1000
0000
0001
0000
,
2020
0000
0000
3030
2200
0000
0000
3300
1000
0000
0001
M001
0200
0000
0000
0000
,
1300
0000
0010
0001
0010
0000
1000
0000
0100
0001
0100
1000
0002
0000
0000
0003
,
0022
0000
0000
0033
0202
0000
0000
0303
0001
0000
1000
100M
0200
0000
0000
0000
,
0301
0000
0020
0000
0130
0000
1000
0100
0000
1000
0100
1000
0001
0000
0100
0000
,
0202
0000
0000
0303
0022
0000
0000
0033
0001
0000
1000
100M
0020
0000
0000
0000
,
0031
0000
0100
1000
0100
0000
0001
0000
0010
1000
0010
0001
2000
0000
0000
3000
,
2200
0000
0000
3300
2020
0000
0000
3030
1000
0000
0001
M001
0020
0000
0000
0000
,
1030
0000
0000
0000
0100
0000
0000
0010
0000
0000
0002
0000
0000
0000
0000
0000
1003
0000
0000
0000
0001
0000
0010
0000
0100
0000
1000
0000
0001
0000
0100
0000
,
0001
0100
0001
1000
0001
0010
0100
1000
,
0001
0000
1000
0000
0100
0000
0010
0000
0002
0000
0000
0000
1003
0000
0001
1000
,
0002
0013
0002
1003
0002
0103
0020
1030
,
0001
0000
1000
0010
0001
0000
0010
0000
1000
0100
0001
0000
0200
0000
0000
0000
,
1300
0100
1000
0001
1000
0010
0100
0001
,
1000
0000
0001
0000
0100
0000
0010
0000
2000
0000
0000
0000
3001
0000
1000
0001
,
2000
3010
2000
3001
2000
3100
0020
0031
,
1000
0000
0000
0000
0010
0000
0000
0100
0000
0000
0002
0000
0000
0000
0000
0000
1003
0000
0000
0000
0001
0000
0100
0000
0010
0000
1000
0000
0001
0000
2000
0000
,
0002
0000
0000
0000
,
0000
0000
0000
0000
0000
0000
0000
3003
,
0220
0000
0000
0000
,
0000
0000
0000
0000
,
0330
0000
0000
0000
;
