#VERSION:0.82;
#TITLE:Party Rave;
#SUBTITLE:;
#ARTIST:siqlo;
#TITLETRANSLIT:;
#SUBTITLETRANSLIT:;
#ARTISTTRANSLIT:;
#GENRE:;
#ORIGIN:;
#CREDIT:;
#BANNER:Party Rave.png;
#BACKGROUND:Party Rave-bg.png;
#PREVIEWVID:;
#JACKET:Party Rave-jacket.png;
#CDIMAGE:;
#DISCIMAGE:;
#LYRICSPATH:;
#CDTITLE:;
#MUSIC:Party Rave.ogg;
#OFFSET:1.318000;
#SAMPLESTART:86.402885;
#SAMPLELENGTH:15.000000;
#SELECTABLE:YES;
#DISPLAYBPM:145.000000;
#BPMS:0.000=145.000;
#STOPS:;
#DELAYS:;
#WARPS:;
#TIMESIGNATURES:0.000=4=4;
#TICKCOUNTS:0.000=4;
#COMBOS:0.000=1;
#SPEEDS:0.000=1.000=0.000=0;
#SCROLLS:0.000=1.000;
#FAKES:;
#LABELS:0.000=Song Start;
#BGCHANGES:1.500=Party Rave.avi=1.000=1=0=0=StretchNoLoop==CrossFade==,
286.000=Party Rave-bg.png=1.000=1=0=1===CrossFade==,
99999=-nosongbg-=1.000=0=0=0 // don't automatically add -songbackground-
;
#KEYSOUNDS:;
#ATTACKS:
;

//---------------dance-single - ----------------
#NOTEDATA:;
#CHARTNAME:;
#STEPSTYPE:dance-single;
#DESCRIPTION:;
#CHARTSTYLE:;
#DIFFICULTY:Hard;
#METER:8;
#RADARVALUES:0.553840,0.513561,0.285311,0.310486,0.159439,391.000000,34.000000,37.000000,0.000000,0.000000,0.000000,0.000000,0.000000,0.553840,0.513561,0.285311,0.310486,0.159439,391.000000,34.000000,37.000000,0.000000,0.000000,0.000000,0.000000,0.000000;
#CREDIT:;
#DISPLAYBPM:145.000000;
#NOTES:
// measure 0
0000
0000
0000
0000
,  // measure 1
0000
0000
0000
0000
,  // measure 2
2000
3200
0320
0031
,  // measure 3
0002
0100
1000
0100
,  // measure 4
1003
0100
1000
0000
1000
0100
0010
0010
,  // measure 5
0001
0100
0001
0000
0001
0100
0010
0010
,  // measure 6
0100
0000
0000
0001
0000
0000
1000
0000
0000
0100
0000
0000
0110
0000
0000
0000
,  // measure 7
0100
1000
0002
0000
0103
0001
2000
0000
,  // measure 8
3001
0100
0001
0000
0001
0100
0010
0010
,  // measure 9
1000
0100
1000
0000
1000
0010
0100
0100
,  // measure 10
0010
0000
0000
1000
0000
0000
0001
0000
0000
0010
0000
0000
0110
0000
0000
0000
,  // measure 11
1000
0000
0100
0000
1000
0100
0010
0000
,  // measure 12
0100
0000
0010
0000
0100
0010
0001
0000
,  // measure 13
0010
0000
0001
0000
0010
0001
0100
0000
,  // measure 14
0001
0000
0000
0100
0000
0000
0100
0000
0001
0000
0100
0000
0010
0000
1000
0000
,  // measure 15
0010
0000
0010
0000
0100
0010
1000
0000
,  // measure 16
0100
0000
1000
0000
0001
1000
0010
0000
,  // measure 17
1000
0001
1000
0000
0100
0010
0100
0000
,  // measure 18
0022
0000
0000
0000
0033
0001
0010
0001
,  // measure 19
2000
0100
0001
0100
,  // measure 20
3001
0000
0100
0000
0001
0000
0000
0000
1000
0000
1000
0010
0000
0000
0010
0000
,  // measure 21
1000
0000
0100
0000
1000
0000
0000
0000
0001
0000
0001
0010
0000
0000
0010
0000
,  // measure 22
0001
0000
0100
0000
0001
0000
0000
0000
1000
0000
0010
0100
0000
0000
0010
0000
,  // measure 23
1000
0000
0001
0000
0010
0000
0001
0000
1000
0000
0100
1000
0000
0100
1000
0000
,  // measure 24
0001
0000
0100
0000
1000
0000
0100
0000
0001
0000
0010
0001
0000
0010
0001
0000
,  // measure 25
0010
0100
1000
0100
0010
0001
0100
0001
,  // measure 26
1000
1000
0001
0001
0100
0100
0010
0010
,  // measure 27
1010
0000
0000
0000
0000
0000
1001
0000
0000
0000
0101
0000
0000
0110
0000
0000
,  // measure 28
1001
0110
1001
0110
,  // measure 29
2001
0000
0000
0000
,  // measure 30
3200
0000
0000
0000
,  // measure 31
0320
0000
0000
0000
,  // measure 32
0032
0000
0000
0000
,  // measure 33
2003
0010
0010
0000
,  // measure 34
3020
0100
0000
0100
,  // measure 35
0230
0000
0001
0000
,  // measure 36
0302
1000
2000
3003
,  // measure 37
2000
0000
3100
0000
1000
0100
0010
0000
,  // measure 38
0002
0000
0103
0000
0001
0100
0010
0100
,  // measure 39
0002
0000
0013
0100
0000
0010
0000
0100
,  // measure 40
2000
0000
3010
0010
0000
0100
0020
0000
,  // measure 41
1030
2100
3100
0210
,  // measure 42
0310
0021
0031
0102
,  // measure 43
0103
0100
0001
0001
1000
1000
0010
0010
,  // measure 44
1000
0100
0020
0000
0031
1000
0001
1000
,  // measure 45
0100
0010
0001
0000
0010
0100
1000
0000
,  // measure 46
0100
0000
0000
1000
0000
0000
0010
0000
0000
0001
0000
0000
0100
0000
1000
0000
,  // measure 47
0001
0001
0100
0100
0010
1000
0001
0000
,  // measure 48
0001
0000
0000
0010
0000
0000
0100
0000
0000
0000
1100
0000
1100
0000
0000
0000
,  // measure 49
1000
0100
0010
0100
1000
0010
0100
0001
,  // measure 50
0100
0000
0000
0001
0000
0000
0010
0000
0000
1000
0000
0000
0100
0000
0001
0000
,  // measure 51
1000
0000
0001
0000
0100
0000
0010
0000
1000
0000
0001
0000
0010
0100
0010
0000
,  // measure 52
0002
0023
0230
1300
,  // measure 53
2001
0100
0001
0010
,  // measure 54
3001
0000
1000
0000
0100
0000
0000
0000
0010
0000
0010
0001
0000
0000
0010
0000
,  // measure 55
0001
0000
1000
0000
0010
0000
0000
0000
0100
0000
0100
0010
0000
0010
1000
0000
,  // measure 56
1000
0000
0000
1100
0000
0000
1001
0000
0000
1100
0000
0000
0110
0000
0000
0000
,  // measure 57
0010
0001
0200
0000
0301
1000
0020
0000
,  // measure 58
1030
0000
0100
0000
1000
0000
0001
0000
0100
0000
0100
0010
0000
0000
1000
0000
,  // measure 59
1000
0000
0001
0000
0010
0000
0000
0000
0100
0000
0100
0010
0000
0010
0001
0000
,  // measure 60
0001
0000
0000
0101
0000
0000
1001
0000
0000
0101
0000
0000
0110
0000
0000
0000
,  // measure 61
1002
0010
1000
0100
,  // measure 62
1003
0000
0100
0000
0010
0000
0100
0000
1000
0000
1000
0010
0000
0000
0100
0000
,  // measure 63
0001
0000
0010
0000
0100
0000
0010
0000
0001
0000
0001
0100
0000
0000
0001
0000
,  // measure 64
0010
0000
0010
0000
0100
0000
0100
0000
1000
0000
0001
1000
0000
0000
0100
0000
,  // measure 65
1000
0000
0010
0000
0100
0000
0001
0000
1000
0000
0100
0010
0000
0100
0010
0000
,  // measure 66
0001
0000
0010
0000
0100
0000
1000
0000
0001
0000
0100
0010
0000
0010
0100
0000
,  // measure 67
0001
0100
1000
0100
0001
0010
1000
0010
,  // measure 68
0011
0000
0000
0000
1000
0000
1010
0000
0000
0000
0001
0010
0001
0000
0010
0000
,  // measure 69
0110
0000
0000
0000
0000
0000
1001
0000
0000
0000
0101
0000
0000
1100
0000
0000
,  // measure 70
2000
0100
0001
3020
,  // measure 71
0000
0000
0000
0000
,  // measure 72
0030
0000
0000
0000
;

//---------------dance-single - ----------------
#NOTEDATA:;
#CHARTNAME:;
#STEPSTYPE:dance-single;
#DESCRIPTION:;
#CHARTSTYLE:;
#DIFFICULTY:Challenge;
#METER:9;
#RADARVALUES:0.674918,0.604189,0.318878,0.335661,0.406988,485.000000,38.000000,40.000000,6.000000,0.000000,0.000000,0.000000,0.000000,0.674918,0.604189,0.318878,0.335661,0.406988,485.000000,38.000000,40.000000,6.000000,0.000000,0.000000,0.000000,0.000000;
#CREDIT:;
#DISPLAYBPM:145.000000;
#NOTES:
0000
0000
0000
0000
,
0000
0000
0000
0000
,
MMM2
MM23
M230
1300
,
2001
0100
0001
0100
,
3001
0000
1000
0000
0001
0000
0100
0000
0001
1000
0010
1000
0000
1000
0010
0000
,
1000
0000
0100
0000
0010
0000
0100
0000
1000
0000
0001
0100
0001
0000
0010
0000
,
0011
0000
0000
1001
0000
0000
1010
0000
0000
0110
0000
0000
1001
0000
0000
0000
,
1000
0010
0200
0000
0301
0010
0200
0000
,
1300
0000
0010
0000
0001
0000
0010
0000
1000
0001
0100
0001
0000
0001
0100
0000
,
0001
0000
0010
0000
0100
0000
0010
0000
0001
0000
1000
0010
1000
0000
0100
0000
,
1100
0000
0000
1001
0000
0000
0101
0000
0000
0110
0000
0000
1001
0000
0000
0000
,
0001
0000
0000
0001
0100
0000
0000
0000
0100
0000
0000
0100
0010
0000
0000
0000
,
0010
0000
0000
0010
1000
0000
0000
0000
1000
0000
0000
1000
0001
0000
1000
0000
,
0100
0000
0000
0100
0010
0000
0000
0000
0010
0000
0000
0010
0001
0000
0000
0000
,
0001
0000
0000
0100
0000
0000
0100
0000
0010
0000
1000
0000
0001
0000
0100
0000
,
0001
0000
0000
0001
0010
0000
0000
0000
0010
0000
0000
0010
0100
0000
0000
0000
,
0100
0000
0000
0100
1000
0000
0000
0000
1000
0000
0000
1000
0001
0000
1000
0000
,
0010
0000
0010
0000
0100
0001
0100
0000
0010
0000
1000
0100
1000
0000
0001
0000
,
0011
0000
0000
0000
1100
0000
0000
0000
0010
0000
0010
0000
0001
1000
0001
1000
,
0002
0100
1000
0100
,
1003
0000
0100
0000
0010
0000
0100
0000
1000
0000
0001
0100
0000
0100
0010
0000
,
1000
0000
0010
0000
0100
0000
0010
0000
1000
0000
0001
0010
0000
0100
0010
0000
,
0001
0000
1000
0000
0010
0000
1000
0000
0001
0000
0100
0010
0000
0010
1000
0000
,
0001
0000
0100
0000
1000
0000
0100
0000
0001
0000
1000
0010
0000
0010
0100
0000
,
0001
0000
0010
0000
1000
0000
0010
0000
0001
0000
1000
0100
0000
0010
0100
0000
,
1000
0000
0001
0000
0100
0000
0010
0000
1000
0000
0100
0010
0000
0010
0001
0000
,
0001
0000
0100
0000
0010
0000
1000
0000
0001
0000
0010
0100
0000
0100
0010
0000
,
0011
0000
0000
0000
0000
0000
1100
0000
0000
0000
1010
0000
0000
0101
0000
0000
,
1001
0110
1001
0110
,
2001
0000
0100
0100
0000
0001
0001
0000
,
3200
0000
0000
0000
0010
0000
0010
0000
0010
0000
0000
1000
0000
1000
0000
0000
,
0320
0000
0000
0001
0000
0100
0000
0001
,
0032
0000
0100
0100
0000
0010
0010
0000
,
2003
0000
0100
0000
,
3020
0000
0000
0000
0100
0000
0100
0000
0000
0000
0100
0000
0000
1000
0000
0000
,
0230
0000
0000
0000
0010
0000
0000
0000
0001
0000
0000
0010
0000
0010
0000
0000
,
0302
1000
2000
3003
,
1000
0001
0100
0000
0010
0100
0001
0000
,
0001
1000
0100
0000
0100
1000
0001
1000
,
0010
0100
0001
0000
1000
0100
0010
0000
,
0001
1000
0010
0100
1000
0100
0002
0000
,
0013
0021
0031
0102
,
0103
0210
0310
1020
,
1030
1000
0100
0100
0010
0010
0001
0001
,
1000
0010
1000
0000
0002
0000
0000
0000
0103
0000
0100
0000
0100
0000
0100
0000
,
0001
0000
0100
0000
0010
1000
0000
0010
0100
0000
0001
0100
0000
0010
0100
0000
,
0002
0000
0000
0023
0000
0000
0230
0000
0000
2300
0000
0000
3001
0000
1000
0000
,
0100
0000
0010
0001
0000
0001
0100
0000
0010
1000
0000
1000
0001
0000
0100
0000
,
0001
0000
0010
0100
0000
0100
0010
0000
0001
1000
0001
0000
1001
0000
0000
0000
,
1000
0000
0100
0000
0010
0001
0000
0010
0100
0000
1000
0100
0000
0010
0100
0000
,
2000
0000
0000
3020
0000
0000
0230
0000
0000
0302
0000
0000
1003
0000
0001
0000
,
1000
0000
0100
0000
0001
0000
0100
0000
1000
0000
0001
0000
0100
0010
0100
0010
,
2000
3200
0320
0031
,
1002
0100
1000
0010
,
1003
0000
0100
0000
1000
0000
0010
0000
0100
0001
0100
0010
0000
0010
1000
0000
,
0001
0000
0100
0000
0010
0000
1000
0000
0001
0000
0010
0100
0010
0000
0100
0000
,
1100
0000
0001
1000
0000
0100
1000
0000
0001
1000
0000
0001
0010
0000
0000
0000
,
0001
1000
0020
0000
1030
0001
0020
0000
,
0031
0000
1000
0000
0100
0000
1000
0000
0010
0100
0001
0100
0000
0100
0010
0000
,
1000
0000
0001
0000
0010
0000
0100
0000
1000
0000
0010
0100
0010
0000
0100
0000
,
0101
0000
1000
0001
0000
0100
0001
0000
1000
0001
0100
0001
0010
0000
0000
0000
,
2100
3010
0102
0013
,
1100
0000
0100
0000
0010
0000
0100
0000
1000
0000
0001
0010
0000
0010
0100
0000
,
1000
0000
0001
0000
0100
0000
0001
0000
1000
0000
0010
1000
0000
0100
0010
0000
,
0001
0000
1000
0000
0010
0000
1000
0000
0001
0000
0010
0001
0000
0100
0010
0000
,
0010
0000
1000
0000
0001
0000
0100
0000
0010
0000
1000
0001
0000
0001
1000
0000
,
0100
0000
1000
0000
0001
0000
0010
0000
0100
0000
1000
0001
0000
0001
0010
0000
,
0100
1000
0100
1000
0001
0100
0001
0100
,
0010
0000
0010
0000
1000
0000
0001
0000
0010
0000
0100
0010
0100
0000
0100
0000
,
1001
0000
0000
0000
0000
0000
0011
0000
0000
0000
0110
0000
0000
1100
0000
0000
,
0201
1000
0001
0320
,
0000
0000
0000
0000
,
0030
0000
0000
0000
;

//---------------dance-single - ----------------
#NOTEDATA:;
#CHARTNAME:;
#STEPSTYPE:dance-single;
#DESCRIPTION:;
#CHARTSTYLE:;
#DIFFICULTY:Beginner;
#METER:2;
#RADARVALUES:0.130668,0.148425,0.016783,0.000000,0.000000,107.000000,2.000000,0.000000,0.000000,0.000000,0.000000,0.000000,0.000000,0.130668,0.148425,0.016783,0.000000,0.000000,107.000000,2.000000,0.000000,0.000000,0.000000,0.000000,0.000000,0.000000;
#CREDIT:;
#DISPLAYBPM:145.000000;
#NOTES:
0000
0000
0000
0000
,
0000
0000
0000
0000
,
0000
0000
0000
0000
,
1000
0000
0000
0000
,
0001
0000
0000
0000
,
1000
0000
0000
0000
,
0001
0001
0001
0000
,
0001
0000
0000
0000
,
1000
0000
0000
0000
,
0001
0000
0000
0000
,
1000
1000
1000
0000
,
0000
0100
0000
0100
,
0000
1000
0000
1000
,
0000
0001
0000
0001
,
0000
0100
0000
0100
,
0000
0010
0000
0010
,
0000
1000
0000
1000
,
0000
0001
0000
0001
,
0000
0010
0000
0010
,
0010
0000
0000
0000
,
0010
0000
0000
0000
,
0010
0000
0000
0000
,
0001
0000
1000
0000
,
0010
0000
0000
0000
,
0010
0000
0000
0000
,
0010
0000
0000
0000
,
1000
0000
0001
0000
,
0100
0000
0000
0000
,
0010
0000
0000
0000
,
1001
0000
0000
0000
,
0000
0000
0000
0000
,
0000
0000
0000
0000
,
0000
0000
0000
0000
,
1000
0000
0000
0000
,
0001
0000
0000
0000
,
0001
0000
0000
0000
,
1000
0000
0000
0000
,
0000
1000
0000
1000
,
0000
1000
0000
1000
,
0000
0001
0000
0001
,
0000
0001
0000
0001
,
0000
1000
0000
1000
,
0000
1000
0000
1000
,
0000
0001
0000
0001
,
0001
0000
0000
0000
,
0100
0000
0000
0000
,
0010
0000
0000
0000
,
1000
0000
0000
0000
,
0001
0000
0000
0000
,
0010
0000
0000
0000
,
0100
0000
0000
0000
,
1000
0000
0000
0000
,
0001
0001
0001
0000
,
1000
0000
0100
0000
,
1000
0000
0100
0000
,
1000
0000
0100
0000
,
0010
0010
0010
0000
,
0001
0000
0100
0000
,
0001
0000
0100
0000
,
0001
0000
0100
0000
,
0010
0010
0010
0000
,
0000
0010
0000
1000
,
0000
0010
0000
0100
,
0000
0010
0000
1000
,
0000
0001
0000
0010
,
0000
0100
0000
0010
,
0000
0001
0000
0010
,
0000
0001
0000
1000
,
0000
0001
0000
1000
,
1000
0000
0000
0000
,
0001
0000
0000
1001
;

//---------------dance-single - ----------------
#NOTEDATA:;
#CHARTNAME:;
#STEPSTYPE:dance-single;
#DESCRIPTION:;
#CHARTSTYLE:;
#DIFFICULTY:Easy;
#METER:3;
#RADARVALUES:0.227770,0.211466,0.008392,0.100698,0.000000,177.000000,1.000000,12.000000,0.000000,0.000000,0.000000,0.000000,0.000000,0.227770,0.211466,0.008392,0.100698,0.000000,177.000000,1.000000,12.000000,0.000000,0.000000,0.000000,0.000000,0.000000;
#CREDIT:;
#DISPLAYBPM:145.000000;
#NOTES:
0000
0000
0000
0000
,
0000
0000
0000
0000
,
0000
0000
0000
0000
,
1000
0100
0000
1000
,
0001
0100
0000
0001
,
1000
0100
0000
1000
,
0010
0010
0010
0000
,
0001
0100
0000
0001
,
1000
0100
0000
1000
,
0001
0100
0000
0001
,
0010
0010
0010
0000
,
0000
0001
0000
0001
,
0000
0100
0000
0100
,
0000
0010
0000
0010
,
0000
1000
0000
1000
,
0000
1000
0000
1000
,
0000
0100
0000
0100
,
0000
0010
0000
0010
,
0001
1000
0001
1000
,
0001
0100
0000
0001
,
0100
0010
0000
0100
,
0010
1000
0000
0010
,
1000
0100
0000
1000
,
0100
0010
0000
0100
,
0010
0001
0000
0010
,
0001
0100
0000
0001
,
0100
0010
1000
0001
,
1000
0000
0001
0000
,
2002
0000
0000
3003
,
2000
0000
0000
0000
,
3200
0000
0000
0000
,
0320
0000
0000
0000
,
0032
0000
0000
0000
,
2003
0000
0000
0000
,
3020
0000
0000
0000
,
0230
0000
0000
0000
,
0302
0000
0000
0003
,
0001
1000
0000
1000
,
0000
0100
0000
0100
,
0000
0001
0000
0001
,
0000
0010
0000
0010
,
0000
1000
0000
1000
,
0000
0010
0000
0010
,
0000
0001
0000
0001
,
0000
0100
0200
0300
,
0001
0001
0100
0100
,
0010
0100
0001
0000
,
1000
1000
0100
0100
,
1000
0010
0100
0000
,
0001
0100
0001
0100
,
0010
1000
0001
0000
,
1000
0100
1000
0100
,
0010
0010
0100
0100
,
1000
0100
0000
1000
,
0001
0100
0000
0001
,
1000
0100
0000
1000
,
0010
0010
0010
0000
,
0001
0100
0000
0001
,
1000
0100
0000
1000
,
0001
0100
0000
0001
,
0010
0010
0010
0000
,
0001
0010
0000
0001
,
0010
0100
0000
0010
,
0100
1000
0000
0100
,
1000
0001
0000
0100
,
0001
1000
0000
0001
,
1000
0010
0000
1000
,
0010
0100
0000
0100
,
0001
1000
0001
1000
,
0010
0000
0100
0000
,
0010
0000
0000
0020
,
0000
0000
0000
0000
,
0030
0000
0000
0000
;

//---------------dance-single - ----------------
#NOTEDATA:;
#CHARTNAME:;
#STEPSTYPE:dance-single;
#DESCRIPTION:;
#CHARTSTYLE:;
#DIFFICULTY:Medium;
#METER:5;
#RADARVALUES:0.377618,0.453142,0.033566,0.260137,0.041958,280.000000,4.000000,31.000000,0.000000,0.000000,0.000000,0.000000,0.000000,0.377618,0.453142,0.033566,0.260137,0.041958,280.000000,4.000000,31.000000,0.000000,0.000000,0.000000,0.000000,0.000000;
#CREDIT:;
#DISPLAYBPM:145.000000;
#NOTES:
0000
0000
0000
0000
,
0000
0000
0000
0000
,
0000
0000
0000
0000
,
2000
0100
0001
0100
,
3001
0000
0100
0000
0001
1000
0001
0000
,
1000
0000
0100
0000
1000
0001
1000
0000
,
0010
0000
0000
0010
0000
0000
0010
0000
0000
0010
0000
0000
0010
0000
0000
0000
,
1000
0100
0001
0100
,
1000
0000
0010
0000
0100
0001
0100
0000
,
0001
0000
0010
0000
0100
1000
0100
0000
,
0010
0000
0000
0010
0000
0000
0010
0000
0000
0010
0000
0000
0010
0000
0000
0000
,
0001
0100
0010
0100
,
0001
0000
0100
0000
0010
1000
0010
0000
,
1000
0100
0010
0100
,
1000
0000
0100
0000
0010
0001
0010
0000
,
0001
1000
0010
0100
,
0001
0000
0010
0000
0100
1000
0100
0000
,
1000
0010
0001
0010
,
2000
0000
0000
3001
,
0002
0100
1000
0100
,
1003
0000
0100
0000
1000
0001
0010
0000
,
0001
0000
0100
0000
0001
1000
0010
0000
,
1000
0000
0001
0000
0010
0100
0010
0100
,
1000
1000
0100
0100
,
0010
0010
0001
0001
,
1000
0001
0100
0010
,
1000
0100
1000
0000
0001
0100
0001
0000
,
0001
0000
0000
0000
0000
0000
0100
0000
0000
0000
0010
0000
0000
1000
0000
0000
,
0001
1001
1001
1001
,
2000
0000
0000
0000
,
3200
0000
0000
0000
,
0320
0000
0000
0000
,
0032
0000
0000
0000
,
2003
0000
0000
0000
,
3020
0000
0000
0000
,
0230
0000
0000
0000
,
0302
0000
0000
0003
,
0001
0100
0010
0010
,
0100
0001
1000
1000
,
0100
0000
0010
0001
0000
0001
0010
0000
,
0100
0100
0010
0010
,
0001
0100
0200
0300
,
0001
0010
0100
1000
,
0010
1000
0001
0010
,
0100
0000
0010
0000
0100
0100
0100
0000
,
2000
3100
0200
0310
,
0020
0000
0031
0000
0100
0010
0100
0000
,
0002
0103
0200
0310
,
0020
0000
1030
0000
0100
0010
0010
0000
,
0002
2003
3002
2003
,
3020
0000
0230
0000
0310
1000
0100
0000
,
2000
0000
3002
0000
1003
0100
0010
0001
,
0001
0100
0010
1000
,
2000
0100
0001
0010
,
3001
0000
1000
0000
0001
0100
0010
0000
,
1000
0000
0001
0000
1000
0100
0010
0000
,
0001
0000
0000
0001
0000
0000
0001
0000
0000
0001
0000
0000
0001
0000
0000
0000
,
0200
0310
0020
0130
,
0001
0000
0001
0000
0010
0001
1000
0000
,
0010
0000
0100
0000
0001
1000
0010
0000
,
1000
0000
0000
1000
0000
0000
1000
0000
0000
1000
0000
0000
1000
0000
0000
0000
,
0002
0010
1000
0100
,
1003
0000
0100
0000
1000
0100
0010
0000
,
0100
0000
0010
0000
0100
0010
0001
0000
,
0010
0000
0001
0000
0010
0001
0100
0000
,
0001
0000
0100
0000
0001
0100
0010
0000
,
0100
0000
0010
0000
0100
0010
1000
0000
,
0001
0000
1000
0000
0001
1000
0001
0000
,
0010
0000
0100
0000
0010
0100
0010
0000
,
1001
0000
0000
0000
0000
0000
1000
0000
0000
0000
0100
0000
0000
0010
0000
0000
,
0001
1000
0001
0020
,
0000
0000
0000
0000
,
0030
0000
0000
0000
;
