#TITLE:パラドキシカル・コンプレックス;
#ARTIST:虹のコンキスタドール;
#TITLETRANSLIT:Paradoxical Complex;
#ARTISTTRANSLIT:Niji No Conquistador;
#CREDIT:mf32892;
#MUSIC:Paradoxical Complex.ogg;
#OFFSET:0.592;
#SAMPLESTART:56.036;
#SAMPLELENGTH:15;
#LASTBEATHINT:339.888;
#BPMS:0=179;
#BGCHANGES:1.75=Paradoxical Complex.mp4=1=0=0=0=StretchNoLoop====;

//---------------dance-single - ----------------
#NOTES:
     dance-single:
     :
     Beginner:
     2:
     :
0000
0000
0000
0000
,
0000
0000
0000
0000
,
0000
0000
0000
0000
,
0000
0000
0000
0000
,
0000
0000
0000
0000
,
0000
0000
0000
0000
,
0000
0000
0000
0000
,
0000
0000
0000
0000
,
0000
0000
0000
0000
,
1000
0000
0001
0000
,
1000
0000
0001
0000
,
2000
0000
0000
0000
,
3000
0000
0000
0000
,
0001
0000
1000
0000
,
0001
0000
1000
0000
,
0001
0000
0000
0000
,
0000
0000
0000
0000
,
0001
0000
0001
0000
,
0001
0000
0001
0001
,
0100
0000
0100
0000
,
0100
0000
0100
0100
,
0010
0000
0010
0010
,
1000
0000
1000
1000
,
0001
0000
0001
0000
,
0001
0000
0001
0001
,
0100
0000
0100
0100
,
0010
0000
0010
0010
,
1000
0000
1000
1000
,
0001
0000
0001
0001
,
0010
0000
0010
0010
,
0100
0000
0100
0100
,
1000
0000
0000
0000
,
0000
0000
0000
0000
,
0001
0000
0000
0000
,
1000
0000
0000
0000
,
0100
0000
0100
0000
,
0010
0000
0000
0000
,
0001
0000
1000
0000
,
0001
0000
1000
0000
,
0002
0000
0003
0000
,
2000
0000
3000
0000
,
0000
0000
0000
0000
,
0000
0000
0000
0000
,
0001
0010
0001
0000
,
0010
0001
0010
0000
,
0001
0010
0001
0010
,
0001
0000
0000
0000
,
1000
0100
1000
0000
,
0100
1000
0100
0000
,
1000
0100
1000
0100
,
1000
0000
0000
0000
,
0001
0000
1000
0000
,
0001
0000
0000
0000
,
0100
0000
0010
0000
,
0100
0000
0000
0000
,
0010
0000
1000
0000
,
0010
0000
0000
0000
,
0100
0000
0001
0000
,
0100
0000
0000
0000
,
1001
0000
0000
0000
,
0000
0000
0000
0000
,
1000
0000
0000
0000
,
0001
0000
0000
0000
,
0010
0000
0000
0000
,
0000
0000
0000
0000
,
0001
0000
1000
0000
,
0001
0000
1000
0000
,
0002
0000
0000
0000
,
0003
0000
0000
0000
,
0010
0000
0100
0000
,
0010
0000
0100
0000
,
2000
0000
0000
0000
,
3000
0000
0000
0000
,
0001
0000
0100
0000
,
0001
0000
0100
0000
,
0020
0000
0000
0000
,
0030
0000
0000
0000
,
1000
0000
0100
0000
,
1000
0000
0100
0000
,
0010
0010
0010
0000
,
0001
0001
0001
0000
,
2002
0000
0000
0000
,
0000
0000
0000
0000
,
3003
0000
0000
0000
;

//---------------dance-single - ----------------
#NOTES:
     dance-single:
     :
     Easy:
     4:
     :
0000
0000
0000
0000
,
0000
0000
0000
0000
,
0000
0000
0000
0000
,
0000
0000
0000
0000
,
0000
0000
0000
0000
,
0000
0000
0000
0000
,
0000
0000
0000
0000
,
0000
0000
0000
0000
,
0000
0000
0000
0000
,
1000
1000
0100
1000
,
0001
0010
0001
0100
,
0010
0010
1000
1000
,
0001
0100
0001
0000
,
1000
1000
0001
0010
,
0001
0001
0100
0001
,
1000
0000
0100
0000
1000
0000
0010
0010
,
0000
0100
0010
1001
,
0001
0001
0010
0010
,
0100
1000
0001
0000
,
1000
1000
0010
0010
,
0100
0001
1000
0000
,
0001
0001
0010
0100
,
1000
1000
0001
0100
,
0010
0010
1000
0100
,
0010
0000
0001
0000
,
1000
0100
1000
0100
,
0010
0001
1000
0000
,
0001
0100
0001
0100
,
0010
1000
0001
0000
,
0010
0100
0010
0100
,
1000
0001
0100
0010
,
2000
0001
0000
3001
,
0000
0001
0010
0110
,
0001
0000
0001
0000
,
1000
0100
1000
0000
,
0010
0000
0010
0000
,
0100
0001
0100
0000
,
0001
0011
0000
1010
,
0000
0101
0000
1100
,
0002
0023
0230
0000
,
2300
3020
0230
0300
,
2002
0000
0000
0000
,
3003
0100
0100
0100
,
0001
0100
0010
0100
,
0001
0010
0100
0010
,
0001
0100
0010
1000
,
0001
0000
1000
0000
,
1000
0100
0010
0100
,
1000
0010
0100
0010
,
1000
0100
0010
0001
,
1000
0000
0010
0000
,
0100
0001
0010
0001
,
0100
0000
0010
0000
,
0010
1000
0100
1000
,
0010
0000
0010
0000
,
0100
0001
1000
0010
,
0100
0001
0001
0000
,
1000
0000
0100
0000
1000
0001
1000
0002
,
0000
0000
0103
0000
,
2002
0000
0000
0000
0000
3003
0000
0001
,
0000
0001
1000
0000
0000
0000
0000
0000
,
0001
0100
0001
0100
,
0010
1000
0010
1000
,
0002
0000
0000
0000
0000
0000
0000
1000
,
0000
1000
0000
1000
1003
0000
0000
0000
,
0001
0001
1000
1000
,
0001
0010
0100
1000
,
0010
0010
0100
0100
,
0001
1000
0001
0000
,
1000
1000
0100
0100
,
0010
0001
0010
0100
,
1000
0010
1000
0001
,
0100
0100
0010
0000
,
1000
1000
0100
1000
,
0001
0010
0001
0100
,
0010
0010
1000
1000
,
0001
0100
0001
0000
,
1000
1000
0001
0010
,
0001
0001
0100
0001
,
1000
0100
1000
0010
,
0200
0302
2003
3200
,
0320
0000
0000
0000
,
0000
0000
0000
0000
,
0130
0000
0000
0000
;

//---------------dance-single - ----------------
#NOTES:
     dance-single:
     :
     Medium:
     7:
     :
0000
0000
0000
0000
,
0000
0000
0000
0000
,
0000
0000
0000
0000
,
0000
0000
0000
0000
,
0000
0000
0000
0000
,
0000
0000
0000
0000
,
0000
0000
0000
0000
,
0000
0000
0000
0000
,
0000
0000
0010
1001
,
2000
0000
0100
0000
0001
0000
3010
0100
,
0000
0100
0001
0000
0010
0100
0000
2000
,
0000
0000
0100
0000
0100
0000
3100
0010
,
0000
0001
1000
0002
0000
0103
0010
0000
,
1000
0100
1000
0100
0000
0010
0001
0010
,
0000
0001
0100
0002
0000
0103
0010
0000
,
2000
0000
3001
1000
0000
0100
1000
0100
,
0000
0010
0100
0010
0100
0000
1001
0000
,
0001
0000
0100
0010
0000
1000
0000
0002
,
0000
0010
1003
0100
,
0010
0000
0100
1000
0000
0001
0000
0200
,
0000
0301
0100
0100
,
0010
0000
1000
0010
0000
0100
0000
0002
,
0000
0000
0013
0000
0100
0000
0010
0002
,
0000
0000
0103
0000
0010
0000
1000
0002
,
0000
1003
0001
1000
,
0001
0000
0010
0000
0001
0000
0100
0010
,
0000
2000
0000
0000
3100
0000
0100
0000
,
0010
0000
0100
0000
1000
0000
0001
0100
,
0000
0020
0000
0000
1030
0000
1000
0000
,
0001
0000
0010
0000
0001
0000
0100
0020
,
0000
0000
1030
0000
0100
0000
1000
0001
,
2000
0000
0000
3100
0200
0000
0000
0000
,
0000
0000
0010
0000
0010
0000
0310
0001
,
0000
1000
0001
1000
0001
0000
0000
0100
,
0000
0010
0100
0000
0100
0000
0000
0001
,
0000
1000
0001
1000
0001
1000
0001
1000
,
0000
0100
0100
0010
,
0001
0000
0000
1000
0010
0000
0000
0100
,
0001
0000
0000
1000
0100
0000
0010
0000
,
0002
0000
0000
1003
2000
0000
0000
3010
,
0020
0000
0000
0130
0200
0000
0000
0301
,
0002
0000
0000
0000
,
0003
0000
1000
0000
0100
0000
1000
0001
,
0000
0010
0100
0000
0010
0001
0000
0100
,
0000
0001
1000
0000
0010
0100
0000
0010
,
0000
1000
0100
1000
0001
0000
0010
0100
,
0000
0000
1000
0000
0100
0000
0010
0001
,
0000
0100
0001
0000
0100
0010
0000
1000
,
0000
0100
0010
0000
0100
1000
0000
0001
,
0000
0100
0010
0000
1000
0000
0001
0010
,
0000
0000
0000
0000
0100
0000
0000
0000
0100
0000
0000
0010
0000
0000
0001
0000
,
1000
0000
0001
0100
0000
0010
0000
1000
,
0000
0000
0000
0000
0100
0000
0000
0000
0100
0000
0000
0010
0000
0000
0001
0000
,
1000
0000
0001
0100
0000
0001
0000
2000
,
0000
0000
0100
0000
3100
0000
0010
0001
,
0000
0100
0010
0000
1000
0001
0000
1000
,
0000
0000
0000
0000
0100
0000
0000
0000
0100
0000
0000
0010
0000
0000
0001
0000
,
2000
0000
0000
0001
0002
0000
0000
0000
,
3003
0000
0000
0000
,
0002
0000
0000
0000
0000
0000
0000
1003
,
0000
0001
1000
0000
0000
0000
0000
0000
,
0101
0000
0100
0000
0010
0000
1000
0100
,
0010
0010
0001
1001
,
0202
0000
0000
0000
0000
0300
0000
1003
,
0000
0001
0000
1000
0010
0000
0000
0000
,
0002
0000
0010
0000
1000
0000
0103
0010
,
0000
1000
0001
0000
0010
0100
0000
2000
,
0000
0000
0100
0000
0100
0000
3100
1000
,
0000
0100
1000
0100
0010
0001
1000
0000
,
0002
0000
0010
0000
1000
0000
0103
0010
,
0000
0010
1000
0000
0001
0010
0000
0200
,
0000
0000
1000
0000
1000
0000
1000
1000
,
0000
1000
1300
0000
0010
0000
1001
0000
,
2000
0000
0100
0000
0001
0000
3010
0100
,
0000
0100
0001
0000
0010
0100
0000
2000
,
0000
0000
0100
0000
0100
0000
3100
0010
,
0000
0001
1000
0002
0000
0103
0010
0000
,
1000
0100
1000
0100
0000
0010
0001
0010
,
0000
0001
0100
0002
0000
0103
0010
0000
,
2000
3200
0320
0031
,
0101
1100
1010
0011
,
2002
0000
0000
0000
,
0000
0000
0000
3000
,
0103
0000
0000
0000
;

//---------------dance-single - ----------------
#NOTES:
     dance-single:
     :
     Hard:
     8:
     :
0000
0000
0000
0000
,
0000
0000
0000
0000
,
0000
0000
0000
0000
,
0000
0000
0000
0000
,
0000
0000
0000
0000
,
0000
0000
0000
0000
,
0000
0000
0000
0000
,
0000
0000
0000
0000
,
0000
0000
0110
1001
,
0001
0010
0001
0010
0100
1000
0100
2000
,
0000
3001
0100
0001
0010
0100
0000
2000
,
0000
3001
0100
0001
1000
0100
0010
0002
,
0000
0103
0010
2000
0000
3001
0010
0000
,
0100
1000
0100
0020
0000
0031
0100
0020
,
0000
1030
0001
0020
0000
0130
1000
0000
,
0002
0000
0103
1000
0000
0100
0010
1000
,
0000
0100
0010
0001
1000
0000
0110
0000
,
0001
0100
1000
0100
,
0001
0000
0010
0000
1000
0000
0010
0001
,
0100
1000
0100
0001
,
0010
0000
1000
0000
0010
0000
0001
0100
,
0010
0000
1000
0000
0100
0000
0001
0100
,
1000
0000
0010
0000
0001
0000
1000
0100
,
0001
0010
1000
0010
,
0001
0000
0100
0000
0010
0000
1000
0100
,
0010
0000
0100
0000
1000
0000
0001
0100
,
0010
0000
0100
0000
0001
0000
1000
0100
,
0001
0000
0100
0000
1000
0000
0001
0010
,
1000
0000
0010
0000
0001
0000
0100
0010
,
0001
0000
0010
0000
1000
0000
0100
0010
,
1000
0000
0010
0000
0001
0000
1000
0100
,
0020
0000
0130
1000
0000
0001
0100
0010
,
0000
1000
0100
0010
0001
0000
0110
0010
,
0000
0001
0100
0010
1000
0000
0100
0010
,
0000
0010
0010
0000
0001
1000
1000
0010
,
0000
0010
0100
0010
1000
0100
0010
0001
,
0000
0001
1000
0000
0010
0000
0100
0000
,
0001
0000
0101
0001
1000
0000
1100
1000
,
0001
0000
0011
0001
1000
0000
1010
0000
,
0001
0010
0100
1000
0020
0000
1030
0001
,
1000
0010
0100
0001
0020
0000
0031
1000
,
0002
0010
0010
0000
1000
1000
0000
0200
,
0300
0000
0100
0003
0101
0000
0000
0000
1100
0000
0000
0000
1001
0000
1000
0000
,
0000
0001
0010
0100
0010
0001
1000
0010
,
0000
0010
0100
0010
1000
0001
0010
0100
,
0000
0100
1000
0010
0100
0001
0010
0100
,
0000
1000
0100
0000
1100
0000
0101
0001
,
0000
1000
0010
0100
0001
1000
0001
0010
,
0000
0010
0100
1000
0001
1000
0010
0100
,
0000
0100
1000
0100
0001
1000
0001
0010
,
0000
0000
0010
0000
0100
0000
0000
0000
1000
0000
0000
0100
0000
0000
0010
0000
,
0001
0000
1001
0001
0010
0001
0100
0010
,
1000
0000
0000
0000
0001
0000
0000
0000
1100
0000
0000
0010
0000
0000
0001
0000
,
0011
0000
0100
1000
0010
0100
0010
0001
,
0010
1000
0001
0020
0000
0130
1000
0001
,
0000
0001
0010
0100
0010
0001
0100
0010
,
0000
0000
0010
0000
1000
0000
0000
0000
0001
0000
0000
0100
0000
0000
0010
0000
,
1010
0000
0101
0000
1000
0100
0010
0002
,
0000
0000
1003
0001
0200
0000
0310
1000
,
0000
1000
0100
0001
0100
1000
0000
0001
,
0000
0000
0001
0000
1000
0000
0000
0000
1000
0000
0000
0100
0000
0000
0010
0000
,
0002
0000
0000
0000
0013
0000
0100
0000
1000
0000
0010
0000
1000
0000
0100
0010
,
0002
0000
0103
0010
1000
0001
0100
1000
,
0100
0100
0010
1000
0000
0001
0000
1100
,
0000
0101
0000
1100
0101
0000
0000
0000
,
1000
0100
1000
0100
0010
0001
0010
0002
,
0000
1003
0100
1000
0010
0100
0000
0002
,
0000
1003
0100
1000
0001
0100
0010
2000
,
0000
3100
0100
0010
1000
0001
0010
0000
,
0100
1000
0100
1000
0001
0100
0001
0200
,
0000
0310
1000
0100
0010
0100
0000
2000
,
0000
0000
3001
1000
0001
0000
1000
0001
1000
0000
0001
0000
0001
0000
1000
0000
,
0000
1000
0010
0000
0110
0000
1001
0000
,
1000
0010
1000
0010
0100
0001
0100
0002
,
0000
1003
0010
1000
0100
0010
0000
0002
,
0000
1003
0100
1000
0001
0100
0010
2000
,
0000
3100
0010
0002
0000
1003
0010
0000
,
0100
0001
0100
0020
0000
1030
0100
0020
,
0000
0031
1000
0020
0000
0130
0001
0000
,
0011
1010
1100
0101
,
1000
0100
0010
0001
0100
0010
1000
0001
,
0020
0000
0000
0000
,
0000
0000
0000
0000
0000
0000
0000
0000
0000
0000
0000
0000
0000
0000
0130
1000
,
0001
0000
0000
0000
;
