#TITLE:PSYCHIC FIRE;
#SUBTITLE:;
#ARTIST:BiBi;
#TITLETRANSLIT:;
#SUBTITLETRANSLIT:;
#ARTISTTRANSLIT:;
#GENRE:;
#CREDIT:BadWolf;
#BANNER:[Round 1] - PSYCHIC FIRE.png;
#BACKGROUND:[Round 1] - PSYCHIC FIRE-bg.png;
#LYRICSPATH:;
#CDTITLE:cdtitle.png;
#MUSIC:[Round 1] - PSYCHIC FIRE.ogg;
#OFFSET:-0.000000;
#SAMPLESTART:48.278347;
#SAMPLELENGTH:11.360947;
#SELECTABLE:YES;
#BPMS:0.000000=169.000000
;
#STOPS:
;
#BGCHANGES:;
#KEYSOUNDS:;
#ATTACKS:;

//---------------dance-single - ----------------
#NOTES:
     dance-single:
     :
     Hard:
     9:
     0.561576,0.667400,0.443701,0.264664,0.066166,505.000000,448.000000,57.000000,34.000000,0.000000,0.000000,0.561576,0.667400,0.443701,0.264664,0.066166,505.000000,448.000000,57.000000,34.000000,0.000000,0.000000:
0000
0000
0000
0000
,
0000
0000
0000
0000
,
0000
0000
0000
0000
,
0000
0000
0000
0000
,
0000
0000
0000
0000
,
1000
0000
0100
0000
0010
0000
0100
0000
1000
0000
0000
0000
0000
0000
0001
0100
,
0001
0010
0100
1000
0001
0100
1000
0100
,
0001
0000
0101
0000
1100
0000
1000
0010
,
0100
0000
0000
0110
0000
0000
0001
0000
1001
0000
0000
0000
0000
0000
0000
0000
,
1000
0100
0001
0100
1000
0000
0000
0002
,
0000
0013
0100
1000
0001
0000
0000
1000
,
0001
0101
1000
1100
,
1001
0110
1001
0000
,
1000
0010
0001
0010
1000
0000
0000
0002
,
0000
0103
0010
1000
0001
0000
0000
0010
,
0100
0000
1000
0001
0000
1100
0000
0101
,
0000
0001
0010
0000
0110
0000
1001
0000
,
1000
0001
0100
0001
1000
0000
0100
0020
,
0000
0031
0100
0001
1000
0000
0000
0010
,
0100
0110
0001
1001
,
1100
0000
0101
0000
0011
0000
0000
1000
,
0100
0010
0100
0001
0100
0000
0000
1000
,
0010
0100
0010
0001
0010
0000
0000
1000
,
0001
0100
1000
0100
0001
0010
0100
1000
,
0000
0001
0001
1000
0001
0000
1001
0000
,
1000
0100
0010
0001
0000
0001
0010
1000
,
0000
1000
0010
0001
0000
0001
0100
0010
,
1000
1100
0001
0101
,
1000
0100
0010
0001
0000
1000
0010
0100
,
0001
0010
0100
1000
0000
1000
0010
1000
,
0100
0110
0001
1001
,
1000
0100
0010
0001
1000
0010
0100
0001
,
1000
0000
0000
2002
0000
0000
3003
0000
,
0000
0001
0010
0100
1000
0000
0001
0000
,
0011
0000
1010
0000
1100
0000
1000
0001
,
0000
1000
0100
0010
0001
1000
1000
0000
,
0001
0010
0100
0000
0110
0000
0010
0001
,
0000
0100
0100
0010
1000
0001
0010
0000
,
1100
0000
0101
0000
0011
0000
0001
1000
,
0000
0001
0010
0100
1000
0001
0001
0000
,
1000
0010
0001
1000
0100
0001
1000
0010
,
0001
0010
1000
0010
0001
0010
1000
0000
,
1001
0000
0110
0000
1001
0000
0001
0100
,
1000
0100
0001
0010
0100
0000
1000
0001
,
2000
3200
0320
0032
,
1003
0000
0000
1001
,
1000
0000
1000
0100
0000
0100
0010
0000
,
0010
0001
0000
0001
0100
0000
0100
0000
,
0001
0000
0001
0010
0000
0010
0100
0000
,
0000
0000
1000
0000
0100
0000
0010
0000
0001
0000
1000
0001
1000
0000
0001
0000
,
0010
0000
0000
0100
0000
0000
1000
0000
0001
0000
0000
0100
0000
0000
0010
0000
,
1000
0000
0000
0100
0000
0000
0010
0000
0001
0000
0000
1000
0000
0000
0001
0000
,
1000
0100
1000
0000
0001
0000
1000
0010
1000
0000
0001
0000
0100
0001
0100
0000
,
0010
0000
1000
0000
0100
0000
0010
0000
0001
0000
0000
0010
0000
0000
0100
0000
,
1000
1100
0001
0101
,
2000
3200
0320
0032
,
1003
1010
0001
0011
,
2000
3020
0230
0302
,
0013
0000
0010
0100
1000
0000
1000
0001
,
2000
3200
0320
0032
,
1003
0010
0100
0001
1000
0100
0010
0001
,
1000
0000
0000
1001
0000
0000
0001
0000
1000
0000
0000
1000
0000
0000
1000
0000
,
0002
0010
0100
1003
,
2000
0010
0100
3001
,
0020
0100
1000
0031
,
0200
1000
0010
0301
,
2000
0010
0100
3001
,
0002
0100
0010
1003
,
0001
0010
0100
1000
0010
0100
0001
1000
,
0001
0000
0000
1001
0000
0000
1000
0000
0001
0000
0000
0000
0110
0000
0000
0000
,
1100
0000
0101
0000
0011
0000
0001
1000
,
0000
0001
0010
0100
1000
0001
0001
0000
,
1000
0100
0010
0000
0110
0000
0100
1000
,
0000
0010
0010
0100
0001
1000
0100
0000
,
0011
0000
1010
0000
1100
0000
1000
0001
,
0000
1000
0100
0010
0001
1000
1000
0000
,
0001
0100
1000
0001
0010
1000
0001
0100
,
1000
0000
0000
0100
0000
0000
0001
0000
1000
0000
0001
0000
1000
0000
0000
0000
,
1001
0000
0110
0000
1001
0000
1000
0010
,
0001
0010
1000
0100
0010
0000
0001
1000
,
0002
0023
0230
2300
,
3001
0000
0000
1001
,
1000
0000
0100
0000
0010
0000
0001
0100
,
0001
0010
1000
0010
0001
1000
0010
0000
,
1000
0100
0010
0100
0001
0100
0010
0100
,
2000
0000
0000
0000
,
3001
0000
0000
1001
0000
0000
1000
0000
0100
0000
0000
0110
0000
0000
1001
0000
,
0000
2002
0000
0000
0000
0000
0000
0000
,
0000
0000
0000
0000
,
0000
0000
0000
0000
,
0000
3003
0000
0000
;

//---------------dance-single - ----------------
#NOTES:
     dance-single:
     :
     Challenge:
     10:
     0.769526,1.017252,0.373643,0.210174,0.428132,692.000000,644.000000,48.000000,27.000000,0.000000,0.000000,0.769526,1.017252,0.373643,0.210174,0.428132,692.000000,644.000000,48.000000,27.000000,0.000000,0.000000:
0000
0000
0000
0000
,
0000
0000
0000
0000
,
0000
0000
0000
0000
,
0000
0000
0000
0000
,
1100
0000
0000
1010
0000
0000
0001
0000
1000
0000
0000
0000
1001
0000
0000
0000
,
1000
0000
0100
0000
0001
0000
0100
0000
1000
0000
0000
0000
0001
0000
0100
0010
,
0100
0000
0000
0001
0000
0000
1000
0000
0000
0100
0000
0000
0010
0000
0000
0001
0000
0000
1000
0001
1000
0001
0000
0000
,
0010
0000
0110
0000
1001
0000
1000
0001
,
0010
0000
0000
0110
0000
0000
1001
0000
1001
0000
0000
0000
0002
0000
0003
0000
,
1000
0100
0010
0100
1000
0001
0100
0010
,
1000
0100
0010
0100
0001
0100
0010
0001
,
1000
0100
1000
0000
0001
0010
0001
0000
1000
0010
1000
0000
0001
0100
0001
0000
,
0010
0000
0100
0000
1000
0000
0010
0000
0100
0000
0010
0000
1000
0001
1000
0001
,
1000
0001
0010
0001
0100
0010
0001
0010
,
1000
0100
0010
0001
0100
1000
0100
0001
,
1000
0000
1100
1100
0000
0101
0000
0011
,
0000
0000
0001
0000
1000
0000
0000
0000
0001
0100
0001
0000
0100
0010
0100
0010
,
1000
0000
0001
0000
0010
0000
0100
0010
0100
0000
1000
0000
0010
0000
1000
0000
,
0001
0000
0010
0000
0100
0000
1000
0001
1000
0000
0010
0000
1000
0100
1000
0000
,
0001
0100
0001
0000
1000
0010
1000
0000
0001
0010
0001
0000
1000
0100
1000
0000
,
0001
0000
0010
0000
0100
0000
0010
0000
1000
0000
0010
0000
0001
1000
0001
1000
,
0001
0010
0100
1000
1010
0000
0011
0001
,
1000
0100
0010
0001
0101
0000
1100
1000
,
0001
0010
0100
1000
0001
0100
0010
1010
,
0000
0000
1000
0000
0100
0000
0010
0000
0001
0000
1000
0001
1000
0010
0100
0001
,
1000
0100
0010
0100
0001
0100
0010
0100
,
1000
0010
0100
0010
0001
0010
0100
0010
,
2000
0000
3200
0000
0320
0000
0031
1000
,
0000
0000
0001
0000
0100
0000
1000
0000
0000
0000
0100
0000
0001
1000
0001
1000
,
0001
0000
0100
0010
0100
0001
0100
0000
0010
0000
1000
0000
0100
0000
0010
0000
,
0100
0000
1000
0010
1000
0001
1000
0000
0100
0000
0010
0000
0001
0000
1000
0000
,
0001
0100
0001
0100
0001
0100
0001
0100
0010
1000
0010
1000
0010
1000
0010
1000
,
0010
0000
1000
0100
1000
0000
0001
0000
1000
0010
1000
0010
0100
0001
0100
0001
,
0000
0010
0100
1000
0001
0000
1001
0000
,
1000
0010
0100
1000
0100
0001
0010
0100
,
0000
1000
0010
0100
0001
1001
1001
0000
,
1000
0000
0100
0000
0010
0000
0001
0000
0100
0010
0100
0000
0001
0000
0010
0000
,
0001
0100
1000
0100
0001
0010
1000
0010
,
0001
0100
0010
0001
0010
1000
0100
0010
,
0000
0001
0100
0010
1000
1001
1001
0000
,
1000
0010
0001
1000
0100
0001
1000
0010
,
1000
0100
1000
0000
0001
0000
0100
0010
0100
0000
0001
0000
0001
0000
1000
0000
,
1000
0100
0001
0100
1000
0010
0100
0001
,
0010
0100
1000
0001
1000
0000
0001
1000
,
0001
0010
0001
0010
0001
0010
0001
0010
0100
1000
0100
1000
0100
1000
0100
1000
,
0002
0000
0000
0000
0000
0000
0000
0000
0003
0000
1000
0001
1000
0000
0000
0000
,
1000
0100
0010
1000
0010
0001
1000
0010
,
0100
1000
0100
0001
1000
0100
0010
0000
,
0001
0100
0010
0001
0010
1000
0001
0000
,
0000
0000
0000
1000
0000
0000
0100
0000
0000
0010
0000
0000
0001
0000
0000
1000
0001
1000
0001
0000
0000
0010
0000
0000
,
0100
0000
0000
1000
0000
0000
0010
0000
0100
0000
0000
0001
0000
0000
1000
0000
,
0100
0000
0000
0010
0000
0000
0001
0000
1000
0000
0000
0100
0000
0000
1000
0000
,
0001
0010
0100
0010
0001
0000
1000
0100
0010
0001
1000
0000
0001
1000
0100
1000
,
0001
0000
0010
0000
0100
0000
1000
0000
0001
0000
0000
0100
0000
0000
0010
0000
,
1000
1100
0001
0101
,
2000
3200
0320
0032
,
1003
1010
0001
0011
,
2000
3020
0230
0302
,
0013
0000
0100
1000
0001
0000
1000
0100
,
0020
0032
2003
3020
,
1030
0100
1000
0100
1000
0100
1000
0100
0010
0001
0010
0001
0010
0001
0010
0001
,
1000
0000
0000
1100
0000
0000
0001
0000
0100
0000
0000
0110
0000
0000
1001
0000
,
2000
0100
0010
3001
,
0002
0010
0100
1003
,
0200
0010
1000
0301
,
0020
0100
1000
0031
,
2000
0010
0100
3001
,
0002
0100
0010
1003
,
1000
0100
1000
0100
0010
0001
0010
0001
1000
0100
0010
0001
0010
0100
1000
0001
,
1000
0000
0000
1010
0000
0000
1001
0000
1001
0000
0000
0000
0110
0000
0000
0000
,
0001
0100
0010
0001
0010
1000
0100
0010
,
0000
0001
0100
0010
1000
1001
1001
0000
,
0001
0000
0010
0000
0100
0000
1000
0000
0010
0100
0010
0000
1000
0000
0100
0000
,
1000
0010
0001
0010
1000
0100
0001
0100
,
1000
0010
0100
1000
0100
0001
0010
0100
,
0000
1000
0010
0100
0001
1001
1001
0000
,
0001
0100
1000
0001
0010
1000
0001
0100
,
0001
0010
0001
0000
1000
0000
0010
0100
0010
0000
1000
0000
1001
0000
0000
0000
,
0001
0010
1000
0010
0001
0100
0010
1000
,
0100
0010
0001
1000
0001
0000
1000
0001
,
1000
0100
1000
0100
1000
0100
1000
0100
0010
0001
0010
0001
0010
0001
0010
0001
,
2000
0000
0000
0000
3000
0001
1001
0000
,
1100
0000
1000
0000
0011
0000
0001
0100
,
0001
0010
1000
0010
0001
1000
0010
0000
,
1000
0100
0010
0001
0010
0100
1000
0001
1000
0010
0100
0010
1000
0100
0010
0001
,
0020
0000
0000
0000
0000
0000
0000
0030
,
1100
0000
0000
1010
0000
0000
1001
0000
1001
0000
0000
0011
0000
0000
0110
0000
,
0000
2002
0000
0000
0000
0000
0000
0000
,
0000
0000
0000
0000
,
0000
0000
0000
0000
,
0000
3003
0000
0000
0000
0000
0000
0000
;

//---------------dance-single - ----------------
#NOTES:
     dance-single:
     :
     Medium:
     7:
     0.391435,0.526165,0.116763,0.288016,0.019461,352.000000,337.000000,15.000000,37.000000,0.000000,0.000000,0.391435,0.526165,0.116763,0.288016,0.019461,352.000000,337.000000,15.000000,37.000000,0.000000,0.000000:
0000
0000
0000
0000
,
0000
0000
0000
0000
,
0000
0000
0000
0000
,
0000
0000
0000
0000
,
0000
0000
0000
0000
,
1000
0000
0001
0100
0001
0000
0010
0000
,
0100
0000
1000
0001
1000
0100
0010
0001
,
1000
0000
1001
0000
0110
0000
0001
1000
,
0001
0000
0000
1000
0000
0000
0001
0000
1000
0000
0000
0000
0000
0000
0000
0000
,
0001
0010
0100
0000
,
1000
0100
0010
0000
,
0001
0001
1000
1000
,
0100
0010
0001
1000
,
0001
0100
0001
0000
1000
0000
0000
0000
,
1000
0100
1000
0000
0001
0000
0000
0000
,
0010
0000
0100
1000
0000
0001
0000
1000
,
0000
0100
0010
0000
0001
0000
1001
0000
,
1000
0100
0010
0100
,
1000
0010
0100
0001
,
0010
0010
0100
0100
,
1000
0000
0001
0000
1000
0001
1000
0000
,
0001
0100
0001
0000
1000
0000
1001
0000
,
1000
0010
1000
0000
0001
0000
1001
0000
,
1000
0100
1000
0000
0010
0000
0100
0001
,
0000
1000
0100
0010
0001
0000
1000
0000
,
0002
0100
0010
0103
,
2000
0100
0010
3100
,
0001
0000
1000
0000
0010
0000
1000
0100
,
0000
1000
0000
0001
0000
0010
0100
0010
,
0100
1000
0010
0100
,
0001
1000
0100
0010
,
0001
1000
0001
0000
1000
0001
1000
0000
,
0200
0000
0000
0320
0000
0000
0030
0000
,
0000
0001
1000
0001
1000
0000
0001
0000
,
1000
1100
0100
0010
,
0001
1000
0001
0000
0100
0000
0001
0000
,
0010
0010
0100
1000
,
0001
0010
0001
0000
1000
0010
1000
0000
,
0001
0011
0010
0100
,
1000
0001
1000
0000
0010
0000
1000
0000
,
0001
0100
0001
0000
1000
0100
1000
0000
,
0001
0000
1001
0000
1000
0001
1000
0000
,
0100
0010
0001
0100
,
0001
0000
0010
0100
0010
0000
0001
0000
,
1000
1000
0001
0001
,
2002
0000
0000
0000
0000
3003
0000
0000
,
1000
0000
0000
0100
0000
0000
0010
0000
,
0000
0001
0000
0000
1000
0000
0001
0000
,
0010
0000
0000
0100
0000
0000
1000
0000
,
0000
0001
1000
0001
,
0010
0010
0100
0100
,
1000
1000
0001
0001
,
1000
0010
1000
0000
0001
0000
0010
0100
,
1000
0001
0100
0001
,
1000
0010
0100
0100
,
0002
0023
0230
2300
,
3001
0100
0010
0010
,
2000
3200
0320
0032
,
1003
0000
0000
1000
0001
0000
0000
0001
,
2000
3020
0230
0302
,
0023
0000
0000
0030
,
0001
0000
0000
1000
0000
0000
0001
0000
1000
0000
0000
0000
0000
0000
0000
0000
,
0002
0000
2003
0000
,
3200
0000
0320
0000
,
0032
0000
0203
0000
,
0320
0000
2030
0000
,
3002
0000
0023
0000
,
0230
0000
2300
0000
,
3001
0010
0001
0000
1000
0000
0100
0000
,
1000
0000
0000
0001
0000
0000
1000
0000
0001
0000
0000
0000
1000
0000
0000
0000
,
0001
0011
0010
0100
,
1000
0001
1000
0000
0010
0000
1000
0000
,
0100
0100
0010
0001
,
1000
0100
1000
0000
0001
0100
0001
0000
,
1000
1100
0100
0010
,
0001
1000
0001
0000
0100
0000
0001
0000
,
1000
0010
1000
0000
0001
0010
0001
0000
,
1000
0000
1000
0000
0001
1000
0001
0000
,
0010
0100
1000
0010
,
1000
0000
0100
0010
0100
0000
1000
0000
,
0001
0001
1000
1000
,
2002
0000
0000
0000
0000
3003
0000
0000
,
1000
0000
1001
0000
,
0001
0000
0100
0000
0010
1000
0010
0000
,
1000
0100
1000
0000
0001
1000
0001
0000
,
2002
0000
0000
0000
0000
0000
0000
3003
,
1000
0000
0000
0001
0000
0000
1000
0000
0001
0000
0000
1000
0000
0000
0001
0000
,
0000
2002
0000
0000
0000
0000
0000
0000
,
0000
0000
0000
0000
,
0000
0000
0000
0000
,
0000
3003
0000
0000
0000
0000
0000
0000
;

//---------------dance-single - ----------------
#NOTES:
     dance-single:
     :
     Easy:
     5:
     0.289128,0.350776,0.054490,0.108979,0.000000,260.000000,253.000000,7.000000,14.000000,0.000000,0.000000,0.289128,0.350776,0.054490,0.108979,0.000000,260.000000,253.000000,7.000000,14.000000,0.000000,0.000000:
0000
0000
0000
0000
,
0000
0000
0000
0000
,
0000
0000
0000
0000
,
0000
0000
0000
0000
,
0000
0000
0000
0000
,
0001
1000
0001
0000
,
1000
0100
0010
0001
,
1000
0001
1000
0000
,
0001
0001
1000
0000
,
0001
0010
0100
0000
,
1000
0100
0010
0000
,
0001
0001
1000
1000
,
0100
0100
0010
0000
,
0001
0100
0010
0000
,
1000
0010
0100
0000
,
0001
0000
0000
1000
0000
0001
0000
1000
,
0000
0001
0010
0100
,
1000
0010
1000
0010
,
0100
0001
0100
0001
,
1000
0100
1000
0100
,
0010
0001
0010
0001
,
1000
0001
1001
0000
,
0001
1000
1001
0000
,
1000
0100
0010
0001
,
0000
1000
0001
1001
,
1000
1000
0001
0001
,
0100
0100
0010
0010
,
1000
1000
0001
0001
,
0010
0010
0100
0100
,
1000
0100
0010
0001
,
1000
0010
0100
0001
,
1000
0000
0001
0000
,
2000
0000
3000
0000
,
0000
0001
1000
1001
,
0001
0001
0010
0100
,
1000
0100
0010
0000
,
0001
1000
0100
0010
,
0100
1000
0001
1000
,
0001
0001
0010
0100
,
0010
0001
1000
0000
,
0010
0100
0010
0100
,
0001
0001
1000
1000
,
0100
0010
0001
1000
,
0001
1000
0001
0000
,
0010
0001
0100
0010
,
2000
0000
0000
3001
,
1000
0000
0010
0000
,
1000
0000
0001
0000
,
0100
0000
0010
0000
,
0100
0000
0001
0010
,
0100
0000
1000
0000
,
0010
0000
0100
0000
,
0001
1000
0001
1000
,
0100
0010
0001
1000
,
0001
0001
0010
0100
,
1000
0001
1000
0001
,
1000
1000
0100
0010
,
0001
1000
0001
1000
,
0001
0000
1000
0000
,
0001
0010
0100
1000
,
0002
0000
0000
0000
,
1003
0000
0001
0000
,
2000
0000
0000
0000
,
3020
0000
0000
0000
,
0230
0000
0000
0000
,
0302
0000
0000
0000
,
0023
0000
0000
0000
,
0230
0000
0000
0000
,
2300
0000
0000
0000
,
3001
1000
0001
1001
,
1000
1000
0100
0010
,
0001
0010
0100
0000
,
1000
0001
0010
0100
,
0010
0001
1000
0001
,
1000
1000
0100
0010
,
0100
1000
0001
0000
,
0100
0010
0100
0010
,
1000
1000
0001
0001
,
0010
0100
1000
0001
,
1000
0001
1000
0000
,
0100
1000
0010
0100
,
0002
0000
0000
1003
,
0001
0000
1000
0000
,
0001
0000
0100
0000
,
0001
0010
0100
1000
,
0002
0000
0000
0000
,
1003
0000
1001
0000
,
0000
0220
0000
0000
0000
0000
0000
0000
,
0000
0000
0000
0000
,
0000
0000
0000
0000
,
0000
0330
0000
0000
0000
0000
0000
0000
;

//---------------dance-single - ----------------
#NOTES:
     dance-single:
     :
     Beginner:
     2:
     0.137892,0.235667,0.000000,0.062274,0.000000,124.000000,124.000000,0.000000,8.000000,0.000000,0.000000,0.137892,0.235667,0.000000,0.062274,0.000000,124.000000,124.000000,0.000000,8.000000,0.000000,0.000000:
// measure 0
0000
0000
0000
0000
,  // measure 1
0000
0000
0000
0000
,  // measure 2
0000
0000
0000
0000
,  // measure 3
0000
0000
0000
0000
,  // measure 4
0000
0000
0000
0000
,  // measure 5
1000
0000
1000
0000
,  // measure 6
0001
0000
0001
0000
,  // measure 7
1000
0000
0001
0000
,  // measure 8
1000
0000
0001
0000
,  // measure 9
1000
0000
0000
0000
,  // measure 10
0100
0000
0000
0000
,  // measure 11
0010
0000
0000
0000
,  // measure 12
0001
0000
0000
0000
,  // measure 13
1000
0000
0000
0000
,  // measure 14
0010
0000
0000
0000
,  // measure 15
0100
0000
0000
0000
,  // measure 16
0000
0001
0001
0001
,  // measure 17
0001
0000
0000
0000
,  // measure 18
0100
0000
0000
0000
,  // measure 19
0010
0000
0000
0000
,  // measure 20
1000
0000
0000
0000
,  // measure 21
0001
0000
0000
0000
,  // measure 22
0010
0000
0000
0000
,  // measure 23
0100
0000
0000
0000
,  // measure 24
1000
0000
0000
0000
,  // measure 25
0001
0000
0001
0000
,  // measure 26
1000
0000
1000
0000
,  // measure 27
0100
0000
0100
0000
,  // measure 28
0010
0000
0010
0000
,  // measure 29
0001
0000
0001
0000
,  // measure 30
1000
0000
1000
0000
,  // measure 31
0010
0000
0010
0000
,  // measure 32
0200
0000
0000
0300
,  // measure 33
0000
0001
0001
0000
,  // measure 34
1000
0000
0001
0000
,  // measure 35
1000
0000
0001
0000
,  // measure 36
0100
0000
0010
0000
,  // measure 37
0100
0000
0010
0000
,  // measure 38
1000
0000
0100
0000
,  // measure 39
1000
0000
0100
0000
,  // measure 40
0010
0000
0001
0000
,  // measure 41
0010
0000
0001
0000
,  // measure 42
1000
0000
1000
0000
,  // measure 43
0001
0000
0001
0000
,  // measure 44
2000
0000
0000
0000
,  // measure 45
3001
0000
0000
0000
,  // measure 46
1000
0000
0000
0000
,  // measure 47
0001
0000
0000
0000
,  // measure 48
0010
0000
0000
0000
,  // measure 49
0100
0000
0000
0000
,  // measure 50
1000
0000
0000
0000
,  // measure 51
0001
0000
0000
0000
,  // measure 52
0100
0000
0100
0000
,  // measure 53
0010
0000
0010
0000
,  // measure 54
1000
0000
0001
0000
,  // measure 55
1000
0000
0000
0000
,  // measure 56
0001
0000
1000
0000
,  // measure 57
0001
0000
0000
0000
,  // measure 58
0100
0000
0010
0000
,  // measure 59
0100
0000
0000
0000
,  // measure 60
0010
0000
0100
0000
,  // measure 61
0010
0000
0000
0000
,  // measure 62
2000
0000
0000
0000
,  // measure 63
0000
0000
0000
3000
,  // measure 64
0002
0000
0000
0000
,  // measure 65
0000
0000
0000
0003
,  // measure 66
0200
0000
0000
0000
,  // measure 67
0000
0000
0000
0300
,  // measure 68
0020
0000
0000
0000
,  // measure 69
0030
0000
0000
0000
,  // measure 70
1000
0000
0001
0000
,  // measure 71
1000
0000
0001
0000
,  // measure 72
0100
0000
0010
0000
,  // measure 73
0100
0000
0010
0000
,  // measure 74
1000
0000
0100
0000
,  // measure 75
1000
0000
0100
0000
,  // measure 76
0010
0000
0001
0000
,  // measure 77
0010
0000
0001
0000
,  // measure 78
1000
0000
1000
0000
,  // measure 79
0001
0000
0001
0000
,  // measure 80
2000
0000
0000
0000
,  // measure 81
3001
0000
0000
0000
,  // measure 82
0001
0000
0001
0000
,  // measure 83
1000
0000
1000
0000
,  // measure 84
0001
0001
1000
1000
,  // measure 85
0002
0000
0000
0003
,  // measure 86
1000
0000
0001
0000
;
