#VERSION:0.83;
#TITLE:POP/STARS;
#SUBTITLE:(ft Madison Beer, (G)I-DLE, Jaira Burns);
#ARTIST:K/DA;
#TITLETRANSLIT:;
#SUBTITLETRANSLIT:;
#ARTISTTRANSLIT:;
#GENRE:;
#ORIGIN:;
#CREDIT:;
#BANNER:[Round 1] - POP STARS.png;
#BACKGROUND:[Round 1] - POP STARS-bg.png;
#PREVIEWVID:;
#JACKET:[Round 1] - POP STARS-jacket.png;
#CDIMAGE:;
#DISCIMAGE:;
#LYRICSPATH:;
#CDTITLE:cdtitle.png;
#MUSIC:[Round 1] - POP STARS.ogg;
#OFFSET:1.058000;
#SAMPLESTART:55.750999;
#SAMPLELENGTH:15.000000;
#SELECTABLE:YES;
#BPMS:0.000=170.000;
#STOPS:159.500=0.353,
290.500=1.765;
#DELAYS:;
#WARPS:;
#TIMESIGNATURES:0.000=4=4;
#TICKCOUNTS:0.000=4;
#COMBOS:0.000=1;
#SPEEDS:0.000=1.000=0.000=0;
#SCROLLS:0.000=1.000;
#FAKES:;
#LABELS:0.000=Song Start;
#BGCHANGES:2.375=[Round 1] - POP STARS.avi=1.000=0=0=0=StretchNoLoop====,
99999=-nosongbg-=1.000=0=0=0 // don't automatically add -songbackground-
;
#KEYSOUNDS:;
#ATTACKS:
;

//---------------dance-single - ----------------
#NOTEDATA:;
#CHARTNAME:9646_ESP;
#STEPSTYPE:dance-single;
#DESCRIPTION:;
#CHARTSTYLE:Dance;
#DIFFICULTY:Hard;
#METER:8;
#RADARVALUES:0.522417,0.611130,0.660066,1.077349,0.015174,482.000000,395.000000,87.000000,142.000000,0.000000,0.000000,0.000000,0.000000,0.000000,0.522417,0.611130,0.660066,1.077349,0.015174,482.000000,395.000000,87.000000,142.000000,0.000000,0.000000,0.000000,0.000000,0.000000;
#CREDIT:9646;
#NOTES:
0000
0000
0000
0000
,
0000
0000
0000
0000
,
0000
0000
0000
0000
,
0000
0000
0000
0000
,
0000
0000
0000
0000
,
0001
0001
0010
1000
0020
0000
0030
0000
,
0001
0001
1000
0010
0200
0000
0300
0010
,
1000
1000
0100
0001
0100
0000
0100
0000
,
0001
0100
1000
0010
0010
0000
0011
0000
,
2100
0000
3001
0100
0010
0010
0001
0010
,
0200
0000
0310
1000
0001
0001
0100
0010
,
2000
0000
3010
1000
0001
0010
0200
0300
,
0022
0033
2200
3300
0022
0033
1100
0000
,
0101
0000
0001
0010
0100
0100
1000
0100
,
0002
0000
0103
0010
0001
0001
1000
0100
,
0020
0000
0031
0100
0010
1000
0001
0100
,
0202
0303
2020
3030
0202
0303
1010
0000
,
1002
0000
0103
0002
0010
0000
0103
0010
,
1010
1000
1000
0000
1200
0000
0310
0000
,
1100
0000
1000
0020
0100
0000
2030
0000
,
3001
0010
0020
0000
0230
0300
0200
0300
,
0110
0000
0001
0100
0010
1000
0001
0100
,
0020
0000
1030
0100
0010
0001
1000
0100
,
0020
0000
0130
1000
0010
0100
0001
0010
,
0022
0033
2020
3030
0022
0033
0220
0330
,
2001
0000
0000
0000
,
0000
0000
0100
0000
,
3020
0000
0000
0000
,
0000
0000
0001
0000
,
0230
0000
0000
0000
,
0000
0000
1000
0000
,
0302
0000
0000
0000
,
0000
0000
0010
0003
,
2200
0000
3300
0001
0100
0000
0100
0000
,
2200
0000
3300
0001
0010
0000
0010
0000
,
2020
0000
3030
0001
0100
0000
0100
0000
,
2020
0000
3030
0001
0010
0000
0010
0100
,
0110
0101
1010
0011
,
1000
0010
0001
0010
2000
0000
3100
0000
,
1000
0001
1000
0010
0100
0001
0010
1000
,
0010
0100
0010
0001
0100
0010
1010
0000
,
1200
0300
0201
0300
0201
0300
1200
0300
,
0201
0300
0210
0300
1000
0001
0020
0000
,
0130
1000
0001
1000
0010
0010
0200
0000
,
0310
0001
0010
0010
0200
0302
0013
0000
,
2200
3300
2002
3003
2020
3030
0022
0033
,
0202
0303
2200
3300
0001
1000
0010
0000
,
1000
0001
0010
0010
0100
0010
0002
0000
,
1003
0010
0100
0010
1000
0100
0120
0000
,
0000
0000
0031
0000
0001
0100
0010
1000
,
0000
1000
0100
0001
0100
0000
0120
0000
,
0000
0000
0030
0000
0012
0000
0000
0000
1003
0000
0010
0000
0002
0000
0000
0013
,
0000
0010
1000
0001
0010
0000
2100
0000
,
0000
0000
3000
0000
1002
0000
0000
0000
0103
0000
0010
0000
2000
0000
0000
3100
,
0000
0100
0002
0000
0103
0000
0012
0000
,
1003
0100
0010
0001
0200
0320
1030
0000
,
1200
0300
0201
0300
0210
0300
2002
0000
,
0000
0000
0003
0020
,
0000
0000
3000
0002
,
0000
0000
0030
2000
,
0000
0000
0003
0002
,
0000
0000
3000
0020
,
0000
0000
0003
2000
,
0000
0000
0030
0002
,
0000
0000
3003
2200
,
3300
1000
0010
0000
0010
0000
0202
0000
,
0303
0001
0010
0000
0010
0000
2020
0000
,
3030
1000
0100
0000
0100
0000
0022
0000
,
0033
0001
0100
0000
0100
0010
1010
0000
,
1100
1010
0011
0101
,
0011
0000
0110
0000
1001
0000
1000
0010
,
1000
0010
0001
0010
0001
0010
0100
0001
,
1000
0010
0100
0001
0010
1000
0010
0100
,
0010
0001
0100
0010
1010
0000
1200
0300
,
0201
0300
0201
0300
1200
0300
0201
0300
,
0210
0300
1000
0001
0020
0000
0130
1000
,
0001
1000
0010
0010
0200
0000
0310
0001
,
0010
0010
0200
0302
0013
0000
2200
3300
,
2002
3003
2020
3030
0022
0033
0202
0303
,
2200
3300
0001
1000
0010
0000
1000
0001
,
0010
0010
0100
0010
0002
0000
1003
0010
,
0100
0010
1000
0100
0120
0000
0000
0000
,
0031
0000
0001
0100
0010
1000
0000
1000
,
0100
0001
0100
0000
0120
0000
0000
0030
,
0012
0000
0000
0000
1003
0000
0010
0000
0002
0000
0000
0013
0000
0000
0010
0000
,
1000
0001
0010
0000
2100
0000
0000
3000
,
1002
0000
0000
0000
0103
0000
0010
0000
2000
0000
0000
3100
0000
0000
0100
0000
,
0002
0000
0103
0000
0012
0000
1003
0100
,
0010
0001
0200
0320
1030
0000
1200
0300
,
0201
0300
0210
0300
1001
0000
0000
0000
;

//---------------dance-single - ----------------
#NOTEDATA:;
#CHARTNAME:9646_DSP;
#STEPSTYPE:dance-single;
#DESCRIPTION:;
#CHARTSTYLE:Dance;
#DIFFICULTY:Medium;
#METER:7;
#RADARVALUES:0.435709,0.577178,0.432457,0.341413,0.015174,402.000000,345.000000,57.000000,45.000000,0.000000,0.000000,0.000000,0.000000,0.000000,0.435709,0.577178,0.432457,0.341413,0.015174,402.000000,345.000000,57.000000,45.000000,0.000000,0.000000,0.000000,0.000000,0.000000;
#CREDIT:9646;
#NOTES:
0000
0000
0000
0000
,
0000
0000
0000
0000
,
0000
0000
0000
0000
,
0000
0000
0000
0000
,
0000
0000
0000
0000
,
1000
0100
1000
0100
2000
0000
3000
0000
,
0001
0100
0001
0100
0002
0000
0003
0000
,
0010
0100
0010
0100
0010
0000
0010
0000
,
0100
1000
0010
0001
1000
0000
0110
0000
,
1001
0000
0100
0010
0100
0000
0010
0000
,
0101
0000
1000
0100
1000
0000
0001
0000
,
0110
0000
0001
1000
0001
0000
0010
0000
,
1100
0100
0101
0100
,
0110
0000
0001
1000
0010
0000
0010
0000
,
0101
0000
0001
1000
0100
0000
0100
0000
,
0011
0000
1000
0001
0100
0000
0100
0000
,
1010
0010
0011
0010
,
1001
0000
1000
0100
0020
0000
0031
0100
,
0001
1000
0001
0000
0101
0000
0001
0000
,
1001
0000
0001
0010
0200
0000
0320
0000
,
0031
1000
2000
0000
3020
0030
0020
0030
,
0110
0000
0010
1000
0001
0000
0100
0000
,
1010
0000
0001
0010
0100
0000
0100
0000
,
0011
0000
0100
1000
0010
0000
0010
0000
,
1100
0100
0101
0001
,
1002
0000
0000
0000
,
0000
0000
0100
0000
,
0023
0000
0000
0000
,
0000
0000
1000
0000
,
0230
0000
0000
0000
,
0000
0000
0001
0000
,
2300
0000
0000
0000
,
0000
0000
0001
3000
,
1001
0000
0000
0001
0100
0000
0100
0000
,
1010
0000
0000
1000
0100
0000
0100
0000
,
1001
0000
0000
1000
0010
0000
0010
0000
,
0101
0000
0000
0001
0010
0000
0010
0100
,
0110
0100
1001
0110
,
0001
1000
0100
1000
0020
0000
0130
0000
,
0001
0010
0100
0010
0001
0100
0010
1000
,
0001
0100
0010
1000
0002
0000
0013
0000
,
0100
0101
0100
1100
,
0100
0000
0101
0000
0100
1000
0020
0000
,
1030
0001
0010
0100
1000
0000
0020
0000
,
1030
0100
0010
0001
2000
0000
3010
0000
,
0100
1100
1000
1010
,
0010
0000
0011
0000
0001
1000
0001
0000
,
0100
0010
1000
0001
0010
0000
0200
0000
,
1300
0001
1000
0000
0010
0000
0220
0000
,
0000
0000
0330
0000
0001
0000
0010
0100
,
0000
0100
0010
0000
0001
0000
2200
0000
,
0000
0000
0000
0000
3300
0000
0000
0000
0001
0000
0000
0000
1000
0000
0000
0010
,
0000
0010
0001
0000
0010
0000
0220
0000
,
0000
0000
0000
0000
0330
0000
0000
0000
1000
0000
0000
0000
0100
0000
0000
0010
,
0000
0010
0200
0000
1300
0000
0001
0000
,
0100
0010
1000
0001
0200
0000
0310
0000
,
0100
1001
0100
0120
,
0000
0000
0000
2000
,
0000
0030
0000
0002
,
0000
0000
0000
0000
,
0000
3000
0000
0020
,
0000
0003
0000
2000
,
0000
0030
0000
0002
,
0000
0000
0000
0000
,
0000
0000
3003
0110
,
0000
0100
0010
0000
0010
0000
0011
0000
,
0000
0001
1000
0000
1000
0000
1010
0000
,
0000
0010
0100
0000
0100
0000
0110
0000
,
0000
1000
0001
0000
0010
0100
0010
0000
,
1100
0010
0101
0100
,
1010
0000
0100
0000
0011
0000
0001
0010
,
0001
0010
0100
1000
0100
1000
0001
0010
,
0100
1000
0010
0100
0001
1000
0001
0100
,
0010
1000
0002
0000
0013
0000
0100
0000
,
0101
0100
1100
0100
,
0101
0000
0100
1000
0020
0000
1030
0001
,
0010
0100
1000
0000
0020
0000
1030
0100
,
0010
0001
2000
0000
3010
0000
0100
0000
,
1100
1000
1010
0010
,
0011
0000
0001
1000
0001
0000
0100
0010
,
1000
0001
0010
0000
0200
0000
1300
0001
,
1000
0010
0220
0000
,
0330
0000
0001
0000
0010
0100
0000
0100
,
0010
0001
2200
0000
,
3300
0000
0000
0000
0001
0000
0000
0000
1000
0000
0000
0010
0000
0000
0010
0000
,
0001
0010
0220
0000
,
0330
0000
0000
0000
1000
0000
0000
0000
0100
0000
0000
0010
0000
0000
0010
0000
,
0200
0000
1300
0000
0001
0000
0100
0010
,
1000
0001
0200
0000
0310
0000
0100
0000
,
1001
0100
0110
0000
;

//---------------dance-single - ----------------
#NOTEDATA:;
#CHARTNAME:9646_BSP;
#STEPSTYPE:dance-single;
#DESCRIPTION:;
#CHARTSTYLE:Dance;
#DIFFICULTY:Easy;
#METER:5;
#RADARVALUES:0.308898,0.509275,0.280718,0.508327,0.000000,285.000000,248.000000,37.000000,67.000000,0.000000,0.000000,0.000000,0.000000,0.000000,0.308898,0.509275,0.280718,0.508327,0.000000,285.000000,248.000000,37.000000,67.000000,0.000000,0.000000,0.000000,0.000000,0.000000;
#CREDIT:9646;
#NOTES:
0000
0000
0000
0000
,
0000
0000
0000
0000
,
0000
0000
0000
0000
,
0000
0000
0000
0000
,
0000
0000
0000
0000
,
0010
0010
0020
0030
,
0100
0100
0200
0300
,
1000
0010
0001
0100
,
0010
0010
0100
0110
,
2002
3003
0001
0001
,
0202
0303
1000
1000
,
2200
3300
0010
0010
,
0001
0010
1000
0010
,
0001
0000
0100
0100
,
2200
3300
0010
0010
,
2020
3030
0001
0001
,
1000
0100
0001
0100
,
2000
0000
3010
0001
,
0010
0010
0202
0303
,
1100
0000
0010
1000
,
0010
0010
0002
0003
,
1001
1000
0100
0100
,
0001
1000
0010
0010
,
0001
1000
0100
0001
,
0200
0320
0230
0320
,
0032
0000
0000
0000
,
0000
0000
0100
0000
,
0203
0000
0000
0000
,
0000
0000
1000
0000
,
2300
0000
0000
0000
,
0000
0000
0010
0000
,
3020
0000
0000
0000
,
0000
0000
0001
0000
,
0031
0000
0001
0100
,
2020
3030
1000
0100
,
0022
0033
0001
0100
,
2200
3300
0001
0010
,
1010
0010
0011
0001
,
0101
1001
1200
0310
,
0101
0001
1100
1000
,
0001
0100
0020
1030
,
0100
0110
0100
0100
,
0100
0110
0001
2000
,
3010
0001
0001
0002
,
0013
1000
2000
3001
,
1000
0100
0100
0001
,
0001
0010
1000
0001
,
0010
1000
0010
0002
,
0003
1001
0010
0202
,
0000
0303
0001
0010
,
0000
0010
0100
2200
,
0000
3300
0001
1000
,
0000
1000
0010
0022
,
0000
0033
0010
1000
,
0000
2000
3100
0001
,
0010
1000
0200
0310
,
0100
0100
0100
0220
,
0000
0000
0000
0000
,
0000
0000
0000
0330
,
0000
0000
0000
0000
,
0000
0000
0000
2000
,
0000
0000
0000
3002
,
0000
0000
0000
0023
,
0000
0000
0000
0200
,
0000
0000
0330
2100
,
0000
3001
0100
0120
,
0000
1030
0100
0012
,
0000
1003
0010
0210
,
0000
0301
0010
0100
,
0100
1000
1000
0001
,
0010
0100
1000
0010
,
0010
0001
0001
0100
,
0100
1000
1000
0001
,
0100
0020
1030
0100
,
0110
0100
0100
0100
,
0110
0001
2000
3010
,
0001
0001
0002
0013
,
1000
2000
3001
1000
,
0100
0100
0001
0001
,
0010
1000
0001
0010
,
1000
0010
0002
0003
,
1001
0010
0202
0000
,
0303
0001
0010
0000
,
0010
0100
2200
0000
,
3300
0001
1000
0000
,
1000
0010
0022
0000
,
0033
0010
1000
0000
,
2000
3100
0001
0010
,
1000
0200
0310
0100
,
0100
0100
0110
0000
;

//---------------dance-single - ----------------
#NOTEDATA:;
#CHARTNAME:9646_BEG;
#STEPSTYPE:dance-single;
#DESCRIPTION:;
#CHARTSTYLE:Dance;
#DIFFICULTY:Beginner;
#METER:2;
#RADARVALUES:0.131146,0.237662,0.045522,0.121391,0.000000,121.000000,115.000000,6.000000,16.000000,0.000000,0.000000,0.000000,0.000000,0.000000,0.131146,0.237662,0.045522,0.121391,0.000000,121.000000,115.000000,6.000000,16.000000,0.000000,0.000000,0.000000,0.000000,0.000000;
#CREDIT:9646;
#NOTES:
0000
0000
0000
0000
,
0000
0000
0000
0000
,
0000
0000
0000
0000
,
0000
0000
0000
0000
,
0000
0000
0000
0000
,
0000
0000
0000
0000
,
0000
0000
0000
0000
,
0000
0000
0000
0000
,
0000
0000
0000
0000
,
0110
0000
0000
0000
,
0001
0000
0000
0000
,
1000
0000
0000
0000
,
0001
0000
0001
0000
,
0001
0000
0000
0000
,
1000
0000
0000
0000
,
0001
0000
0000
0000
,
1000
0000
1000
0000
,
1000
0000
0000
0000
,
0100
0000
0000
0000
,
0001
0000
0000
0000
,
0010
0000
0000
0000
,
1000
0000
0000
0000
,
1000
0000
0000
0000
,
0001
0000
0000
0000
,
1000
0000
0001
0000
,
2000
0000
0000
0000
,
0000
0000
3000
0000
,
0200
0000
0000
0000
,
0000
0000
0300
0000
,
0020
0000
0000
0000
,
0000
0000
0030
0000
,
0002
0000
0000
0000
,
0000
0000
0003
0000
,
1000
0000
1000
0000
,
0010
0000
0010
0000
,
0001
0000
0001
0000
,
0100
0000
0100
0000
,
1000
1000
1000
0000
,
0010
0010
0010
0000
,
0001
0001
0001
0001
,
0000
0000
0000
0110
,
0000
0100
0000
0100
,
0000
0100
0000
0010
,
0000
1000
0000
0100
,
0000
0001
0000
0110
,
0000
0100
0000
0100
,
0000
0100
0000
0010
,
0000
0001
0000
0100
,
0000
1000
0000
0002
,
0000
0003
0000
0010
,
0000
0010
0000
2000
,
0000
3000
0000
0001
,
0000
0001
0000
0020
,
0000
0030
0000
1000
,
0000
1000
0000
0001
,
0000
1000
0000
0010
,
0000
0100
0000
0200
,
0000
0000
0000
0000
,
0000
0000
0000
0000
,
0000
0000
0000
0000
,
0000
0000
0000
0300
,
0000
0000
0000
0000
,
0000
0000
0000
0000
,
0000
0000
0000
0000
,
0000
0000
0000
2000
,
0000
3000
0000
0020
,
0000
0030
0000
0200
,
0000
0300
0000
0002
,
0000
0003
0000
0010
,
0010
0010
0000
0100
,
0100
0100
0000
1000
,
0000
1000
0000
0001
,
0000
0000
0002
0000
0000
0003
0000
0000
,
0000
0000
0110
0000
,
0100
0000
0100
0000
,
0100
0000
0010
0000
,
1000
0000
0100
0000
,
0001
0000
0110
0000
,
0100
0000
0100
0000
,
0100
0000
0010
0000
,
0001
0000
0100
0000
,
1000
0000
0002
0000
,
0003
0000
0010
0000
,
0010
0000
2000
0000
,
3000
0000
0001
0000
,
0001
0000
0020
0000
,
0030
0000
1000
0000
,
1000
0000
0001
0000
,
1000
0000
0010
0000
,
0100
0000
0110
0000
;

//---------------dance-double - ----------------
#NOTEDATA:;
#CHARTNAME:9646_BDP;
#STEPSTYPE:dance-double;
#DESCRIPTION:;
#CHARTSTYLE:Dance;
#DIFFICULTY:Easy;
#METER:5;
#RADARVALUES:0.305646,0.509275,0.303479,0.500740,0.000000,282.000000,242.000000,40.000000,66.000000,0.000000,0.000000,0.000000,0.000000,0.000000,0.305646,0.509275,0.303479,0.500740,0.000000,282.000000,242.000000,40.000000,66.000000,0.000000,0.000000,0.000000,0.000000,0.000000;
#CREDIT:9646;
#NOTES:
00000000
00000000
00000000
00000000
,
00000000
00000000
00000000
00000000
,
00000000
00000000
00000000
00000000
,
00000000
00000000
00000000
00000000
,
00000000
00000000
00000000
00000000
,
00010000
00010000
00000020
00000030
,
00001000
00001000
00200000
00300000
,
00010000
00010000
00000010
00010000
,
00001000
00001000
00000001
00000110
,
00002002
00003003
00000010
00000100
,
00002200
00003300
00001000
00010000
,
00022000
00033000
00010000
00100000
,
10000000
10000000
00010000
00010000
,
10000000
00000000
00100000
01000000
,
02020000
03030000
00010000
00001000
,
00022000
00033000
00001000
00000010
,
00000001
00000001
00001000
00001000
,
00002002
00003003
00000100
00000100
,
00001000
00000010
00020020
00030030
,
00101000
00000000
00001000
00010000
,
00100000
10000000
00020000
00030000
,
01100000
10000000
01000000
01000000
,
00010000
00001000
00000100
00000100
,
00000001
00000010
00000100
00000010
,
00002000
00023000
00030020
00200030
,
00302000
00000000
00000000
00000000
,
00000000
00000000
00000010
00000000
,
00023000
00000000
00000000
00000000
,
00000000
00000000
01000000
00000000
,
00032000
00000000
00000000
00000000
,
00000000
00000000
00000100
00000000
,
00023000
00000000
00000000
00000000
,
00000000
00000000
00100000
00000000
,
00031000
00000000
00010000
01000000
,
22000000
33000000
10000000
00100000
,
00220000
00330000
00010000
00000010
,
00002020
00003030
00001000
00000100
,
00000101
00001000
00010100
00001000
,
01001000
00011000
00201000
00310000
,
01100000
01000000
10010000
00100000
,
00010000
00001000
00020000
00130000
,
01000000
01001000
01000000
01000100
,
00000100
00010100
00000100
00020000
,
00031000
00000100
00000010
00002000
,
00003100
00000010
00002000
00013000
,
00001000
00000100
00000001
00000010
,
00001000
00000100
00000001
00000010
,
00001000
00010000
00100000
02000000
,
03000000
10100000
00010000
00202000
,
00000000
00303000
00010000
10000000
,
00000000
10000000
00100000
02020000
,
00000000
03030000
00001000
00010000
,
00000000
00010000
00001000
00002020
,
00000000
00003030
00000001
00001000
,
00000000
00002000
00003010
00000001
,
00000010
00001000
00000200
00000310
,
00000100
00000100
00000100
00020200
,
00000000
00000000
00000000
00000000
,
00000000
00000000
00000000
00030300
,
00000000
00000000
00000000
00000000
,
00000000
00000000
00000000
00002000
,
00000000
00000000
00000000
00000000
,
00000000
00000000
00000000
00020000
,
00000000
00000000
00000000
00003000
,
00000000
00000000
00030000
00210000
,
00000000
01300000
00000000
20010000
,
00000000
30100000
00000000
01020000
,
00000000
10030000
00000000
12000000
,
00000000
03100000
00000000
00100000
,
00100000
00100000
00100000
01000000
,
01000000
01000000
01000000
00010000
,
00010000
00001000
00001000
00000100
,
00000001
00000010
00001000
00010000
,
00001000
00020000
00130000
01000000
,
01001000
01000000
01000100
00000100
,
00010100
00000100
00020000
00031000
,
00000100
00000010
00002000
00003100
,
00000010
00002000
00013000
00001000
,
00000100
00000001
00000010
00001000
,
00000100
00000001
00000010
00001000
,
00010000
00100000
02000000
03000000
,
10100000
00010000
00202000
00000000
,
00303000
00010000
10000000
00000000
,
10000000
00100000
02020000
00000000
,
03030000
00001000
00010000
00000000
,
00010000
00001000
00002020
00000000
,
00003030
00000001
00001000
00000000
,
00002000
00003010
00000001
00000010
,
00001000
00000200
00000310
00000100
,
00000100
00000100
00010100
00000000
;

//---------------dance-double - ----------------
#NOTEDATA:;
#CHARTNAME:9646_DDP;
#STEPSTYPE:dance-double;
#DESCRIPTION:;
#CHARTSTYLE:Dance;
#DIFFICULTY:Medium;
#METER:7;
#RADARVALUES:0.433541,0.577178,0.386935,0.379348,0.015174,400.000000,349.000000,51.000000,50.000000,0.000000,0.000000,0.000000,0.000000,0.000000,0.433541,0.577178,0.386935,0.379348,0.015174,400.000000,349.000000,51.000000,50.000000,0.000000,0.000000,0.000000,0.000000,0.000000;
#CREDIT:9646;
#NOTES:
00000000
00000000
00000000
00000000
,
00000000
00000000
00000000
00000000
,
00000000
00000000
00000000
00000000
,
00000000
00000000
00000000
00000000
,
00000000
00000000
00000000
00000000
,
00100000
00001000
00010000
00001000
00200000
00000000
00300000
00000000
,
00001000
00010000
00000010
00010000
00002000
00000000
00003000
00000000
,
00100000
00001000
00010000
00000010
00001000
00000000
00001000
00000000
,
00000001
00000010
00000100
00001000
00010000
00000000
00110000
00000000
,
21000000
00000000
30010000
00000000
00010000
01000000
00100000
10000000
,
00020000
00000000
00130000
00000000
00100000
01000000
10000000
01000000
,
00020000
00000000
00031000
00000000
00001000
00010000
00000010
00000000
,
00001010
00010000
00001010
00010000
,
00011000
00000000
00001000
00000000
00100000
01000000
00100000
00010000
,
20000000
00000000
30100000
00000000
00100000
00010000
00001000
00010000
,
00002000
00000000
00013000
00000000
00010000
01000000
00100000
00000000
,
00110000
00001000
00110000
00001000
,
00011000
00000000
00010000
00001000
00000200
00000000
00000310
00000001
,
00000010
00000100
00000010
00000000
00001010
00000000
00000001
00000000
,
00001001
00000000
00001000
00000100
00000020
00000000
00002030
00000000
,
00013000
00000100
00020000
00000000
00032000
00003000
00002000
00003000
,
00011000
00000000
00010000
00000000
00010000
01000000
00100000
00000000
,
00001000
00000000
00001000
00000000
00001000
00000100
00000010
00000000
,
00010000
00000000
00010000
00000000
00010000
01000000
00100000
00000000
,
01100000
00010000
01100000
00001000
,
00012000
00000000
00000000
00000000
,
00000000
00000000
00000100
00000000
,
00023000
00000000
00000000
00000000
,
00000000
00000000
00001000
00000000
,
02030000
00000000
00000000
00000000
,
00000000
00000000
00100000
00000000
,
23000000
00000000
00000000
00000000
,
00000000
00000000
00100000
30000000
,
10010000
00000000
00000000
00100000
01000000
00000000
01000000
00000000
,
10010000
00000000
00000000
01000000
00100000
00000000
00010000
00000000
,
00011000
00000000
00000000
00001000
00000100
00000000
00000010
00000000
,
00001001
00000000
00000000
00000100
00000010
00000000
00000010
00000100
,
00000110
00000100
00000110
00001001
,
00000001
00000100
00001000
00010000
00002000
00000000
00013000
00000000
,
00001000
00100000
00010000
10000000
00100000
01000000
00001000
00010000
,
00001000
00100000
00001000
00010000
00000020
00000000
00001030
00000000
,
00000100
00010100
00000100
01001000
,
01000000
00000000
00010100
00000000
00000100
00010000
00000020
00000000
,
00001030
00000100
00010000
00001000
00010000
00000000
00200000
00000000
,
01300000
00010000
00100000
01000000
00020000
00000000
00031000
00000000
,
00000100
00000101
00000001
00000011
,
00000010
00000000
00001010
00000000
00001000
00010000
00001000
00000000
,
00010000
01000000
10000000
00010000
00100000
00000000
02000000
00000000
,
03100000
01000000
10000000
00000000
00010000
00000000
00202000
00000000
,
00000000
00000000
00303000
00000000
00001000
00000000
00010000
00001000
,
00000000
00001000
00010000
00000000
00000010
00000000
00002020
00000000
,
00000000
00000000
00000000
00000000
00003030
00000000
00000000
00000000
00000001
00000000
00000000
00000000
00000010
00000000
00000000
00000100
,
00000000
00000100
00000010
00000000
00001000
00000000
00022000
00000000
,
00000000
00000000
00000000
00000000
00033000
00000000
00000000
00000000
00001000
00000000
00000000
00000000
00100000
00000000
00000000
01000000
,
00000000
01000000
00200000
00000000
00310000
00000000
10000000
00000000
,
00100000
00010000
00001000
00000100
00000020
00000000
00001030
00000000
,
00000100
00000101
00000100
00020100
,
00000000
00000000
00000000
00200000
,
00000000
00030000
00000000
02000000
,
00000000
00000000
00000000
00000000
,
00000000
00300000
00000000
00002000
,
00000000
03000000
00000000
00000200
,
00000000
00003000
00000000
00000020
,
00000000
00000000
00000000
00000000
,
00000000
00000000
00000330
00001001
,
00000000
00000100
00000010
00000000
00000010
00000000
00001001
00000000
,
00000000
00000010
00000100
00000000
00001000
00000000
00011000
00000000
,
00000000
00010000
00100000
00000000
01000000
00000000
10010000
00000000
,
00000000
00100000
01000000
00000000
00100000
00010000
10000000
00000000
,
11000000
00100000
01010000
00001000
,
00011000
00000000
00100000
00000000
00110000
00000000
01000000
10000000
,
01000000
10000000
00010000
00100000
00010000
00100000
00001000
00010000
,
00000010
00001000
00000100
00000010
00001000
00010000
00001000
00100000
,
00001000
00010000
00000020
00000000
00001030
00000000
00000100
00000000
,
00010100
00000100
01001000
01000000
,
00010100
00000000
00000100
00010000
00000020
00000000
00001030
00000100
,
00010000
00001000
00010000
00000000
00200000
00000000
01300000
00010000
,
00100000
01000000
00020000
00000000
00031000
00000000
00000100
00000000
,
00000101
00000001
00000011
00000010
,
00001010
00000000
00001000
00010000
00001000
00000000
00010000
01000000
,
10000000
00010000
00100000
00000000
02000000
00000000
03100000
01000000
,
10000000
00010000
00202000
00000000
,
00303000
00000000
00001000
00000000
00010000
00001000
00000000
00001000
,
00010000
00000010
00002020
00000000
,
00003030
00000000
00000000
00000000
00000001
00000000
00000000
00000000
00000010
00000000
00000000
00000100
00000000
00000000
00000100
00000000
,
00000010
00001000
00022000
00000000
,
00033000
00000000
00000000
00000000
00001000
00000000
00000000
00000000
00100000
00000000
00000000
01000000
00000000
00000000
01000000
00000000
,
00200000
00000000
00310000
00000000
10000000
00000000
00100000
00010000
,
00001000
00000100
00000020
00000000
00001030
00000000
00000100
00000000
,
00000101
00000100
00010100
00000000
;

//---------------dance-double - ----------------
#NOTEDATA:;
#CHARTNAME:9646_EDP;
#STEPSTYPE:dance-double;
#DESCRIPTION:;
#CHARTSTYLE:Dance;
#DIFFICULTY:Hard;
#METER:9;
#RADARVALUES:0.533255,0.645082,0.660066,1.084936,0.018967,492.000000,405.000000,87.000000,143.000000,0.000000,0.000000,0.000000,0.000000,0.000000,0.533255,0.645082,0.660066,1.084936,0.018967,492.000000,405.000000,87.000000,143.000000,0.000000,0.000000,0.000000,0.000000,0.000000;
#CREDIT:9646;
#NOTES:
00000000
00000000
00000000
00000000
,
00000000
00000000
00000000
00000000
,
00000000
00000000
00000000
00000000
,
00000000
00000000
00000000
00000000
,
00000000
00000000
00000000
00000000
,
00001000
00001000
00010000
00000100
00020000
00000000
00030000
00000000
,
00001000
00001000
00100000
00001000
00020000
00000000
00030000
00000010
,
00001000
00010000
00001000
00000010
00001000
00000001
00000010
00000000
,
00000100
00000100
00000100
00000100
00000100
00000000
00000110
00000000
,
00001002
00000000
00000103
00001000
00000100
00000001
00000010
00000100
,
00000020
00000000
00001030
00010000
00001000
00100000
00001000
00010000
,
00200000
00000000
01300000
00010000
00100000
01000000
20000000
30000000
,
00220000
00330000
22000000
33000000
00220000
00330000
11000000
00000000
,
01100000
00000000
00010000
00100000
01000000
10000000
00010000
01000000
,
00200000
00000000
00310000
00001000
00010000
00000010
00010000
00001000
,
00000020
00000000
00000130
00001000
00000100
00000000
00001000
00000000
00000010
00000000
00000100
00000000
00000001
00000000
00000010
00000000
,
00000011
00000100
00001000
00000000
00000011
00000100
00001000
00000000
,
00011000
00000000
00010000
02000000
00100000
00000000
13000000
00010000
,
10010000
10000000
00100000
00000000
10010000
00010000
00100000
00000000
,
11000000
00000000
10000000
00020000
00100000
00000000
20030000
00000000
,
30100000
00010000
00020000
00000000
00032000
00003000
00002000
00003000
,
00011000
00000000
00001000
00010000
00000010
00010000
00001000
00010000
,
02000000
00000000
03010000
00001000
00100000
00001000
00010000
00001000
,
00000200
00000000
00001300
00010000
00000010
00001000
00000001
00000010
,
00000220
00000330
00002200
00003300
00022000
00033000
02020000
03030000
,
01200000
00000000
00000000
00000000
,
00000000
00000000
20300000
00000000
,
30020000
00000000
00000000
00000000
,
00000000
00000000
00032000
00000000
,
00003002
00000000
00000000
00000000
,
00000000
00000000
00000023
00000000
,
00000230
00000000
00000000
00000000
,
00000000
00000000
00000020
00000330
,
00002002
00000000
00003003
00000001
00000100
00000010
00000100
00000000
,
00002200
00000000
00003300
00001000
00010000
00001000
00010000
00000000
,
00220000
00000000
00330000
10000000
01000000
00100000
01000000
00000000
,
20020000
00000000
30030000
10000000
00200000
00000000
00310000
00001000
,
00011000
00001010
00011000
00101000
,
00100000
00010000
00001000
00010000
00200000
00000000
00301000
00000000
,
00010000
00001000
00100000
00010000
01000000
00100000
00010000
00001000
,
00000010
00000001
00000010
00001000
00010000
00100000
01100000
00000000
,
02010000
03000000
02001000
03000000
02000200
03000300
00010200
00000300
,
00001200
00000300
00000210
00000300
00000001
00001000
00000020
00000000
,
00001030
00000001
00000010
00000100
00010000
00001000
00020000
00000000
,
00031000
00010000
00000010
00001000
00000002
00000023
00001030
00000000
,
00022000
00033000
00220000
00330000
20200000
30300000
22000000
33000000
,
02020000
03030000
00022000
00033000
00010000
01000000
10000000
00000000
,
01000000
00100000
00010000
00100000
01000000
10000000
00020000
00000000
,
10030000
00010000
01000000
00100000
10000000
00010000
00210000
00000000
,
00000000
00300000
00012000
00000000
00103000
00010000
10000000
00100000
,
00000000
00100000
00010000
00001000
00000010
00000000
00000021
00000000
,
00000000
00000000
00000030
00000000
00000210
00000000
00000000
00000000
00001300
00000000
00000001
00000000
00000020
00000000
00000000
00000130
,
00000000
00000100
00000010
00000001
00000100
00000000
00001020
00000000
,
00000000
00000000
00000030
00000000
00012000
00000000
00000000
00000000
00013000
00000000
00001000
00000000
00200000
00000000
00000000
00310000
,
00000000
00010000
20000000
00000000
30100000
00000000
01020000
00000000
,
10030000
01000000
00010000
00001000
00000020
00000032
00001003
00000000
,
00000201
00000300
00001200
00000300
00012000
00003000
02002000
00000000
,
00000000
00000000
03000000
00020000
,
00000000
00000000
00003000
02000000
,
00000000
00000000
00030000
20000000
,
00000000
00000000
03000000
00200000
,
00000000
00000000
30000000
00020000
,
00000000
00000000
00300000
00002000
,
00000000
00000000
00030000
00020000
,
00000000
00000000
00033000
00022000
,
00033000
00010000
00001000
00000000
00001000
00000000
00002020
00000000
,
00003030
00001000
00010000
00001000
00010000
00000000
02020000
00000000
,
03030000
00001000
00010000
00000000
00010000
00000000
00002200
00000000
,
00003300
00010000
00001000
00000000
00001000
00010000
00010010
00000000
,
00001010
00010010
00101000
00110000
,
00101000
00000000
00011000
00000000
01010000
00000000
10000000
01000000
,
10000000
01000000
00100000
00010000
00100000
00010000
00001000
00000100
,
00000010
00000001
00000100
00000010
00001000
00000001
00000010
00000001
,
00000010
00001000
00010000
00100000
01100000
00000000
02010000
03000000
,
02001000
03000000
02000200
03000300
00010200
00000300
00001200
00000300
,
00000210
00000300
00000001
00001000
00000020
00000000
00001030
00000001
,
00000010
00000100
00010000
00001000
00020000
00000000
00031000
00010000
,
00000010
00001000
00000002
00000023
00001030
00000000
00022000
00033000
,
00220000
00330000
20200000
30300000
22000000
33000000
02020000
03030000
,
00022000
00033000
00010000
01000000
10000000
00000000
01000000
00100000
,
00010000
00100000
01000000
10000000
00020000
00000000
10030000
00010000
,
01000000
00100000
10000000
00010000
00210000
00000000
00000000
00300000
,
00012000
00000000
00103000
00010000
10000000
00100000
00000000
00100000
,
00010000
00001000
00000010
00000000
00000021
00000000
00000000
00000030
,
00000210
00000000
00000000
00000000
00001300
00000000
00000001
00000000
00000020
00000000
00000000
00000130
00000000
00000000
00000100
00000000
,
00000010
00000001
00000100
00000000
00001020
00000000
00000000
00000030
,
00012000
00000000
00000000
00000000
00013000
00000000
00001000
00000000
00200000
00000000
00000000
00310000
00000000
00000000
00010000
00000000
,
20000000
00000000
30100000
00000000
01020000
00000000
10030000
01000000
,
00010000
00001000
00000020
00000032
00001003
00000000
00000201
00000300
,
00001200
00000300
00012000
00003000
01001000
00000000
00000000
00000000
;
