#TITLE:Magpie;
#SUBTITLE:(TONY'S STEPMANIA EDIT);
#ARTIST:Dynamite Grizzly;
#TITLETRANSLIT:;
#SUBTITLETRANSLIT:;
#ARTISTTRANSLIT:;
#GENRE:;
#CREDIT:TonyAkita;
#BANNER:;
#BACKGROUND:magpie_bg.png;
#LYRICSPATH:;
#CDTITLE:;
#MUSIC:magpie.mp3;
#OFFSET:-0.051000;
#SAMPLESTART:78.974998;
#SAMPLELENGTH:13.151000;
#SELECTABLE:YES;
#BPMS:0.000000=146.000000
,127.000000=139.521545
,128.000000=146.000000
;
#STOPS:
;
#BGCHANGES:;
#KEYSOUNDS:;
#ATTACKS:;

//---------------dance-single - ----------------
#NOTES:
     dance-single:
     :
     Hard:
     9:
     0.629636,0.657989,0.187741,0.160921,0.487234,493.000000,472.000000,21.000000,18.000000,0.000000,0.000000,0.629636,0.657989,0.187741,0.160921,0.487234,493.000000,472.000000,21.000000,18.000000,0.000000,0.000000:
0000
0000
0000
0000
,
0000
0000
0000
0000
,
0000
0000
0000
0000
,
0000
0000
0000
0000
,
1000
0000
1000
0000
0000
0001
0100
0000
0001
0000
0001
0000
0000
1000
0100
0000
,
1000
0000
1000
0000
0000
0001
0010
0000
0010
0000
0010
0000
0000
0001
1000
0000
,
0001
0000
0001
0000
0000
1000
0001
0000
0002
0000
0000
0010
0000
0000
0010
0000
,
0023
0000
0000
0100
0000
0000
0100
0000
0130
0000
1000
0000
0100
0000
1000
0000
,
0001
0010
0001
1000
0001
0010
0001
1000
,
0010
1000
0001
1000
0010
0100
0001
0010
,
0001
0100
0001
0010
0001
0100
0010
1000
,
0100
0000
1000
0000
0010
0000
1000
0000
0200
0000
0000
1000
0000
0000
1300
0000
,
0100
0010
0001
0010
0100
0010
0001
0010
,
0100
1000
0010
0100
0010
1000
0010
0100
,
0010
1000
0001
1000
0010
0001
0010
2000
,
0002
0000
0000
3003
,
0011
0000
0001
0000
0010
0000
0001
1000
0000
0001
1000
0000
0010
0000
0100
0000
,
0010
0000
1000
0000
0010
0000
0100
0001
0000
0100
0001
0000
0010
0000
0001
0000
,
1001
0000
1000
0000
0010
0000
0100
0001
0000
0100
0001
0000
0100
0000
0010
0000
,
1000
0000
0010
0000
0100
0000
0001
1000
0000
0010
0000
1000
0002
0000
0010
0000
,
0013
0000
0100
0000
1000
0000
0010
1000
0000
0001
0100
0000
0010
0000
1000
0000
,
0001
0000
0010
0000
0001
0000
1000
0100
0000
0010
0001
0000
1000
0000
0100
0000
,
0010
0000
0100
0000
1000
0000
0001
0000
0010
0000
0001
1000
0000
0001
1000
0000
,
0010
0000
1000
0010
0000
1000
0010
0000
0100
0001
0100
0001
0000
1000
0001
0000
,
1001
0000
1000
0000
0100
0000
1000
0001
0000
0010
0001
0000
1000
0000
0001
0000
,
0100
0000
0010
0000
1000
0000
0001
0100
0000
0001
1000
0000
0010
0000
1000
0000
,
1001
0000
0001
0000
0010
0000
0001
1000
0000
0001
0010
0000
0001
0000
1000
0000
,
0010
0000
1000
0000
0001
0000
1000
0010
0000
1000
0000
0010
0200
0000
0001
0000
,
0301
0000
0010
0000
0100
0000
1000
0100
0000
0010
0100
0000
1000
0000
0001
0000
,
0100
0000
0010
0000
1000
0000
0001
0100
0000
0010
0100
0000
0001
0000
1000
0000
,
0100
0000
0010
0000
0001
0000
0010
0000
0100
0000
1000
0100
0000
1000
0100
0000
,
0010
0000
0001
0010
0000
0001
0010
0000
0001
0010
0100
1000
0010
0100
0001
1000
,
0010
0000
1000
0000
0020
0000
0000
1000
0000
0000
1030
0000
0000
0000
0000
0000
,
0001
0000
0010
0000
0002
0000
0000
1000
0000
0000
1003
0000
0000
0000
0000
0000
,
1000
0000
0100
0000
0020
0000
0000
0001
0000
0000
0031
0000
0000
0000
0000
0000
,
0001
0000
0100
0000
0020
0000
0000
1000
0000
0000
1030
0000
0001
0000
1000
0000
,
0010
0000
1000
0000
0001
0000
0000
0011
0000
0000
0011
0000
0000
0000
0000
0000
,
1000
0000
0001
0000
1000
0000
0000
1010
0000
0000
1100
0000
0000
0000
0000
0000
,
0001
0000
0010
0000
0001
0000
0000
1001
0000
0000
0011
0000
1000
0000
0001
0000
,
1010
0000
0000
0000
1100
0000
0000
0000
1010
0000
0000
0000
0001
1000
0001
1000
,
0002
0000
0010
0000
,
0023
0000
0000
0100
0000
0000
0100
0000
0130
0000
0000
0000
0000
0000
0000
0000
,
2000
0000
0010
0000
,
3020
0000
0000
0100
0000
0000
0100
0000
0230
0000
0000
0001
0000
0000
0001
0000
,
0301
0000
0100
0000
0000
0001
1000
0000
0010
0000
1000
0000
0000
0001
0010
0000
,
0001
0000
1000
0000
0000
0100
1000
0000
0001
0000
0100
0000
0000
0001
1000
0000
,
0010
0000
1000
0000
0000
0001
0010
0000
0001
0000
0010
0000
0000
0100
1000
0000
,
0010
0100
0001
1000
0001
0100
0010
1000
,
1001
0000
0001
0000
0010
0000
0001
1000
0000
0000
0011
0000
1000
0000
0010
0000
,
0100
0000
0001
0000
0100
0000
0010
1000
0000
0010
0000
1000
0001
0000
0010
0000
,
0001
0000
1000
0000
0001
0000
0010
0000
0001
0000
1000
0010
0000
1000
0010
0000
,
0100
0000
0001
0100
0000
0001
0100
0000
0001
1000
0001
1000
0000
0010
1000
0000
,
0010
0000
0100
0000
0010
0000
1000
0001
0000
0000
0011
0000
0100
0000
1000
0000
,
0100
0000
0010
0000
0100
0000
1000
0001
0000
0010
0000
0001
1000
0000
0010
0000
,
0100
0000
0001
0000
0100
0000
0010
0000
1000
0000
0010
1000
0000
0010
1000
0000
,
0001
0000
0010
0001
0000
0010
0001
0000
1000
0001
1000
0001
0000
1000
0100
0000
,
0010
0000
0001
0000
1000
0000
0001
0010
0000
0000
1001
0000
0000
0000
1000
0000
,
1010
0000
0010
0000
0100
0000
0001
0100
0000
0000
0020
0000
0000
1000
0000
0000
,
1030
0000
0001
0000
0010
0000
0001
0000
1000
0000
0001
0010
0000
0001
0010
0000
,
0001
0000
1000
0001
0000
1000
0001
0000
1000
0010
1000
0010
0000
0000
1000
0000
,
1001
0000
0001
0000
0010
0000
0001
1000
0000
0000
1010
0000
0000
0000
0001
0000
,
0101
0000
0100
0000
0010
0000
1000
0010
0000
0000
0200
0000
0000
0001
0000
0000
,
0301
0000
1000
0000
0001
0000
0010
0000
0001
0000
1000
0010
0000
1000
0010
0000
,
0100
0000
0001
0010
0000
0001
0010
0000
0001
0010
0100
1000
0010
0100
0001
1000
,
0010
0000
0000
0000
;

//---------------dance-single - ----------------
#NOTES:
     dance-single:
     :
     Medium:
     6:
     0.406134,0.486340,0.295022,0.098341,0.232442,318.000000,285.000000,33.000000,11.000000,0.000000,0.000000,0.406134,0.486340,0.295022,0.098341,0.232442,318.000000,285.000000,33.000000,11.000000,0.000000,0.000000:
0000
0000
0000
0000
,
0000
0000
0000
0000
,
0000
0000
0000
0000
,
0000
0000
0000
0000
,
1000
1000
0000
0000
0001
0001
0000
0000
,
0010
0001
0000
0000
1000
0001
0000
0000
,
1000
0000
0010
0000
0000
0000
0000
0000
1000
0000
0000
1000
0000
0000
1000
0000
,
0001
0000
0000
0001
0000
0000
0001
0000
0010
0000
0001
0000
0010
0000
0001
0000
,
1000
0010
1000
0001
,
0010
0001
1000
0001
,
0100
0010
1000
0010
,
0100
0000
0000
0000
0001
0000
0000
0000
1000
0000
0000
0001
0000
0000
1000
0000
,
0001
0010
0100
0010
,
0001
1000
0010
0100
,
0001
0100
0010
1000
,
2002
0000
0000
3003
,
0011
0000
0000
0000
1000
0000
0000
0010
0000
0010
0000
0000
0100
0000
0000
0000
,
0101
0000
0000
0000
0001
0000
0000
0010
0000
0010
0000
0000
0100
0000
0000
0000
,
1100
0000
0000
0000
1000
0000
0000
0001
0000
0001
0000
0000
0010
0000
0000
0000
,
0011
0000
0000
0000
0001
0000
0000
1000
0000
1000
0000
0000
0020
0000
0000
0000
,
0130
0000
0000
0000
0001
0000
0000
0010
0000
0100
0000
0000
1000
0000
0000
0000
,
0100
0000
0000
0000
1000
0000
0000
0010
0000
0100
0000
0000
0001
0000
0000
0000
,
1000
0000
0000
0000
0001
0000
0000
0000
0010
0000
0000
0010
0000
0000
0010
0000
,
0001
0000
0000
0001
0000
0000
0001
0000
1000
0000
0010
0000
1000
0000
0010
0000
,
1001
0000
0000
0000
0001
0000
0000
0010
0000
0001
0000
0000
1000
0000
0000
0000
,
1010
0000
0000
0000
0100
0000
0000
0001
0000
0100
0000
0000
0001
0000
0000
0000
,
1100
0000
0000
0000
0001
0000
0000
0010
0000
0100
0000
0000
1000
0000
0000
0000
,
1010
0000
0000
0000
1000
0000
0000
0010
0000
0100
0000
0000
0002
0000
0000
0000
,
0103
0000
0000
0000
0001
0000
0000
1000
0000
0001
0000
0000
1000
0000
0000
0000
,
0010
0000
0000
0000
1000
0000
0000
0001
0000
1000
0000
0000
0001
0000
0000
0000
,
0100
0000
0000
0000
0001
0000
0000
0000
0010
0000
0000
0001
0000
0000
0010
0000
,
0002
0000
1000
0000
1003
0010
1000
0010
,
0110
0001
0100
1000
,
0100
0001
1000
0010
,
1001
0001
0010
0100
,
1000
0000
0001
0000
0010
0001
0010
0001
,
1001
0010
1000
0010
,
0100
0001
0100
0010
,
1010
1000
0001
0010
,
0011
0000
1010
0000
0011
0000
0100
0100
,
0200
0000
1000
0000
,
1300
0000
0000
0001
0000
0000
0001
0000
0001
0000
0000
0000
0000
0000
0000
0000
,
0020
0000
0001
0000
,
0031
0000
0000
0001
0000
0000
0001
0000
1000
0000
0000
1000
0000
0000
1000
0000
,
1010
0000
0000
0001
0001
0000
0000
0010
,
0011
0000
0000
0100
0100
0000
0000
1000
,
1100
0000
0000
1000
0001
0000
0000
0010
,
0012
0000
0010
0000
0013
0001
1000
0001
,
1000
0000
0000
0000
0010
0000
0000
1000
0000
0000
1001
0000
0000
0000
0000
0000
,
0001
0000
0000
0000
0010
0000
0000
0001
0000
1000
0000
0000
0001
0000
0000
0000
,
0110
0000
0000
0000
1000
0000
0000
0000
0010
0000
0000
1000
0000
0000
0010
0000
,
1000
0000
0000
0001
0000
0000
1000
0000
0001
0000
0010
0000
0001
0000
0010
0000
,
0011
0000
0000
0000
0001
0000
0000
1000
0000
0000
1010
0000
0000
0000
0000
0000
,
0100
0000
0000
0000
0001
0000
0000
1000
0000
0001
0000
0000
1000
0000
0000
0000
,
0110
0000
0000
0000
0001
0000
0000
0000
1000
0000
0000
0001
0000
0000
1000
0000
,
0001
0000
0000
0010
0000
0000
0001
0000
1000
0000
0100
0000
1000
0000
0100
0000
,
1100
0000
0000
0000
0010
0000
0000
0001
0000
0010
0000
0000
0001
0000
0000
0000
,
1001
0000
0000
0000
0010
0000
0000
1000
0000
0000
0020
0000
0000
0000
0100
0000
,
0130
0000
0000
0000
0001
0000
0000
1000
0000
0001
0000
0000
0010
0000
0000
0000
,
1100
0000
0000
0000
1000
0000
0000
0001
0000
0000
2000
0000
0000
0000
0010
0000
,
3010
0000
0000
0000
0100
0000
0000
0001
0000
0100
0000
0000
0001
0000
0000
0000
,
1001
0000
0000
0000
0100
0000
0000
1000
0000
0000
0200
0000
0000
0000
0010
0000
,
0310
0000
0001
0001
0011
0000
1000
1000
,
1010
0000
1001
0000
0010
0100
0010
0100
,
0110
0000
0000
0000
;

//---------------dance-single - ----------------
#NOTES:
     dance-single:
     :
     Easy:
     4:
     0.273311,0.371907,0.205622,0.062580,0.000000,214.000000,191.000000,23.000000,7.000000,0.000000,0.000000,0.273311,0.371907,0.205622,0.062580,0.000000,214.000000,191.000000,23.000000,7.000000,0.000000,0.000000:
// measure 0
0000
0000
0000
0000
,  // measure 1
0000
0000
0000
0000
,  // measure 2
0000
0000
0000
0000
,  // measure 3
0000
0000
0000
0000
,  // measure 4
0001
0000
0001
0000
,  // measure 5
1000
0000
1000
0000
,  // measure 6
0001
0000
1000
1000
,  // measure 7
0001
0000
0001
0000
0010
0000
0010
0010
,  // measure 8
0010
0001
1000
0001
,  // measure 9
1000
0010
1000
0001
,  // measure 10
0100
0010
0100
0001
,  // measure 11
1000
0000
0010
0000
0100
0000
0100
0100
,  // measure 12
0100
0001
0100
0010
,  // measure 13
1000
0100
0010
0100
,  // measure 14
1000
0001
0100
0010
,  // measure 15
2002
0000
0000
3003
,  // measure 16
0110
0000
1000
1000
,  // measure 17
0010
0000
0100
0001
,  // measure 18
0011
0000
0100
1000
,  // measure 19
1000
0000
0001
1000
,  // measure 20
0110
0000
1000
1000
,  // measure 21
0001
0000
0010
0001
,  // measure 22
1001
0000
1000
1000
,  // measure 23
0001
0000
0001
0000
0010
0000
0010
0010
,  // measure 24
0010
0000
0001
1000
,  // measure 25
0001
0000
1000
0010
,  // measure 26
1010
0000
0001
0010
,  // measure 27
0001
0000
1000
0001
,  // measure 28
0101
0000
0010
1000
,  // measure 29
0100
0000
0010
0001
,  // measure 30
0101
0000
0001
0001
,  // measure 31
1000
0001
1000
0001
,  // measure 32
0110
0000
1000
0000
,  // measure 33
1000
0000
0010
0010
,  // measure 34
0010
0000
0100
0000
,  // measure 35
0100
0000
0001
0001
,  // measure 36
0011
0000
0001
0000
,  // measure 37
0001
0000
1000
1000
,  // measure 38
1010
0000
1000
0001
,  // measure 39
1001
0110
1001
0110
,  // measure 40
2000
0000
0000
0000
,  // measure 41
3010
0000
1000
0000
,  // measure 42
0002
0000
0000
0000
,  // measure 43
0013
0000
0001
0000
,  // measure 44
1001
0000
1000
0000
,  // measure 45
0001
0000
1000
0000
,  // measure 46
0010
0000
0100
0000
,  // measure 47
0010
0000
0010
0000
0010
0000
0010
0010
,  // measure 48
0010
1000
0010
1000
,  // measure 49
0001
0010
0100
1000
,  // measure 50
1001
0001
0100
0001
,  // measure 51
1000
0000
0010
0000
1000
0000
0010
0010
,  // measure 52
0010
0100
0001
0100
,  // measure 53
0010
1000
0100
0010
,  // measure 54
0011
0001
1000
1000
,  // measure 55
0001
0000
0001
0000
0010
0000
0010
0010
,  // measure 56
0010
0000
0001
0001
,  // measure 57
0011
0000
2000
0010
,  // measure 58
3010
0000
0100
0100
,  // measure 59
0101
0000
2000
0100
,  // measure 60
3100
0000
0010
0010
,  // measure 61
0011
0000
2000
0010
,  // measure 62
3010
0000
1001
0000
,  // measure 63
0010
0100
0010
0100
,  // measure 64
0110
0000
0000
0000
;
