#TITLE:Lose My Mind;
#SUBTITLE:;
#ARTIST:KNOWER;
#TITLETRANSLIT:;
#SUBTITLETRANSLIT:;
#ARTISTTRANSLIT:;
#GENRE:;
#CREDIT:;
#BANNER:[Round 1] - Lose My Mind.png;
#BACKGROUND:[Round 1] - Lose My Mind-bg.png;
#LYRICSPATH:;
#CDTITLE:;
#MUSIC:[Round 1] - Lose My Mind.ogg;
#OFFSET:1.605972;
#SAMPLESTART:52.653000;
#SAMPLELENGTH:13.152000;
#LASTBEATHINT:1.474532;
#SELECTABLE:YES;
#BPMS:0.000000=146.000000
;
#STOPS:
;
#BGCHANGES:;
#KEYSOUNDS:;
#ATTACKS:;

//---------------dance-single - ----------------
#NOTES:
     dance-single:
     :
     Hard:
     9:
     0.515400,0.855452,0.303983,0.407977,0.247986,451.000000,413.000000,38.000000,51.000000,0.000000,0.000000,0.515400,0.855452,0.303983,0.407977,0.247986,451.000000,413.000000,38.000000,51.000000,0.000000,0.000000:
// measure 0
0000
0000
0000
0000
,  // measure 1
0000
0000
0000
0000
,  // measure 2
0000
0000
0000
0000
,  // measure 3
0000
0000
0000
0000
,  // measure 4
0000
0000
0000
0000
,  // measure 5
0000
0002
2003
3200
,  // measure 6
0320
0230
2300
0000
,  // measure 7
3000
0020
0230
0302
,  // measure 8
0023
0230
0320
0000
,  // measure 9
0031
0010
0100
0010
0000
0100
1000
0010
,  // measure 10
0100
0000
0001
0000
0010
0100
1000
0000
,  // measure 11
0100
0010
0100
1000
0000
0010
0100
0001
,  // measure 12
2000
0000
0000
3000
,  // measure 13
0001
0100
0010
1000
0000
1000
0100
0010
,  // measure 14
0001
0000
0100
0000
0010
1000
0001
0000
,  // measure 15
0010
0100
1000
0010
0100
0000
0001
0010
,  // measure 16
0200
0000
0000
0000
0300
0000
2002
3003
,  // measure 17
1000
0000
0100
0010
0001
0000
0010
0000
0100
0000
1000
0010
0100
0000
0001
0000
,  // measure 18
0010
0000
0100
0000
1000
0001
0101
0000
,  // measure 19
0001
0000
0100
0010
1000
0000
0010
0000
0100
0000
0001
0010
0100
0000
1000
0000
,  // measure 20
0100
0000
0010
0001
0000
0100
0001
0000
1000
0010
0000
1000
0100
0000
0000
0000
,  // measure 21
0010
0000
0001
0100
0010
0000
1000
0000
0100
0000
1000
0100
0010
0000
0001
0000
,  // measure 22
0100
0000
0010
0000
1000
0100
1100
0000
,  // measure 23
1000
0100
0010
0100
1000
0001
0100
0001
,  // measure 24
0010
0000
0001
0100
0000
0010
1000
0000
0100
1000
0100
1000
0001
0100
0001
0100
,  // measure 25
0020
1000
1000
0100
,  // measure 26
0230
0001
0010
0000
,  // measure 27
0302
0010
0010
1000
,  // measure 28
2003
0100
0001
0000
,  // measure 29
3002
0010
1000
0100
,  // measure 30
0023
0100
0001
0000
,  // measure 31
0230
1000
0010
0001
,  // measure 32
1000
0001
0020
0330
,  // measure 33
1100
0000
0000
1001
0000
0000
0101
0000
0001
0000
0000
0000
0010
0000
0000
0000
,  // measure 34
0011
0000
0000
1001
0000
0000
1010
0000
1000
0000
0000
0000
0001
0000
0000
0000
,  // measure 35
0101
0000
0000
0110
0000
0000
1010
0000
1000
0000
0000
0000
0100
0000
0000
0000
,  // measure 36
1000
0100
1000
0100
0010
0000
0001
0000
1000
0000
0001
0000
0100
0000
0000
0000
,  // measure 37
1010
0000
0000
1000
0010
0000
1000
0000
0100
0000
0010
0000
0011
0000
0000
0000
,  // measure 38
1100
0000
0000
1000
0100
0000
0010
0000
0001
0000
0100
0000
0101
0000
0000
0000
,  // measure 39
0011
0000
0000
0001
0010
0000
0100
0000
1000
0000
0001
0000
1000
0000
0010
0000
,  // measure 40
0200
0000
0000
0000
0310
1000
0001
0000
,  // measure 41
1001
0000
0000
0000
1000
0100
0010
0000
0001
0000
0100
0000
0010
0000
0000
0000
,  // measure 42
1010
1000
1001
0001
0011
0010
0110
0000
,  // measure 43
0022
0033
0000
0000
1001
0000
0001
0100
0010
0000
1000
0000
0100
0000
0000
0000
,  // measure 44
0010
0000
0001
1000
0001
0000
0100
0000
0010
0000
1000
0000
0001
0000
0000
0000
,  // measure 45
0100
0000
0000
0010
1000
0000
0200
0000
0001
0000
0000
0000
0010
0000
0000
0000
,  // measure 46
1300
0000
0000
0001
0010
0000
0200
0000
0001
0000
0000
0000
1000
0000
0000
0000
,  // measure 47
0310
0000
0000
0010
0001
0000
0200
0000
1000
0000
0000
0000
0001
0000
0000
0000
,  // measure 48
0310
0000
0000
0010
1000
0000
0200
0000
1000
0000
0000
0000
0001
0000
0000
0000
,  // measure 49
1300
0000
0000
0000
0001
0010
0100
0000
1000
0000
0010
0000
0100
0000
0000
0000
,  // measure 50
0101
0001
1001
0001
0011
0010
0110
0000
,  // measure 51
2200
0000
3300
0000
1001
0000
1000
0010
0100
0000
0001
0000
0010
0000
0000
0000
,  // measure 52
0100
0000
0100
1000
0000
0010
0100
0000
0001
0000
1000
0000
0100
0000
0000
0000
,  // measure 53
0020
0000
0000
0001
0000
0000
0031
0000
0100
0000
0010
0000
1000
0000
0000
0000
,  // measure 54
0200
0000
0000
1000
0000
0000
1300
0000
0001
0000
0010
0000
0100
0000
0000
0000
,  // measure 55
0020
0000
0000
0001
0000
0000
0031
0000
0010
0000
0100
0000
1000
0000
0000
0000
,  // measure 56
2000
0000
0000
0000
3100
0010
0001
0000
,  // measure 57
0011
0000
0001
0010
0100
0000
0010
0100
1000
0010
0100
0010
0100
0000
0001
0010
,  // measure 58
0001
1000
0010
1000
0100
0000
1000
0100
0010
0000
0001
0010
0100
0010
0001
0000
,  // measure 59
0100
0010
1000
0001
0100
0000
0001
1000
0100
0000
0010
0000
0110
0000
0000
0000
,  // measure 60
0002
0000
0000
2003
0000
0000
0200
0000
0000
0000
0000
0000
3300
0000
0000
0000
,  // measure 61
1100
0000
1000
0100
0010
0000
0100
0010
0001
0100
0010
0100
0010
0000
1000
0010
,  // measure 62
1000
0001
0010
0001
0100
0000
0001
0010
0100
0000
1000
0100
0010
0100
1000
0000
,  // measure 63
1001
0000
0101
0100
0110
0000
1000
0000
,  // measure 64
0002
0000
1003
0100
0110
0010
0022
0000
,  // measure 65
0033
0000
0000
0000
,  // measure 66
2000
0000
0000
0000
3001
0010
0100
0000
,  // measure 67
0020
0000
0000
0000
0130
0010
0001
0000
,  // measure 68
0200
0000
0000
0000
0310
1000
0100
0000
,  // measure 69
0020
0000
0000
0000
0130
1000
0010
0000
,  // measure 70
0200
0000
0000
0000
1300
0100
0001
0000
,  // measure 71
0020
0000
0000
0000
1030
0010
0001
0000
,  // measure 72
2000
0000
0000
0000
3010
1000
0001
0000
,  // measure 73
0002
0000
0000
0000
0013
0001
1000
0000
;

//---------------dance-single - ----------------
#NOTES:
     dance-single:
     :
     Medium:
     6:
     0.317696,0.412977,0.103994,0.183990,0.043998,278.000000,265.000000,13.000000,23.000000,0.000000,0.000000,0.317696,0.412977,0.103994,0.183990,0.043998,278.000000,265.000000,13.000000,23.000000,0.000000,0.000000:
0000
0000
0000
0000
,
0000
0000
0000
0000
,
0000
0000
0000
0000
,
0000
0000
0000
0000
,
0000
0000
0000
0000
,
0001
0100
0001
0001
,
1000
0100
2000
0000
,
3000
0010
0100
0010
,
0100
0100
0200
0000
,
0301
0000
0010
0001
0000
0100
0001
0000
,
0100
0000
0010
0000
1000
0010
1000
0000
,
0100
0000
0010
0001
0000
1000
0100
0000
,
2002
0000
0000
3003
,
1000
0000
0010
1000
0000
0001
1000
0000
,
0100
0000
0010
0000
0001
0010
0001
0000
,
1000
0000
0010
0100
0000
0001
1000
0000
,
0200
0000
0300
1001
,
0010
0000
1000
0001
1000
0000
0100
0000
,
0001
1000
0001
0000
0100
0010
0100
0000
,
0010
1000
0001
0010
,
0100
0000
0100
0000
0010
0100
0010
0000
,
0001
0000
0010
0100
0010
0000
1000
0000
,
0100
0010
0100
0000
1000
0001
1000
0000
,
0010
0100
0001
1000
,
2002
0000
0000
3003
,
0200
0000
0000
0000
,
2300
0000
0000
0000
,
3020
0000
0000
0000
,
0230
0000
0000
0000
,
0302
0000
0000
0000
,
0023
0000
0000
0000
,
0230
0000
0000
0000
,
2300
0000
3000
1001
,
0001
0000
0000
0001
0000
0000
0001
0000
0000
0000
0000
0000
0000
0000
0000
0000
,
1000
0000
0000
1000
0000
0000
1000
0000
0000
0000
0000
0000
0000
0000
0000
0000
,
0010
0000
0000
0010
0000
0000
0010
0000
0000
0000
0000
0000
0000
0000
0000
0000
,
0200
0300
0000
0000
,
0001
0001
0001
0001
,
1000
1000
1000
1000
,
0010
0010
0010
0010
,
0200
0000
0000
0000
0301
1000
0001
0000
,
1001
0000
1000
1000
0100
0000
0010
0000
,
0001
0010
0001
0010
0002
0000
1003
0000
,
1001
0000
1000
0010
1000
0000
0010
0000
,
0100
0001
0010
0010
,
0001
0000
0000
0001
0000
0000
0001
0000
0100
0000
0000
0000
0100
0000
0000
0000
,
0010
0000
0000
0010
0000
0000
0010
0000
1000
0000
0000
0000
1000
0000
0000
0000
,
0100
0000
0000
0100
0000
0000
0100
0000
0010
0000
0000
0000
0010
0000
0000
0000
,
0001
0000
0000
0001
0000
0000
0001
0000
1000
0000
0100
0000
1000
0000
0000
0000
,
1001
0000
0001
0001
0010
0000
0100
0000
,
1000
0100
1000
0100
2000
0000
3001
0000
,
1001
0000
0001
0010
0001
0000
0010
0000
,
0100
0100
1000
0100
,
0110
0000
0000
0010
0000
0000
0010
0000
0001
0000
1000
0000
0001
0000
0000
0000
,
0100
0000
0000
0100
0000
0000
0100
0000
0001
0000
1000
0000
0001
0000
0000
0000
,
0010
0000
0000
0010
0000
0000
0010
0000
0100
0000
0010
0000
0100
0000
0000
0000
,
0020
0000
0000
0000
0130
0010
0100
0000
,
0110
0000
1001
0000
0100
0100
0100
0000
,
0010
0100
0010
0000
1000
0001
1000
0000
,
0100
0100
0100
0000
0010
0001
0010
0000
,
0001
0000
0000
0001
0000
0000
0002
0000
0000
0000
0000
0000
0003
0000
0000
0000
,
1001
0000
0110
0000
0010
0010
0010
0000
,
0100
0010
0100
0000
0001
1000
0001
0000
,
0020
0000
0130
0100
1000
0000
0001
0000
,
0200
0000
0310
0010
0100
0000
0001
0000
,
0000
0000
0000
0000
,
0000
0000
0000
0000
0001
0100
0001
0000
,
0000
0000
0000
0000
1000
0100
1000
0000
,
0000
0000
0000
0000
1000
0010
1000
0000
,
0000
0000
0000
0000
0001
0010
0001
0000
,
0000
0000
0000
0000
0001
0100
0010
0000
,
0000
0000
0000
0000
1000
0100
0010
0000
,
0000
0000
0000
0000
0001
0010
0100
0000
,
0000
0000
0000
0000
1000
0010
0100
0000
;

//---------------dance-single - ----------------
#NOTES:
     dance-single:
     :
     Easy:
     3:
     0.202274,0.355180,0.103994,0.255986,0.000000,177.000000,164.000000,13.000000,32.000000,0.000000,0.000000,0.202274,0.355180,0.103994,0.255986,0.000000,177.000000,164.000000,13.000000,32.000000,0.000000,0.000000:
0000
0000
0000
0000
,
0000
0000
0000
0000
,
0000
0000
0000
0000
,
0000
0000
0000
0000
,
0000
0000
0000
0000
,
0001
0000
0000
0000
,
1000
0000
0000
0000
,
0001
0000
1000
0000
,
0001
0000
1000
0000
,
0001
0000
0000
0000
,
0100
0000
0000
0000
,
1000
0000
0000
0000
,
0020
0000
0030
0000
,
1000
0000
1000
0000
,
1000
0000
1000
0000
,
0001
0000
0001
0000
,
0001
0000
0001
1001
,
1000
0100
0010
0001
,
1000
0100
0010
0010
,
0001
0100
0010
1000
,
0001
0100
0010
1000
,
0100
0100
0010
0010
,
0100
0010
0100
1000
,
0001
0001
1000
1000
,
2002
0000
0000
3003
,
0002
0000
0000
0003
,
2000
0000
0000
3000
,
0020
0000
0000
0030
,
0200
0000
0000
0300
,
0020
0000
0000
0030
,
2000
0000
0000
3000
,
0002
0000
0000
0003
,
2000
0000
0000
3000
,
0001
0000
0000
0001
0000
0000
0000
0000
,
1000
0000
0000
1000
0000
0000
0000
0000
,
0100
0000
0000
0100
0000
0000
0000
0000
,
0020
0030
0000
0000
,
0001
0000
0001
0000
,
0010
0000
0010
0000
,
0100
0000
0100
0000
,
2000
0000
3001
0000
,
0100
0100
0010
0010
,
1000
0100
0010
0001
,
1001
0001
1000
1000
,
0100
0010
0001
0001
,
0200
0300
0010
0010
,
0200
0300
0010
0010
,
2000
3000
0001
0001
,
2000
3000
0001
0001
,
0100
0100
0010
0010
,
1000
0010
0100
0001
,
1001
1000
0001
0001
,
0100
0010
1000
0001
,
0002
0003
1000
1000
,
0002
0003
1000
1000
,
0020
0030
0100
0100
,
0020
0030
0100
0100
,
1001
1001
1000
0001
,
0100
0100
0010
0010
,
0110
0110
0100
0010
,
2002
0000
0000
3003
,
0110
0110
1000
0001
,
0010
0010
0100
0100
,
1001
1001
1000
0001
,
0200
0310
0010
0010
,
0000
0000
0000
0000
,
2000
0000
0000
0000
,
3002
0000
0000
0000
,
2003
0000
0000
0000
,
3002
0000
0000
0000
,
0203
0000
0000
0000
,
0320
0000
0000
0000
,
0230
0000
0000
0000
,
0320
0000
0000
0000
,
0030
0000
0000
0000
;

//---------------dance-single - ----------------
#NOTES:
     dance-single:
     :
     Beginner:
     1:
     0.121136,0.233587,0.071996,0.183990,0.000000,106.000000,97.000000,9.000000,23.000000,0.000000,0.000000,0.121136,0.233587,0.071996,0.183990,0.000000,106.000000,97.000000,9.000000,23.000000,0.000000,0.000000:
0000
0000
0000
0000
,
0000
0000
0000
0000
,
0000
0000
0000
0000
,
0000
0000
0000
0000
,
0000
0000
0000
0000
,
0000
0000
0000
0000
,
0000
0000
0000
0000
,
0000
0000
0000
0000
,
0000
0000
0000
0000
,
0001
0000
0000
0000
,
0001
0000
0000
0000
,
1000
0000
0000
0000
,
1000
0000
0000
0000
,
0010
0000
0000
0000
,
0010
0000
0000
0000
,
0100
0000
0000
0000
,
0100
0000
0000
0000
,
0001
0000
0001
0000
,
1000
0000
1000
0000
,
0010
0000
0010
0000
,
0100
0000
0100
0000
,
0001
0000
0010
0000
,
1000
0000
0010
0000
,
0001
0000
0100
0000
,
1000
0000
0100
0000
,
0020
0000
0030
0000
,
0020
0000
0030
0000
,
0200
0000
0300
0000
,
0200
0000
0300
0000
,
2000
0000
3000
0000
,
2000
0000
3000
0000
,
0002
0000
0003
0000
,
0002
0000
0003
0000
,
1001
0000
0000
0000
,
1001
0000
0000
0000
,
0110
0000
0000
0000
,
0200
0300
0000
0000
,
1001
0000
0001
0000
,
1001
0000
1000
0000
,
0110
0000
0100
0000
,
0110
0000
0010
0000
,
1001
0000
0001
0000
,
1000
1000
1000
0000
,
0001
0000
0001
0000
,
0010
0010
0010
0000
,
0200
0000
0300
0000
,
0020
0000
0030
0000
,
0002
0000
0003
0000
,
2000
0000
3000
0000
,
1001
0000
1000
0000
,
0001
0001
0001
0000
,
1000
0000
1000
0000
,
0100
0100
0100
0000
,
0020
0000
0030
0000
,
0002
0000
0003
0000
,
2000
0000
3000
0000
,
0200
0000
0300
0000
,
0010
0010
0010
0000
,
0001
0001
0001
0000
,
0100
0100
0100
0000
,
2000
0000
3000
0000
,
0001
0001
0001
0000
,
1000
1000
1000
0000
,
0010
0000
0010
0010
,
0010
0000
0200
0000
,
0300
0000
0000
0000
,
0002
0000
0000
0000
,
0003
0000
0000
0000
,
2000
0000
0000
0000
,
3000
0000
0000
0000
,
0020
0000
0000
0000
,
0030
0000
0000
0000
,
0200
0000
0000
0000
,
0300
0000
0000
0000
;
