#VERSION:0.83;
#TITLE:Ejecta;
#SUBTITLE:;
#ARTIST:Airbase;
#TITLETRANSLIT:;
#SUBTITLETRANSLIT:;
#ARTISTTRANSLIT:;
#GENRE:;
#ORIGIN:;
#CREDIT:;
#BANNER:;
#BACKGROUND:;
#PREVIEWVID:;
#JACKET:;
#CDIMAGE:;
#DISCIMAGE:;
#LYRICSPATH:;
#CDTITLE:;
#MUSIC:Ejecta.ogg;
#OFFSET:-1.879999;
#SAMPLESTART:16.900000;
#SAMPLELENGTH:14.999998;
#SELECTABLE:YES;
#BPMS:0.000=128.000;
#STOPS:;
#DELAYS:;
#WARPS:;
#TIMESIGNATURES:0.000=4=4;
#TICKCOUNTS:0.000=4;
#COMBOS:0.000=1;
#SPEEDS:0.000=1.000=0.000=0;
#SCROLLS:0.000=1.000;
#FAKES:;
#LABELS:0.000=Song Start;
#BGCHANGES:;
#KEYSOUNDS:;
#ATTACKS:
;

//---------------dance-single - ----------------
#NOTEDATA:;
#CHARTNAME:;
#STEPSTYPE:dance-single;
#DESCRIPTION:;
#CHARTSTYLE:;
#DIFFICULTY:Hard;
#METER:7;
#RADARVALUES:0.327179,0.440567,0.104897,0.209794,0.104897,262.000000,250.000000,12.000000,24.000000,0.000000,0.000000,0.000000,0.000000,0.000000,0.327179,0.440567,0.104897,0.209794,0.104897,262.000000,250.000000,12.000000,24.000000,0.000000,0.000000,0.000000,0.000000,0.000000;
#CREDIT:;
#NOTES:
// measure 0
0000
0000
0000
0000
,  // measure 1
0000
0000
0000
0000
,  // measure 2
0000
0000
0000
0000
,  // measure 3
0000
0000
0000
0000
,  // measure 4
1001
0000
0001
0000
0010
0100
0010
0000
,  // measure 5
0001
0000
1000
0000
0010
0100
0010
0000
,  // measure 6
1000
0000
0010
0000
0100
0010
0100
0000
,  // measure 7
0001
0000
0000
1000
0000
0000
0010
0100
0010
0000
1000
0000
0001
0000
0010
0000
,  // measure 8
1001
0000
0000
0000
0001
0000
0000
0000
0010
0000
0000
0100
0000
0000
0000
0000
,  // measure 9
0010
0000
0000
0000
0100
0000
0000
0000
0001
0000
0000
1000
0000
0001
0000
0000
,  // measure 10
1000
0000
0000
0000
0001
0000
0000
0000
0100
0000
0000
0010
0000
0000
0000
0000
,  // measure 11
1000
0002
2003
3200
,  // measure 12
1300
0000
0000
0000
0010
0000
0000
0000
0100
0000
0000
0010
0000
0000
0000
0000
,  // measure 13
0100
0000
0000
0000
0001
0000
0000
0000
1000
0000
0000
0100
0000
1000
0000
0000
,  // measure 14
0100
0000
0000
0000
1000
0000
0000
0000
0010
0000
0000
0100
0000
0000
0000
0000
,  // measure 15
0010
0200
0320
2030
,  // measure 16
3001
0000
1001
0000
1000
0010
1000
0000
,  // measure 17
0010
0000
0100
0000
0001
0100
0001
0000
,  // measure 18
0010
0000
0100
0000
1000
0100
1000
0000
,  // measure 19
0100
2000
3020
0230
,  // measure 20
0301
0000
0010
0000
0100
0010
0001
0000
,  // measure 21
0010
0000
0001
0000
1000
0100
0010
0000
,  // measure 22
0100
0000
1000
0000
0010
0100
0001
0000
,  // measure 23
0100
0020
2030
3002
,  // measure 24
0023
0000
0001
0000
,  // measure 25
0001
0000
0230
0000
,  // measure 26
2300
0000
0001
0000
,  // measure 27
0010
0000
0001
0000
,  // measure 28
3020
0000
1000
0000
,  // measure 29
0100
0000
2030
0000
,  // measure 30
3002
0000
0100
0000
,  // measure 31
0010
0000
0100
0000
,  // measure 32
0013
0001
0010
0001
0010
0001
1000
0000
,  // measure 33
0001
1000
0001
1000
0001
1000
0100
0000
,  // measure 34
1000
0010
1000
0010
1000
0010
0100
0000
,  // measure 35
0001
1000
0001
1000
0001
1000
0010
0000
,  // measure 36
1000
0100
0010
0001
1000
0001
1000
0000
,  // measure 37
0001
0010
0100
1000
0001
1000
0001
0000
,  // measure 38
1000
0010
0100
0001
1000
0010
0100
0001
,  // measure 39
1000
0000
0000
0100
0000
0000
0010
0100
1000
0000
0001
0000
0100
0000
0010
0000
,  // measure 40
1001
0000
0000
0000
0001
0000
0000
0000
0100
0000
0000
1000
0000
0000
0000
0000
,  // measure 41
0100
0000
0000
0000
0010
0000
0000
0000
1000
0000
0000
0010
0000
0100
0000
0000
,  // measure 42
0010
0000
0000
0000
1000
0000
0000
0000
0001
0000
0000
0010
0000
0000
0000
0000
,  // measure 43
0100
0020
0230
2300
,  // measure 44
3001
0000
0000
0000
0100
0000
0000
0000
0001
0000
0000
0010
0000
0000
0000
0000
,  // measure 45
1000
0000
0000
0000
0010
0000
0000
0000
0100
0000
0000
0010
0000
0001
0000
0000
,  // measure 46
0010
0000
0000
0000
0100
0000
0000
0000
1000
0000
0000
0010
0000
0000
0000
0000
,  // measure 47
0100
0000
0000
0010
0000
0000
1000
0001
1000
0000
0001
0000
0010
0000
0100
0000
,  // measure 48
1001
0000
0101
0000
0001
1000
0010
0000
,  // measure 49
1000
0000
0101
0000
0001
1000
0100
0000
,  // measure 50
1000
0000
0011
0000
0010
0001
0100
0000
,  // measure 51
0010
2000
3002
2003
,  // measure 52
3100
0000
1100
0000
1000
0010
0100
0000
,  // measure 53
0001
0000
0011
0000
0010
0100
1000
0000
,  // measure 54
0100
0000
0110
0000
0010
0001
0100
0000
,  // measure 55
0010
0000
0000
0100
0000
0000
0010
1000
0010
0000
0100
0000
0001
0000
1000
0000
,  // measure 56
1001
0000
0000
0000
;

//---------------dance-single - ----------------
#NOTEDATA:;
#CHARTNAME:;
#STEPSTYPE:dance-single;
#DESCRIPTION:;
#CHARTSTYLE:;
#DIFFICULTY:Medium;
#METER:5;
#RADARVALUES:0.292213,0.342663,0.183570,0.183570,0.000000,234.000000,213.000000,21.000000,21.000000,0.000000,0.000000,0.000000,0.000000,0.000000,0.292213,0.342663,0.183570,0.183570,0.000000,234.000000,213.000000,21.000000,21.000000,0.000000,0.000000,0.000000,0.000000,0.000000;
#CREDIT:;
#NOTES:
// measure 0
0000
0000
0000
0000
,  // measure 1
0000
0000
0000
0000
,  // measure 2
0000
0000
0000
0000
,  // measure 3
0000
0000
0000
0000
,  // measure 4
1001
0001
0010
0010
,  // measure 5
0001
1000
0010
0010
,  // measure 6
1000
0001
0100
0010
,  // measure 7
0200
0000
0000
0300
,  // measure 8
1001
0001
0010
0010
,  // measure 9
0001
1000
0010
0010
,  // measure 10
1000
0001
0100
0100
,  // measure 11
0001
2000
3200
0320
,  // measure 12
0031
0010
0001
0001
,  // measure 13
1000
0010
0100
0100
,  // measure 14
0010
1000
0100
0100
,  // measure 15
1000
0002
2003
3020
,  // measure 16
0130
0000
1001
0000
0001
0100
0001
0000
,  // measure 17
0100
0000
0010
0000
1000
0010
1000
0000
,  // measure 18
0010
0000
0100
0000
0001
1000
0001
0000
,  // measure 19
1000
0200
2300
3020
,  // measure 20
0130
0000
0010
0000
0100
0001
0100
0000
,  // measure 21
0001
0000
0010
0000
0100
1000
0100
0000
,  // measure 22
1000
0000
0001
0000
0100
0010
0100
0000
,  // measure 23
0010
2000
3002
0203
,  // measure 24
0310
1000
0010
1000
,  // measure 25
0001
0100
0001
0100
,  // measure 26
0001
0010
0001
0010
,  // measure 27
0100
1000
0100
1000
,  // measure 28
0001
1000
0001
1000
,  // measure 29
0010
0100
0010
0100
,  // measure 30
0001
0100
0001
0100
,  // measure 31
0010
1000
0010
1000
,  // measure 32
1001
1001
1001
1001
,  // measure 33
0001
1000
0010
0100
,  // measure 34
0110
0110
0110
0110
,  // measure 35
0100
0010
1000
0001
,  // measure 36
1010
0101
1010
0101
,  // measure 37
1000
0001
0100
0001
,  // measure 38
0011
1100
0011
1100
,  // measure 39
0002
0000
0000
0003
,  // measure 40
1010
0010
0100
0001
,  // measure 41
0010
0100
0010
0001
,  // measure 42
1000
0010
0100
0010
,  // measure 43
1000
0002
0023
0230
,  // measure 44
1300
0100
1000
1000
,  // measure 45
0010
0100
0001
0001
,  // measure 46
0010
0001
1000
1000
,  // measure 47
0001
0000
0100
0000
0010
1000
0010
0000
,  // measure 48
1000
0000
1001
0000
0001
0010
0100
0000
,  // measure 49
0010
0000
0001
0000
1000
0100
0010
0000
,  // measure 50
0100
0000
1000
0000
0010
0100
0001
0000
,  // measure 51
1000
0002
2003
3020
,  // measure 52
0130
0000
0010
0000
1000
0010
0100
0000
,  // measure 53
0001
0000
0010
0000
0100
0010
0001
0000
,  // measure 54
1000
0000
0001
0000
0100
0010
1000
0000
,  // measure 55
0002
0000
0000
0000
,  // measure 56
0103
0000
0000
0000
;

//---------------dance-single - ----------------
#NOTEDATA:;
#CHARTNAME:;
#STEPSTYPE:dance-single;
#DESCRIPTION:;
#CHARTSTYLE:;
#DIFFICULTY:Easy;
#METER:3;
#RADARVALUES:0.213540,0.293711,0.157345,0.069931,0.000000,171.000000,153.000000,18.000000,8.000000,0.000000,0.000000,0.000000,0.000000,0.000000,0.213540,0.293711,0.157345,0.069931,0.000000,171.000000,153.000000,18.000000,8.000000,0.000000,0.000000,0.000000,0.000000,0.000000;
#CREDIT:;
#NOTES:
0000
0000
0000
0000
,
0000
0000
0000
0000
,
0000
0000
0000
0000
,
0000
0000
0000
0000
,
1001
0000
1000
0000
,
0001
0000
0100
0000
,
0001
0000
0010
0000
,
0200
0000
0000
0300
,
1001
1000
0001
0000
,
0100
0010
0100
0000
,
0010
1000
0010
0000
,
1000
0001
0010
0100
,
1001
0001
0010
0000
,
0001
0100
0001
0000
,
0100
0010
0100
0000
,
0010
1000
0010
0100
,
1001
0001
1000
0010
,
1000
0001
1000
0010
,
1000
0001
1000
0100
,
1000
0001
0100
0010
,
1010
1000
0010
0100
,
0001
1000
0010
0100
,
0010
1000
0001
0010
,
0100
0010
0001
0100
,
1002
0000
0000
0000
,
0000
0000
1003
0000
,
0200
0000
0000
0000
,
0000
0000
0000
0000
,
0320
0000
0000
0000
,
0000
0000
0031
0000
,
0200
0000
0000
0000
,
0000
0000
0000
0300
,
0001
1000
0001
1001
,
1000
0001
1000
1001
,
0001
1000
0001
1001
,
1000
0001
1000
1001
,
0100
0010
0100
0110
,
0010
0100
0010
0110
,
0100
0010
1000
1001
,
0002
0000
0000
0003
,
1001
0001
0010
0000
,
0001
0100
0010
0000
,
0100
0010
1000
0000
,
0001
1000
0100
0010
,
1001
0001
0100
0000
,
0010
1000
0100
0000
,
1000
0001
0010
0000
,
0200
0000
0000
0300
,
1001
0001
0010
0001
,
1000
0010
1000
0001
,
0100
0001
0100
0010
,
1000
0010
0100
0001
,
1001
1000
0001
0010
,
0001
1000
0100
0010
,
0100
1000
0010
0100
,
0002
0000
0000
0003
,
1001
0000
0000
0000
;

//---------------dance-single - ----------------
#NOTEDATA:;
#CHARTNAME:;
#STEPSTYPE:dance-single;
#DESCRIPTION:;
#CHARTSTYLE:;
#DIFFICULTY:Beginner;
#METER:1;
#RADARVALUES:0.078673,0.122380,0.061190,0.000000,0.000000,63.000000,56.000000,7.000000,0.000000,0.000000,0.000000,0.000000,0.000000,0.000000,0.078673,0.122380,0.061190,0.000000,0.000000,63.000000,56.000000,7.000000,0.000000,0.000000,0.000000,0.000000,0.000000,0.000000;
#CREDIT:;
#NOTES:
0000
0000
0000
0000
,
0000
0000
0000
0000
,
0000
0000
0000
0000
,
0000
0000
0000
0000
,
1000
0000
0000
0000
,
0001
0000
0000
0000
,
0100
0000
0000
0000
,
0010
0000
0000
0000
,
1001
0000
0000
0000
,
1000
0000
0000
0000
,
0001
0000
0000
0000
,
0100
0000
0010
0000
,
1001
0000
0000
0000
,
0001
0000
0000
0000
,
0010
0000
0000
0000
,
0001
0000
1000
0000
,
0010
0000
0000
0000
,
0100
0000
0000
0000
,
0001
0000
0000
0000
,
1000
0000
1000
0000
,
0001
0000
0000
0000
,
0010
0000
0000
0000
,
0001
0000
0000
0000
,
0100
0000
0100
0000
,
0110
0000
0000
0000
,
0000
0000
0010
0000
,
0010
0000
0000
0000
,
0000
0000
0000
0000
,
1001
0000
0000
0000
,
0000
0000
1000
0000
,
1000
0000
0000
0000
,
0000
0000
0000
0000
,
0001
0000
0000
0000
,
1000
0000
0000
0000
,
0010
0000
0000
0000
,
0100
0000
0000
0000
,
0010
0000
0000
0000
,
1000
0000
0000
0000
,
0001
0000
0000
0000
,
0000
0000
0000
0000
,
1001
0000
0000
0000
,
0001
0000
0000
0000
,
0100
0000
0000
0000
,
0010
0000
0000
0000
,
1000
0000
0000
0000
,
0100
0000
0000
0000
,
1000
0000
0000
0000
,
0001
0000
0000
0000
,
0110
0000
0000
0000
,
0100
0000
0000
0000
,
0001
0000
0000
0000
,
1000
0000
0001
0000
,
0100
0000
0000
0000
,
0010
0000
0000
0000
,
1000
0000
0000
0000
,
0001
0000
1000
0000
,
0110
0000
0000
0000
;
