#VERSION:0.83;
#TITLE:Down on Love;
#SUBTITLE:;
#ARTIST:Ferry Corsten;
#TITLETRANSLIT:;
#SUBTITLETRANSLIT:;
#ARTISTTRANSLIT:;
#GENRE:;
#ORIGIN:;
#CREDIT:;
#BANNER:Down on Love - Ferry Corstenbn.png;
#BACKGROUND:Down on Love - Ferry Corstenbg.png;
#PREVIEWVID:;
#JACKET:Down on Love - Ferry Corstenjacket.png;
#CDIMAGE:;
#DISCIMAGE:;
#LYRICSPATH:Down on Love - Ferry Corsten.lrc;
#CDTITLE:encorerebirthappend1.png;
#MUSIC:Down on Love - Ferry Corsten.ogg;
#OFFSET:0.000000;
#SAMPLESTART:73.261559;
#SAMPLELENGTH:14.579235;
#SELECTABLE:YES;
#DISPLAYBPM:131.000000;
#BPMS:0.000=131.000,
155.000=65.500,
155.500=75.894,
156.000=97.844,
156.500=119.752,
157.000=262.000,
159.000=131.000;
#STOPS:155.000=0.438;
#DELAYS:;
#WARPS:;
#TIMESIGNATURES:0.000=4=4;
#TICKCOUNTS:0.000=4;
#COMBOS:0.000=1;
#SPEEDS:0.000=1.000=0.000=0;
#SCROLLS:0.000=1.000;
#FAKES:;
#LABELS:0.000=Song Start;
#BGCHANGES:;
#KEYSOUNDS:;
#ATTACKS:
;

//---------------dance-single - Spork!----------------
#NOTEDATA:;
#CHARTNAME:Spork! - Beginner;
#STEPSTYPE:dance-single;
#DESCRIPTION:Spork!;
#CHARTSTYLE:;
#DIFFICULTY:Beginner;
#METER:1;
#RADARVALUES:0.085658,0.131715,0.044089,0.079359,0.000000,68.000000,63.000000,5.000000,9.000000,0.000000,0.000000,0.000000,0.000000,0.000000,0.085658,0.131715,0.044089,0.079359,0.000000,68.000000,63.000000,5.000000,9.000000,0.000000,0.000000,0.000000,0.000000,0.000000;
#CREDIT:Spork!;
#DISPLAYBPM:131.000000;
#NOTES:
// measure 0
0000
0000
0000
0000
,  // measure 1
0000
0000
0000
0000
,  // measure 2
0000
0000
0000
0000
,  // measure 3
0000
0000
0000
0000
,  // measure 4
0020
0000
0000
0000
,  // measure 5
0030
0000
0000
0000
,  // measure 6
0200
0000
0000
0000
,  // measure 7
0300
0000
0000
0000
,  // measure 8
0001
0000
0100
0000
,  // measure 9
0010
0000
0000
0000
,  // measure 10
1000
0000
0100
0000
,  // measure 11
0010
0000
0000
0000
,  // measure 12
0001
0000
0010
0000
,  // measure 13
0100
0000
0000
0000
,  // measure 14
1000
0000
0010
0000
,  // measure 15
0100
0000
0000
0000
,  // measure 16
0002
0000
0000
0000
,  // measure 17
1003
0000
0000
0000
,  // measure 18
2000
0000
0000
0000
,  // measure 19
3001
0000
0000
0000
,  // measure 20
0001
0000
0010
0000
,  // measure 21
0100
0000
1000
0000
,  // measure 22
0001
0000
0000
0000
,  // measure 23
1000
0000
0000
0000
,  // measure 24
0020
0000
0000
0000
,  // measure 25
0130
0000
0000
0000
,  // measure 26
0200
0000
0000
0000
,  // measure 27
0310
0000
0000
0000
,  // measure 28
1000
0000
0100
0000
,  // measure 29
0010
0000
0001
0000
,  // measure 30
1000
0000
0000
0000
,  // measure 31
0001
0000
0000
0000
,  // measure 32
1001
0000
0000
0000
,  // measure 33
0110
0000
0000
0000
,  // measure 34
0100
0000
0100
0000
,  // measure 35
0100
0000
0000
0000
,  // measure 36
1001
0000
0000
0000
,  // measure 37
0110
0000
0000
0000
,  // measure 38
0020
0000
0000
0030
,  // measure 39
0000
0000
0000
1000
,  // measure 40
0000
0000
0000
1000
,  // measure 41
0000
0000
0000
0001
,  // measure 42
0000
0000
0000
0001
,  // measure 43
0000
0000
0000
0200
,  // measure 44
0000
0300
0000
0020
,  // measure 45
0000
0030
0000
1000
,  // measure 46
0000
0100
0000
0010
,  // measure 47
0000
0001
0000
1000
,  // measure 48
0000
0000
0000
0000
,  // measure 49
0000
1000
0000
0001
,  // measure 50
0000
0000
0000
0000
,  // measure 51
0000
0001
0000
0100
,  // measure 52
0000
0000
0000
0000
,  // measure 53
0000
0100
0000
0010
,  // measure 54
0000
0000
0000
0010
,  // measure 55
0000
0000
0000
0100
,  // measure 56
0000
0000
0000
0000
,  // measure 57
0000
0000
0000
0100
,  // measure 58
0000
0000
0000
0000
,  // measure 59
0000
0000
0000
1001
;

//---------------dance-single - Spork!----------------
#NOTEDATA:;
#CHARTNAME:Spork! - Light;
#STEPSTYPE:dance-single;
#DESCRIPTION:Spork!;
#CHARTSTYLE:;
#DIFFICULTY:Easy;
#METER:2;
#RADARVALUES:0.123448,0.184401,0.176354,0.273349,0.000000,98.000000,78.000000,20.000000,31.000000,0.000000,0.000000,0.000000,0.000000,0.000000,0.123448,0.184401,0.176354,0.273349,0.000000,98.000000,78.000000,20.000000,31.000000,0.000000,0.000000,0.000000,0.000000,0.000000;
#CREDIT:Spork!;
#DISPLAYBPM:131.000000;
#NOTES:
// measure 0
0000
0000
0000
0000
,  // measure 1
0000
0000
0000
0000
,  // measure 2
0000
0000
0000
0000
,  // measure 3
0000
0000
0000
0000
,  // measure 4
0002
0000
0000
0000
,  // measure 5
0003
0000
0000
0000
,  // measure 6
2000
0000
0000
0000
,  // measure 7
3000
0000
0000
0000
,  // measure 8
0010
0000
1000
0000
,  // measure 9
0001
0000
0001
0000
,  // measure 10
0010
0000
0001
0000
,  // measure 11
0100
0000
0100
0000
,  // measure 12
0001
0000
1000
0000
,  // measure 13
0010
0000
0010
0000
,  // measure 14
0100
0000
0001
0000
,  // measure 15
1000
0000
0000
0000
,  // measure 16
0202
0000
0303
0000
,  // measure 17
2200
0000
3300
0000
,  // measure 18
2020
0000
3030
0000
,  // measure 19
0022
0000
0033
0000
,  // measure 20
0001
0000
0100
0000
,  // measure 21
1000
0000
0100
0000
,  // measure 22
0001
0000
0000
0000
,  // measure 23
1000
0000
0000
0000
,  // measure 24
2200
0000
3300
0000
,  // measure 25
0202
0000
0303
0000
,  // measure 26
0022
0000
0033
0000
,  // measure 27
2020
0000
3030
0000
,  // measure 28
1000
0000
0010
0000
,  // measure 29
0001
0000
0010
0000
,  // measure 30
1000
0000
0000
0000
,  // measure 31
0001
0000
0000
0001
,  // measure 32
2000
0000
0100
0000
,  // measure 33
3200
0000
0010
0000
,  // measure 34
0310
0000
0100
0000
,  // measure 35
1000
0000
0000
1000
,  // measure 36
0002
0000
0100
0000
,  // measure 37
0203
0000
0010
0000
,  // measure 38
0320
0000
0000
0030
,  // measure 39
0000
0000
0000
1001
,  // measure 40
0000
0001
0000
0100
,  // measure 41
0000
0010
0000
0110
,  // measure 42
0000
0010
0000
1000
,  // measure 43
0000
0001
0000
2002
,  // measure 44
0000
3003
0000
0220
,  // measure 45
0000
0330
0000
1000
,  // measure 46
0000
0100
0000
0001
,  // measure 47
0000
0100
0000
1000
,  // measure 48
0000
0000
0000
0000
,  // measure 49
0000
0101
0000
1100
,  // measure 50
0000
0000
0000
0000
,  // measure 51
0000
0110
0000
1001
,  // measure 52
0000
0000
0000
0000
,  // measure 53
0000
1100
0000
0202
,  // measure 54
0000
0000
0303
2002
,  // measure 55
0000
0000
3003
0001
,  // measure 56
0000
0000
0000
0001
,  // measure 57
0000
0000
0000
1000
,  // measure 58
0000
0000
0000
1000
,  // measure 59
0000
0000
0000
0110
;

//---------------dance-single - Spork!----------------
#NOTEDATA:;
#CHARTNAME:Spork! - Standard;
#STEPSTYPE:dance-single;
#DESCRIPTION:Spork!;
#CHARTSTYLE:;
#DIFFICULTY:Medium;
#METER:5;
#RADARVALUES:0.243117,0.316115,0.141084,0.246896,0.008818,193.000000,177.000000,16.000000,28.000000,0.000000,0.000000,0.000000,0.000000,0.000000,0.243117,0.316115,0.141084,0.246896,0.008818,193.000000,177.000000,16.000000,28.000000,0.000000,0.000000,0.000000,0.000000,0.000000;
#CREDIT:Spork!;
#DISPLAYBPM:131.000000;
#NOTES:
// measure 0
0000
0000
0000
0000
,  // measure 1
0000
0000
0000
0000
,  // measure 2
0000
0000
0000
0000
,  // measure 3
0000
0000
0000
0000
,  // measure 4
0002
0000
0010
0000
,  // measure 5
1000
0000
2003
0000
,  // measure 6
3200
0000
1000
0000
,  // measure 7
0010
0000
0310
0000
,  // measure 8
0011
0000
0000
0010
0000
0001
0000
1000
,  // measure 9
0000
0000
0110
0000
,  // measure 10
0101
0000
0000
0001
0000
0100
0000
0010
,  // measure 11
0000
0000
1010
0000
,  // measure 12
1100
0000
0000
0100
0000
1000
0000
0001
,  // measure 13
0000
0000
0110
0000
,  // measure 14
1010
0000
0000
0010
0000
1000
0000
0200
,  // measure 15
0000
0000
0300
0000
,  // measure 16
1000
0000
0100
0000
0000
0100
0000
0100
,  // measure 17
0010
0001
0000
0001
,  // measure 18
0100
0000
0010
0000
0000
0000
0010
1000
,  // measure 19
0000
0001
0000
1001
,  // measure 20
1000
0000
0100
0000
0001
0000
0000
0100
,  // measure 21
0000
1000
0000
0010
0000
0100
0001
1000
,  // measure 22
0000
0001
0000
0000
0010
0001
0010
0000
,  // measure 23
0100
0000
1000
0000
0001
1000
0001
0000
,  // measure 24
1000
0000
0010
0000
0000
0000
0010
0100
,  // measure 25
0000
0001
0000
0000
0000
0000
0001
0000
,  // measure 26
0010
0000
0100
0000
0000
0000
0100
1000
,  // measure 27
0000
0001
0000
1001
,  // measure 28
0001
0100
1000
0100
,  // measure 29
0001
0000
0000
0000
0010
0000
0000
0000
0000
0000
0000
0100
0000
0000
1000
0000
,  // measure 30
0000
0001
0000
0000
1000
0000
0000
0000
0010
0000
1000
0000
0010
0000
0000
0000
,  // measure 31
0100
0000
0001
0000
0010
0001
0010
0000
,  // measure 32
0002
2000
0003
3010
,  // measure 33
0200
0020
0300
1030
,  // measure 34
0001
0010
1000
0010
,  // measure 35
0001
0000
1001
0001
,  // measure 36
2000
0000
3002
0000
,  // measure 37
0203
0000
0302
0000
,  // measure 38
0023
0000
0000
0030
,  // measure 39
0000
0000
0000
1100
,  // measure 40
0000
0100
0000
1000
0100
1000
0000
0000
,  // measure 41
1000
0001
0100
0101
,  // measure 42
0000
0100
0000
0001
0100
0001
0000
0000
,  // measure 43
0001
0010
0100
0022
,  // measure 44
0000
0033
0000
0000
0100
0000
2020
0000
,  // measure 45
0000
3030
0000
0000
1000
0000
0002
0000
,  // measure 46
0000
0023
0000
2030
,  // measure 47
0000
3200
0000
0302
,  // measure 48
0000
1000
0000
1000
0000
1000
0003
0000
,  // measure 49
0001
0020
0130
2000
,  // measure 50
0000
0001
0000
0001
0000
0001
3000
0000
,  // measure 51
1000
0002
0103
0020
,  // measure 52
0000
0100
0000
0100
0000
0100
0030
0000
,  // measure 53
0010
2000
3100
0200
,  // measure 54
0000
0010
0000
0010
0000
0010
0300
0000
,  // measure 55
0000
1001
0000
0001
,  // measure 56
1000
0000
0001
0100
0010
0000
0010
0000
,  // measure 57
1000
0000
0100
1000
0010
0000
0010
0000
,  // measure 58
1000
0000
0010
1000
0001
0000
0001
0000
,  // measure 59
0010
0000
0100
0010
0001
0000
1001
0000
;

//---------------dance-single - Spork!----------------
#NOTEDATA:;
#CHARTNAME:Spork! - Expert;
#STEPSTYPE:dance-single;
#DESCRIPTION:Spork!;
#CHARTSTYLE:;
#DIFFICULTY:Challenge;
#METER:9;
#RADARVALUES:0.545439,0.579545,0.581970,0.026453,0.052906,433.000000,367.000000,66.000000,3.000000,38.000000,0.000000,0.000000,0.000000,0.000000,0.545439,0.579545,0.581970,0.026453,0.052906,433.000000,367.000000,66.000000,3.000000,38.000000,0.000000,0.000000,0.000000,0.000000;
#CREDIT:Spork!;
#DISPLAYBPM:131.000000;
#NOTES:
// measure 0
0000
0000
0000
0000
,  // measure 1
0000
0000
0000
0000
,  // measure 2
0000
0000
0000
0000
,  // measure 3
0000
0000
0000
0000
,  // measure 4
0001
0000
0000
0000
0101
0000
0000
0100
0010
0000
0001
0000
0011
0000
0000
0000
,  // measure 5
0010
0000
1010
0000
1000
0010
0110
0010
,  // measure 6
1000
0000
0000
0000
1100
0000
0000
0100
0010
0000
1000
0000
1010
0000
0000
0000
,  // measure 7
0010
0011
2002
3000
,  // measure 8
1M03
0001
0010
M100
0000
0M10
0000
010M
,  // measure 9
1000
0001
0100
0001
M010
0000
0110
0000
,  // measure 10
00M1
1000
0100
001M
0000
00M1
0000
M100
,  // measure 11
0010
1000
0100
1000
001M
0010
1001
0000
,  // measure 12
010M
1000
0010
010M
0000
0M01
0000
M010
,  // measure 13
0100
0010
0001
1000
002M
0000
1000
0000
,  // measure 14
M130
0001
0100
M010
0000
10M0
0000
010M
,  // measure 15
0010
0001
0100
0010
1000
1000
0110
0000
,  // measure 16
0001
0100
1000
0100
0001
1000
1100
0000
,  // measure 17
1000
0010
0001
0010
1000
0001
0011
0000
,  // measure 18
0001
0010
0100
0001
0100
1000
1010
0000
,  // measure 19
1000
0100
0010
1000
0010
0001
0101
0000
,  // measure 20
0001
0100
0001
0100
1000
0100
1000
0100
,  // measure 21
1000
0010
1000
0010
0001
0010
0001
0010
,  // measure 22
0100
0000
0000
0000
0011
0000
0000
0001
0100
0000
0010
0000
1001
0000
0000
0000
,  // measure 23
0100
0000
0000
0000
1010
0000
0000
0010
0100
0000
0100
0000
0110
0000
0000
0000
,  // measure 24
1000
0000
0100
0000
0010
0000
0000
0010
1000
0000
0010
0000
0011
0000
0010
0000
,  // measure 25
0001
0000
0100
0000
1000
0000
0000
1000
0100
0000
0001
0000
1001
0000
0000
0000
,  // measure 26
0001
0000
0010
0000
0100
0000
0000
0100
0001
0000
0100
0000
1100
0000
0100
0000
,  // measure 27
1000
0000
0010
0000
0001
0000
0000
0001
0010
0000
1000
0000
0110
0000
0000
0000
,  // measure 28
1000
0100
1000
0100
0001
0100
0001
0100
,  // measure 29
0001
0010
0001
0010
1000
0010
1000
0010
,  // measure 30
0100
0000
0000
0000
1010
0000
0000
1000
0100
0000
0010
0000
0110
0000
0000
0000
,  // measure 31
1000
0000
0000
0000
0011
0000
0000
0001
0100
0000
0100
0000
1001
0000
0000
0000
,  // measure 32
1010
0000
0011
0000
0010
0001
0100
0010
,  // measure 33
0000
0110
0000
0100
0010
1000
0001
0010
,  // measure 34
0001
0100
0010
1000
0001
0010
0000
0110
,  // measure 35
0000
0000
0100
0000
1000
0000
0000
1000
0010
0000
0010
0000
1001
0000
0001
0000
,  // measure 36
0011
0000
0010
0100
1000
1000
0100
0010
,  // measure 37
0001
1000
0010
0100
0001
0001
0100
0010
,  // measure 38
1000
0000
1010
0000
0011
0010
1001
0000
,  // measure 39
0000
0000
0000
0101
,  // measure 40
0100
0001
0010
0100
1000
0100
0010
1000
,  // measure 41
0010
0001
0100
1000
0100
0001
0011
0000
,  // measure 42
0100
1000
0010
0100
0001
0100
0010
0001
,  // measure 43
0010
1000
0100
0001
0100
1000
1010
0000
,  // measure 44
1001
0000
1000
0100
0010
0001
0101
0000
,  // measure 45
1001
0000
1000
0100
0110
0000
1100
1000
,  // measure 46
0010
0100
0110
0010
0100
0001
0011
0010
,  // measure 47
0001
1000
1001
0001
0100
0010
011M
1000
,  // measure 48
0100
M010
0000
010M
0000
0M10
0001
1000
,  // measure 49
0010
1010
000M
0110
0000
1100
10M0
0001
,  // measure 50
0010
M100
0000
1M00
0000
001M
0100
0001
,  // measure 51
0010
0011
M000
0110
0000
0101
00M1
1000
,  // measure 52
0100
001M
0000
00M1
0000
M100
0010
0100
,  // measure 53
0001
1001
00M0
0101
0000
0100
011M
1000
,  // measure 54
0010
0000
M100
0000
0001
0000
0M01
0000
1000
0000
001M
0100
0010
0000
1000
0000
,  // measure 55
0100
0010
0001
0001
1000
0000
0011
0000
,  // measure 56
0101
0000
0100
0010
1001
0000
1100
0000
,  // measure 57
1010
0000
0100
0010
1001
0000
0001
0100
,  // measure 58
0001
0100
0010
1000
1001
0001
1000
0100
,  // measure 59
1000
0100
0010
0001
0101
0100
0110
0000
;

//---------------dance-single - Spork!----------------
#NOTEDATA:;
#CHARTNAME:Spork! - Heavy;
#STEPSTYPE:dance-single;
#DESCRIPTION:Spork!;
#CHARTSTYLE:;
#DIFFICULTY:Hard;
#METER:8;
#RADARVALUES:0.469858,0.474173,0.317438,0.149901,0.000000,373.000000,337.000000,36.000000,17.000000,0.000000,0.000000,0.000000,0.000000,0.000000,0.469858,0.474173,0.317438,0.149901,0.000000,373.000000,337.000000,36.000000,17.000000,0.000000,0.000000,0.000000,0.000000,0.000000;
#CREDIT:Spork!;
#DISPLAYBPM:131.000000;
#NOTES:
// measure 0
0000
0000
0000
0000
,  // measure 1
0000
0000
0000
0000
,  // measure 2
0000
0000
0000
0000
,  // measure 3
0000
0000
0000
0000
,  // measure 4
1000
0000
0100
0000
1000
0010
0110
0000
,  // measure 5
0100
0000
0001
0000
0010
0010
0100
0010
,  // measure 6
0001
0000
1000
0000
0001
0100
0110
0000
,  // measure 7
0010
1010
2002
0003
,  // measure 8
3001
0010
0001
0010
0100
1000
0010
0100
,  // measure 9
0001
0100
0010
1000
0002
0000
1003
0000
,  // measure 10
1000
0100
1000
0100
0010
0001
0100
0010
,  // measure 11
1000
0001
0010
0001
0100
0100
0110
0000
,  // measure 12
1000
0010
1000
0010
0100
0001
0010
0100
,  // measure 13
1000
0100
0010
0001
1000
1000
0001
1000
,  // measure 14
0001
0100
0001
0100
0010
1000
0100
0010
,  // measure 15
0001
1000
0010
1000
0200
0000
0310
0000
,  // measure 16
0001
0010
1000
0000
1000
0010
0001
0010
,  // measure 17
0100
1000
0010
0000
0001
0010
1000
0000
,  // measure 18
1000
0100
0001
0000
0001
0100
1000
0100
,  // measure 19
0010
0001
0100
0000
1000
0100
0001
0000
,  // measure 20
1000
0010
1000
0000
0010
0001
0010
0000
,  // measure 21
0001
0100
0001
0000
0100
1000
0100
0000
,  // measure 22
1000
0000
0110
0000
0100
0010
1001
0000
,  // measure 23
0001
0000
0110
0000
0100
0010
1001
0000
,  // measure 24
1000
0100
0001
0100
1000
1000
0100
0010
,  // measure 25
0001
0100
1000
0100
0001
0001
1010
0000
,  // measure 26
0001
0010
1000
0010
0001
0001
0010
0100
,  // measure 27
1000
0010
0001
0010
1000
1000
0101
0000
,  // measure 28
0001
0010
0001
0000
0010
1000
0010
0000
,  // measure 29
1000
0100
1000
0000
0100
0001
0100
0000
,  // measure 30
0001
0000
1010
0000
0001
0010
0110
0000
,  // measure 31
1000
0000
0011
0000
1000
0010
0110
0000
,  // measure 32
0101
0000
1002
0000
0000
0013
0100
1100
,  // measure 33
0000
0210
0000
0000
0310
0001
1000
0010
,  // measure 34
0000
0010
0100
0000
0001
1000
0000
0020
,  // measure 35
0000
0000
1030
0000
0001
0010
0110
0100
,  // measure 36
0020
0000
0000
0031
0100
0000
0100
0010
,  // measure 37
0000
0010
1000
0001
0000
0001
0010
0100
,  // measure 38
1000
0000
1010
0000
0010
0100
1001
0000
,  // measure 39
0000
0000
0000
0000
0000
0000
1000
0001
,  // measure 40
1000
0010
0000
0010
0100
0001
0000
0001
,  // measure 41
0010
0100
0000
0110
0000
0010
0001
1000
,  // measure 42
0001
0100
0000
0100
0010
1000
0000
1000
,  // measure 43
0100
0010
0000
0011
0000
2002
0000
3003
,  // measure 44
1001
0000
0100
0001
0010
0220
0000
0330
,  // measure 45
0110
0000
0010
0001
1000
0000
1010
0000
,  // measure 46
0010
0000
0011
1000
0001
0000
0101
0000
,  // measure 47
0100
0000
1100
0001
0100
0000
1001
0001
,  // measure 48
1000
0100
0010
0001
0100
0010
1000
0010
,  // measure 49
0100
0001
2000
0000
3001
0000
0001
0010
,  // measure 50
0001
0010
0100
1000
0010
0100
0001
1000
,  // measure 51
0100
1000
0010
0010
1001
0000
0001
0100
,  // measure 52
0001
0100
0010
1000
0100
0010
0001
0010
,  // measure 53
0100
1000
0000
1001
0000
0001
1000
0010
,  // measure 54
1000
0010
0100
0001
0010
0100
1000
0001
,  // measure 55
0100
0001
1000
1000
0100
0000
2000
0000
,  // measure 56
0100
0000
0001
0001
3001
0000
0200
0000
,  // measure 57
0001
0000
0010
0010
0310
0000
0002
0000
,  // measure 58
0010
0000
1000
1000
1003
0000
0020
0000
,  // measure 59
1000
0000
0100
0100
0130
0010
1001
0000
;
