#VERSION:0.83;
#TITLE:Dance Ke Legend;
#SUBTITLE:;
#ARTIST:Meet Bros & Bhoomi Trivedi;
#TITLETRANSLIT:;
#SUBTITLETRANSLIT:;
#ARTISTTRANSLIT:;
#GENRE:;
#ORIGIN:;
#CREDIT:;
#BANNER:;
#BACKGROUND:;
#PREVIEWVID:;
#JACKET:;
#CDIMAGE:;
#DISCIMAGE:;
#LYRICSPATH:;
#CDTITLE:;
#MUSIC:Dance Ke Legend.ogg;
#OFFSET:-0.032000;
#SAMPLESTART:38.255001;
#SAMPLELENGTH:16.570999;
#SELECTABLE:YES;
#DISPLAYBPM:105.000000;
#BPMS:0.000=105.000;
#STOPS:;
#DELAYS:;
#WARPS:;
#TIMESIGNATURES:0.000=4=4;
#TICKCOUNTS:0.000=4;
#COMBOS:0.000=1;
#SPEEDS:0.000=1.000=0.000=0;
#SCROLLS:0.000=1.000;
#FAKES:;
#LABELS:0.000=Song Start;
#BGCHANGES:;
#KEYSOUNDS:;
#ATTACKS:
;

//---------------dance-single - Axis----------------
#NOTEDATA:;
#CHARTNAME:Axis;
#STEPSTYPE:dance-single;
#DESCRIPTION:Axis;
#CHARTSTYLE:;
#DIFFICULTY:Challenge;
#METER:9;
#RADARVALUES:0.544076,0.625313,0.169118,0.338235,0.564853,563.000000,538.000000,25.000000,50.000000,0.000000,0.000000,0.000000,0.000000,0.000000,0.544076,0.625313,0.169118,0.338235,0.564853,563.000000,538.000000,25.000000,50.000000,0.000000,0.000000,0.000000,0.000000,0.000000;
#CREDIT:Axis;
#DISPLAYBPM:105.000000;
#NOTES:
0000
0000
0000
0000
,
0000
0000
0000
0000
,
0000
0000
0000
0000
,
0000
0000
0000
0000
,
0001
1000
0001
1000
0100
0010
0100
1000
0010
0000
0100
0000
0101
0000
0000
0000
,
0100
0000
0010
0000
0100
0000
0010
0000
1000
0000
0100
0000
0010
0000
0100
0000
2000
3000
0000
0000
0000
0000
2000
3000
0000
0000
0000
0000
2000
3000
0000
0000
,
0010
1000
0010
1000
0100
0010
0001
0010
0100
0100
1000
0001
0100
0100
0001
1000
,
0010
0100
0010
0100
0001
0010
0100
0010
0001
0000
0000
0001
0000
0100
0001
0000
,
1000
0000
0010
1000
0002
0000
0000
0000
0013
0000
0000
0001
0000
0010
0001
1000
,
0001
0000
0100
0000
0020
0000
0000
0000
0130
0000
0000
0010
0000
0100
0001
0000
,
1000
0000
0100
1000
0002
0000
0000
0000
0103
0000
0000
0001
0000
0100
0001
1000
,
0001
0010
0200
0000
0320
0000
0230
0000
,
1300
0000
1000
0000
0001
0000
0001
0100
0010
0000
0000
0100
0000
0010
0100
0001
,
0000
0000
1000
0000
1000
0000
0100
0000
0100
0000
0010
0100
0000
0000
1000
0100
,
0000
0000
1000
0000
1000
0000
0000
1000
0100
0010
0001
0000
0100
0010
1000
0000
,
0001
0000
0000
0001
0100
0000
0000
0100
0010
0000
0000
0010
1000
0000
0100
0000
,
0010
0010
0010
0010
0002
0000
0100
0103
,
0001
0000
0001
0100
0010
0000
0010
0000
1000
0100
1000
0100
0010
0001
1000
0001
,
0100
0010
0100
0000
0100
0001
0100
0000
0102
0000
0000
0000
1000
0000
1003
0000
,
0001
0000
0010
0000
0100
0000
1000
0000
0001
0100
0001
0100
0010
1000
0001
1000
,
0100
0100
0010
0010
0012
0000
1000
1003
,
0001
0000
0001
0010
0100
0000
0100
0000
1000
0010
1000
0010
0100
0001
1000
0001
,
0010
0100
0010
0000
0010
0001
0010
0000
0012
0000
0000
0000
1000
0000
1003
0000
,
0001
0000
0100
0000
0010
0000
1000
0000
0001
0010
0001
0010
0100
1000
0001
1000
,
0010
0000
0000
0100
0010
0000
1000
0000
0010
1000
0010
1000
0001
0010
0100
0010
,
0001
0000
0000
0100
0001
0000
0001
0010
0100
1000
0010
0100
0001
0000
0000
0000
,
0010
0000
0000
0100
0010
0000
0001
0000
0010
0001
0010
0001
1000
0010
0100
0010
,
1000
0000
0100
0000
0010
0000
0001
0000
1001
0000
0110
0000
1001
0000
0001
1000
,
0010
0000
0100
0010
0000
0100
0010
0000
0000
1000
0000
0100
1000
0000
0001
0000
,
0010
0000
0100
0010
0000
0100
0010
0000
0001
0000
1000
0000
0010
0000
0010
0000
,
1000
0100
0010
0000
0011
0000
0000
0000
0001
0100
0010
0000
1010
0000
0000
0000
,
1000
0010
0100
0000
0101
0000
0000
0000
0001
0010
0100
0000
1100
0000
1000
0001
,
0100
0000
0010
0100
0000
0010
0100
0000
0000
0001
0000
0010
0001
0000
1000
0000
,
0100
0000
0010
0100
0000
0010
0100
0000
1000
0000
0001
0000
0100
0000
0100
0000
,
0010
0010
1000
1000
0100
0100
0010
0010
,
0002
0000
0000
0000
0000
0000
0000
0003
,
1000
0000
0010
0000
0100
0000
0001
0000
1000
0000
0010
0000
0100
0000
0001
0000
2000
3000
0000
0000
0000
0000
0000
0000
2000
3000
0000
0000
0000
0000
0000
0000
,
0001
0000
0010
0000
0100
0000
1000
0000
0001
0000
0010
0000
0100
0000
1000
0000
0002
0003
0000
0000
0000
0000
0000
0000
0002
0003
0000
0000
0000
0000
0000
0000
,
2000
0000
0000
3200
0000
0000
0320
0000
0000
0230
0000
0000
0000
0000
2300
0000
,
0000
3002
2003
0000
3020
0000
0000
0230
0000
0000
0320
0000
0000
0000
2030
0000
,
0000
3200
2300
0000
3002
0000
0000
0023
0000
0000
0032
0000
0000
0000
2003
0000
,
0000
3020
2030
0000
3200
0000
0000
0320
0000
0000
0230
0000
0000
0000
1000
0000
,
1300
0000
0000
1100
0000
0000
0110
0000
0012
0000
0000
0000
1003
0001
0000
1000
,
0001
0000
0000
0101
0000
0000
0110
0000
2010
0000
3020
0000
0000
0000
0230
0000
,
0301
0000
1000
0100
0000
1000
0100
0000
1100
0000
0000
0000
0000
0000
1000
0000
,
0001
0000
0000
0100
0010
0000
0100
0000
0002
0000
0000
0000
0000
0000
0103
0000
,
0001
0000
1000
0010
1000
0000
0010
0000
1010
0000
0000
0000
1000
0000
0001
0000
,
0010
0000
0000
0100
0010
0000
0001
0000
2000
0000
0000
0000
3001
0000
0000
0000
,
1000
0000
0000
0000
0010
0000
0010
0000
1000
0000
0000
0100
0000
0000
0010
0100
,
0000
0000
1000
0000
0001
0000
1000
0000
0010
0000
0000
0100
0000
0010
0100
0000
,
0000
0001
0001
0001
1000
1000
0100
0100
,
1000
0000
0000
1000
0100
0000
0000
0100
0010
0000
0000
0010
0001
0000
0100
0000
,
0010
0010
0010
0010
2000
0000
0100
3100
,
1000
0000
1000
0100
0010
0000
0010
0000
0001
0100
0001
0100
0010
1000
0001
1000
,
0100
0010
0100
0000
0100
1000
0100
0000
2100
0000
0000
0000
0001
0000
3001
0000
,
1000
0000
0010
0000
0100
0000
0001
0000
1000
0100
1000
0100
0010
0001
1000
0001
,
0100
0100
0010
0010
2010
0000
0001
3001
,
1000
0000
1000
0010
0100
0000
0100
0000
0001
0010
0001
0010
0100
1000
0001
1000
,
0010
0100
0010
0000
0010
1000
0010
0000
2010
0000
0000
0000
0001
0000
3001
0000
,
1000
0000
0100
0000
0010
0000
0001
0000
1000
0010
1000
0010
0100
0001
1000
0001
,
0010
0000
0000
0100
0010
0000
0001
0000
0010
0001
0010
0001
1000
0010
0100
0010
,
1000
0000
0000
0100
1000
0000
1000
0010
0100
0001
0010
0100
1000
0000
0000
0000
,
0010
0000
0000
0100
0010
0000
1000
0000
0010
1000
0010
1000
0001
0010
0100
0010
,
0001
0100
0010
1000
1001
0110
1001
0000
;

//---------------dance-single - ----------------
#NOTEDATA:;
#CHARTNAME:;
#STEPSTYPE:dance-single;
#DESCRIPTION:;
#CHARTSTYLE:;
#DIFFICULTY:Hard;
#METER:8;
#RADARVALUES:0.509286,0.560625,0.216471,0.094706,0.480294,527.000000,495.000000,32.000000,14.000000,0.000000,0.000000,0.000000,0.000000,0.000000,0.509286,0.560625,0.216471,0.094706,0.480294,527.000000,495.000000,32.000000,14.000000,0.000000,0.000000,0.000000,0.000000,0.000000;
#CREDIT:;
#DISPLAYBPM:105.000000;
#NOTES:
0000
0000
0000
0000
,
0000
0000
0000
0000
,
0000
0000
0000
0000
,
0000
0000
0000
0000
,
1001
0000
0000
0101
0000
0000
0011
0000
0001
0000
0010
0000
0100
0000
1000
0000
,
1001
0000
0000
1100
0000
0000
1010
0000
0010
0000
0000
1000
0000
0000
0001
0000
,
1001
0000
0000
0011
0000
0000
0101
0000
0001
0000
0100
0000
0010
0000
1000
0000
,
1001
0000
0000
1010
0000
0000
1100
0000
0100
0000
0000
0100
0000
1000
0100
0000
,
1000
0000
0001
0010
0002
0000
0000
0000
0003
0000
0000
0010
0000
0001
0100
0001
,
0100
0000
0010
0000
2000
0000
0000
0000
3000
0000
0000
0100
0000
1000
0100
0000
,
1000
0000
0001
0100
0002
0000
0000
0000
0003
0000
0000
0100
0000
0001
0010
0001
,
0010
0100
2000
0000
0100
0000
3100
0000
,
1000
0000
0100
0000
0010
0000
0001
0100
0001
0000
0000
1000
0000
0001
0010
0001
,
0000
0000
0010
0000
0100
0000
1000
0000
0001
0000
0001
1000
0000
0000
1000
0010
,
0000
0000
0010
0000
1000
0000
0000
0100
0010
0100
0010
0000
0001
0010
0001
0000
,
0010
0000
0000
0010
0001
0000
0000
0001
0100
0000
0000
0100
0001
0000
1000
0000
,
0001
0010
0100
1000
1100
0000
0100
1000
,
0001
0000
0000
0001
1000
0000
1000
0000
0010
1000
0010
1000
0001
0100
0001
0100
,
0010
0010
1000
1000
1100
0000
0100
1000
,
0001
0000
0100
0000
0010
0000
1000
0000
0001
0010
0001
0010
0100
1000
0100
1000
,
0001
0001
0100
0100
0110
0000
0010
0010
,
1000
0000
0000
1000
0001
0000
0001
0000
0010
0001
0010
0001
1000
0100
1000
0100
,
0010
0010
0001
0001
0101
0000
0100
0001
,
1000
0000
0100
0000
0010
0000
0001
0000
1000
0010
1000
0010
0100
0001
0100
0001
,
1000
0000
0000
0100
0010
0000
0100
0000
1000
0001
1000
0001
0100
0001
0100
0001
,
1000
0000
0000
0000
1100
0000
0100
0010
0001
0010
0100
0010
0001
0000
0000
0000
,
1000
0000
0000
0010
0100
0000
0010
0000
1000
0001
1000
0001
0010
0001
0010
0001
,
1000
0000
0010
0000
0100
0000
0001
0000
0101
0000
0101
0000
0101
0000
0100
0001
,
0100
0000
0010
1000
0000
0010
1000
0000
0000
0001
0000
0010
0001
0000
1000
0000
,
0100
0000
0010
0001
0000
0010
0001
0000
1000
0000
1000
0000
0010
0000
0010
0000
,
1000
0100
1000
0100
1000
0000
0000
0000
0001
0100
0001
0100
0001
0000
0000
0000
,
1000
0010
1000
0010
1000
0000
0000
0000
0001
0010
0001
0000
0011
0000
0010
0001
,
0010
0000
0100
1000
0000
0100
1000
0000
0000
0001
0000
0100
0001
0000
1000
0000
,
0010
0000
0100
0001
0000
0100
0001
0000
1000
0000
1000
0000
0100
0000
0100
0000
,
0010
0010
0001
0001
1000
1000
0010
0010
,
2000
0000
0000
0000
0000
0000
0000
3000
,
0001
0000
0100
0000
0010
0000
0100
0000
0001
0000
0100
0000
0010
0000
0100
0000
0002
0003
0000
0000
0000
0000
0000
0000
0002
0003
0000
0000
0000
0000
0000
0000
,
1000
0000
0100
0000
0010
0000
0100
0000
1000
0000
0100
0000
0010
0000
0100
0000
2000
3000
0000
0000
0000
0000
0000
0000
2000
3000
0000
0000
0000
0000
0000
0000
,
0001
0000
0000
0100
0000
0000
0010
0000
0000
0100
0000
0000
0000
0000
0001
0000
,
0000
1000
0001
0000
0010
0000
0000
0100
0000
0000
0010
0000
0000
0000
0001
0000
,
0000
0100
0001
0000
1000
0000
0000
0010
0000
0000
1000
0000
0000
0000
0001
0000
,
0000
0010
0001
0000
0100
0000
0000
0010
0000
0000
0100
0000
0000
0000
0001
0000
,
2000
0000
0000
0010
0000
0000
0001
0000
3100
0000
0000
0000
0011
0000
0000
0000
,
0002
0000
0000
0010
0000
0000
1000
0000
0103
0000
0000
0000
1010
0000
0000
0000
,
1000
0000
0100
1000
0000
0100
2000
0000
0000
0000
0000
0000
3000
0000
0001
0000
,
0100
0000
0000
0010
0100
0000
0001
0000
0100
0000
0000
0000
0000
0000
0001
0000
,
1000
0000
0001
0010
0001
0000
0200
0000
0000
0000
0300
0000
0001
0000
1000
0000
,
0100
0000
0000
0010
0100
0000
2000
0000
0000
0000
3000
0000
1001
0000
0000
0000
,
1000
0000
0000
0000
0001
0000
0001
0000
1000
0000
0000
0010
0000
0000
1000
0010
,
0000
0000
0100
0000
0001
0000
0100
0000
0001
0000
0000
1000
0000
0100
1000
0000
,
0000
0001
1000
1000
0001
0001
0100
0100
,
0010
0000
0000
0010
1000
0000
0000
1000
0100
0000
0000
0100
1000
0000
0001
0000
,
1000
0010
0100
0001
0101
0000
0100
0001
,
1000
0000
0000
1000
0001
0000
0001
0000
0010
0001
0010
0001
1000
0100
1000
0100
,
0010
0010
0001
0001
0101
0000
0100
0001
,
1000
0000
0100
0000
0010
0000
0001
0000
1000
0010
1000
0010
0100
0001
0100
0001
,
1000
1000
0100
0100
0110
0000
0010
0010
,
0001
0000
0000
0001
1000
0000
1000
0000
0010
1000
0010
1000
0001
0100
0001
0100
,
0010
0010
1000
1000
1100
0000
0100
1000
,
0001
0000
0100
0000
0010
0000
1000
0000
0001
0010
0001
0010
0100
1000
0100
1000
,
0001
0000
0000
0100
0010
0000
0100
0000
0001
1000
0001
1000
0100
1000
0100
1000
,
0001
0000
0000
0000
0101
0000
0100
0010
1000
0010
0100
0010
1000
0000
0000
0000
,
0001
0000
0000
0010
0100
0000
0010
0000
0001
1000
0001
1000
0010
1000
0010
1000
,
0001
0010
0100
1000
1100
1100
1100
0000
;

//---------------dance-single - ----------------
#NOTEDATA:;
#CHARTNAME:;
#STEPSTYPE:dance-single;
#DESCRIPTION:;
#CHARTSTYLE:;
#DIFFICULTY:Medium;
#METER:7;
#RADARVALUES:0.377857,0.452813,0.115000,0.148824,0.199559,391.000000,374.000000,17.000000,22.000000,0.000000,0.000000,0.000000,0.000000,0.000000,0.377857,0.452813,0.115000,0.148824,0.199559,391.000000,374.000000,17.000000,22.000000,0.000000,0.000000,0.000000,0.000000,0.000000;
#CREDIT:;
#DISPLAYBPM:105.000000;
#NOTES:
0000
0000
0000
0000
,
0000
0000
0000
0000
,
0000
0000
0000
0000
,
0000
0000
0000
0000
,
1000
0000
0000
0100
0000
0000
0010
0000
0001
0000
0000
0000
0011
0000
0000
0000
,
0001
0000
0000
0100
0000
0000
0010
0000
1000
0000
0000
0000
1010
0000
0000
0000
,
1000
0000
0000
0010
0000
0000
0100
0000
0001
0000
0000
0000
0101
0000
0000
0000
,
0001
0000
0000
0010
0000
0000
0100
0000
2000
0000
0000
0000
0000
0000
0000
0000
,
3001
0100
0001
0000
1000
0000
0100
0010
,
0001
0100
0001
0000
1000
0000
0010
0100
,
0001
0010
0001
0000
1000
0000
0100
0010
,
0001
0100
0001
0000
1000
0000
1000
0000
,
0001
0000
0000
0010
0000
0000
0100
0000
0010
0000
0000
0000
0011
0000
0000
0000
,
0001
0000
0000
0100
0000
0000
0010
0000
0100
0000
0000
0000
0101
0000
0000
0000
,
0001
0000
0000
1000
0000
0000
0100
0000
1000
0000
0000
0000
1001
0000
0000
0000
,
0001
0000
0000
0001
1000
0000
0000
1000
0001
0000
0000
0001
1000
0000
0000
0000
,
2002
0000
0000
3003
,
1000
0000
0100
0000
0010
0000
0100
0000
1000
0000
1000
0000
0001
0100
0001
0000
,
1000
0010
1000
0010
0200
0000
0301
0100
,
0001
0000
0010
0000
0100
0000
0010
0000
0001
0000
0001
0000
1000
0100
1000
0000
,
0001
0010
0001
0010
0200
0000
1300
0100
,
1000
0000
0010
0000
0100
0000
0010
0000
1000
0000
1000
0000
0001
0010
0001
0000
,
1000
0100
1000
0100
0020
0000
0031
0010
,
0001
0000
0100
0000
0010
0000
0100
0000
0001
0000
0001
0000
1000
0010
1000
0000
,
0001
0000
0000
0010
0100
0000
0010
0000
0001
0000
0000
1000
0100
0000
0010
0000
,
0001
0000
0000
0100
0001
0000
1000
0100
1000
0100
1000
0100
1000
0000
0000
0000
,
0001
0000
0000
0100
0010
0000
0100
0000
0001
0000
0000
1000
0010
0000
0100
0000
,
0001
0001
1000
1000
1001
1001
1001
0000
,
0001
0000
0000
0100
0000
0000
0010
0000
0000
0100
0000
0000
0001
0000
0000
0000
,
1000
0000
0000
0100
0000
0000
0010
0000
0100
0000
1000
0000
0100
0000
0010
0000
,
0002
0100
0103
0000
0200
0010
0310
0000
,
0020
0000
1000
0000
1030
0000
0000
0000
1000
0100
1000
0000
0001
0000
0000
0000
,
1000
0000
0000
0100
0000
0000
0010
0000
0000
0100
0000
0000
1000
0000
0000
0000
,
0001
0000
0000
0100
0000
0000
0010
0000
0100
0000
0001
0000
0100
0000
0010
0000
,
1000
1000
0100
0100
0010
0010
0001
0001
,
2000
0000
0000
3000
,
0001
0000
0100
0000
0001
0000
0000
0000
0100
0000
0001
0000
0100
0000
0000
0000
0020
0030
0000
0000
0000
0000
0000
0000
0020
0030
0000
0000
0000
0000
0000
0000
,
1000
0000
0100
0000
1000
0000
0000
0000
0100
0000
1000
0000
0100
0000
0000
0000
0020
0030
0000
0000
0000
0000
0000
0000
0020
0030
0000
0000
0000
0000
0000
0000
,
0001
0000
0000
1000
0000
0000
0010
0000
0000
1000
0000
0000
0000
0000
0001
0000
,
0000
0000
1000
0000
0100
0000
0000
0010
0000
0000
0100
0000
0000
0000
1000
0000
,
0000
0000
0001
0000
0100
0000
0000
0010
0000
0000
0100
0000
0000
0000
0001
0000
,
0000
0000
1000
0000
0100
0000
0000
0010
0000
0000
0001
0000
0000
0000
1000
0000
,
0002
0000
0000
0000
0000
0000
0000
0000
0000
0000
0000
0000
0000
1003
0000
0100
,
2000
0000
0000
3000
,
0001
0000
0000
0100
0000
0000
0001
0000
0000
0000
0000
0000
0000
0000
1000
0000
,
0100
0000
1000
0010
1000
0000
0000
0001
,
0010
0100
0010
0010
0000
0000
0001
1000
,
0001
0000
0010
0001
2000
0000
3010
0000
,
1000
0000
0000
0100
0000
0000
0010
0000
0100
0000
0000
0000
1100
0000
0000
0000
,
1000
0000
0000
0010
0000
0000
0100
0000
0010
0000
0000
0000
1010
0000
0000
0000
,
1000
0000
0000
0100
0000
0000
0010
0000
0100
0000
0000
0000
1100
0000
0000
0000
,
1000
0000
0000
1000
0100
0000
0000
0100
0010
0000
0000
0010
0001
0000
0000
0000
,
0022
0000
0000
0033
,
0001
0000
0010
0000
0100
0000
0010
0000
0001
0000
0001
0000
1000
0010
1000
0000
,
0001
0100
0001
0100
0020
0000
1030
0010
,
1000
0000
0100
0000
0010
0000
0100
0000
1000
0000
1000
0000
0001
0010
0001
0000
,
1000
0100
1000
0100
0020
0000
0031
0010
,
0001
0000
0100
0000
0010
0000
0100
0000
0001
0000
0001
0000
1000
0100
1000
0000
,
0001
0010
0001
0010
0200
0000
1300
0100
,
1000
0000
0010
0000
0100
0000
0010
0000
1000
0000
1000
0000
0001
0100
0001
0000
,
1000
0000
0000
0100
0010
0000
0100
0000
1000
0000
0000
0001
0010
0000
0100
0000
,
1000
0000
0000
0010
1000
0000
0001
0010
0001
0010
0001
0010
0001
0000
0000
0000
,
1000
0000
0000
0010
0100
0000
0010
0000
1000
0000
0000
0001
0100
0000
0010
0000
,
1000
1000
0001
0001
1001
1001
1001
0000
;

//---------------dance-single - ----------------
#NOTEDATA:;
#CHARTNAME:;
#STEPSTYPE:dance-single;
#DESCRIPTION:;
#CHARTSTYLE:;
#DIFFICULTY:Easy;
#METER:5;
#RADARVALUES:0.256093,0.280313,0.148824,0.060882,0.016912,265.000000,243.000000,22.000000,9.000000,0.000000,0.000000,0.000000,0.000000,0.000000,0.256093,0.280313,0.148824,0.060882,0.016912,265.000000,243.000000,22.000000,9.000000,0.000000,0.000000,0.000000,0.000000,0.000000;
#CREDIT:;
#DISPLAYBPM:105.000000;
#NOTES:
// measure 0
0000
0000
0000
0000
,  // measure 1
0000
0000
0000
0000
,  // measure 2
0000
0000
0000
0000
,  // measure 3
0000
0000
0000
0000
,  // measure 4
0001
0000
0001
0000
1000
0100
1000
0000
,  // measure 5
0001
0000
0000
0000
0001
0000
0000
0000
0010
0000
0000
0010
0000
0000
0010
0000
,  // measure 6
0001
0000
0001
0000
1000
0010
1000
0010
,  // measure 7
0100
0100
0001
0010
,  // measure 8
0001
0100
0001
0000
0000
0000
1000
0000
,  // measure 9
0100
0010
0100
0000
0000
0000
1000
0000
,  // measure 10
0010
0100
0010
0000
0000
0000
1000
0000
,  // measure 11
0001
0010
0001
0000
0000
0000
0000
0000
,  // measure 12
1000
0100
1000
1100
,  // measure 13
0100
0010
0100
0110
,  // measure 14
0010
0001
0010
0011
,  // measure 15
0001
0001
1000
1000
,  // measure 16
2002
0000
3003
0000
,  // measure 17
0001
0000
1000
0000
0001
0010
0001
0000
,  // measure 18
1000
0010
0110
0000
,  // measure 19
0100
0000
0010
0000
1000
0010
1000
0000
,  // measure 20
0001
1000
1001
0000
,  // measure 21
0001
0000
1000
0000
0001
0100
0001
0000
,  // measure 22
1000
0100
0110
0000
,  // measure 23
0010
0000
0100
0000
0010
0001
0010
0000
,  // measure 24
0001
0000
0001
0000
1000
0100
1000
0100
,  // measure 25
1000
1001
0001
1001
,  // measure 26
1000
0000
1000
0000
0001
0100
0001
0100
,  // measure 27
0001
0000
1000
0000
0010
0010
0010
0000
,  // measure 28
1000
0100
1000
0100
,  // measure 29
1000
0000
0001
0000
1000
0010
1000
0010
,  // measure 30
2000
3000
0002
0003
,  // measure 31
0020
0030
0100
0110
,  // measure 32
0010
0001
0010
0001
,  // measure 33
1000
0000
0001
0000
0100
0001
0100
0001
,  // measure 34
0100
0010
0100
0010
,  // measure 35
2002
0000
0000
3003
,  // measure 36
0001
0010
0100
0010
0001
0000
0001
0000
,  // measure 37
1000
0010
0100
0010
1000
0000
1000
0000
,  // measure 38
0001
0000
0000
0001
0000
0000
0001
0000
0000
0000
0000
0000
0000
0000
0000
0000
,  // measure 39
1000
0000
0000
1000
0000
0000
1000
0000
0000
0000
0000
0000
0000
0000
0000
0000
,  // measure 40
0100
0000
0000
0100
0000
0000
0100
0000
0000
0000
0000
0000
0000
0000
0000
0000
,  // measure 41
0010
0000
0000
0010
0000
0000
0010
0000
0000
0000
0000
0000
0000
0000
0000
0000
,  // measure 42
0001
0100
0001
0101
,  // measure 43
1000
0010
1000
1010
,  // measure 44
0010
0100
0010
0000
,  // measure 45
1000
0001
1000
0000
,  // measure 46
0100
0010
0100
0000
,  // measure 47
1000
0001
1000
0000
,  // measure 48
0001
0010
0001
0011
,  // measure 49
0010
0100
0010
0110
,  // measure 50
0100
1000
0100
1100
,  // measure 51
1000
1000
0001
0001
,  // measure 52
2002
0000
3003
0000
,  // measure 53
1000
0000
0001
0000
1000
0100
1000
0000
,  // measure 54
0001
0100
0110
0000
,  // measure 55
0010
0000
0100
0000
0001
0100
0001
0000
,  // measure 56
1000
0001
1001
0000
,  // measure 57
1000
0000
0001
0000
1000
0010
1000
0000
,  // measure 58
0001
0010
0110
0000
,  // measure 59
0100
0000
0010
0000
0100
1000
0100
0000
,  // measure 60
1000
0000
1000
0000
0001
0010
0001
0010
,  // measure 61
0001
1001
1000
1001
,  // measure 62
0001
0000
0001
0000
1000
0010
1000
0010
,  // measure 63
1000
0000
0001
0000
0100
0100
0100
0000
;

//---------------dance-single - ----------------
#NOTEDATA:;
#CHARTNAME:;
#STEPSTYPE:dance-single;
#DESCRIPTION:;
#CHARTSTYLE:;
#DIFFICULTY:Beginner;
#METER:2;
#RADARVALUES:0.154622,0.194063,0.013529,0.054118,0.000000,160.000000,158.000000,2.000000,8.000000,0.000000,0.000000,0.000000,0.000000,0.000000,0.154622,0.194063,0.013529,0.054118,0.000000,160.000000,158.000000,2.000000,8.000000,0.000000,0.000000,0.000000,0.000000,0.000000;
#CREDIT:;
#DISPLAYBPM:105.000000;
#NOTES:
// measure 0
0000
0000
0000
0000
,  // measure 1
0000
0000
0000
0000
,  // measure 2
0000
0000
0000
0000
,  // measure 3
0000
0000
0000
0000
,  // measure 4
0001
0001
0001
0000
,  // measure 5
1000
1000
1000
0000
,  // measure 6
0010
0010
0010
0000
,  // measure 7
0100
0100
0100
0000
,  // measure 8
0001
0000
0001
0000
,  // measure 9
1000
0000
1000
0000
,  // measure 10
0100
0000
0100
0000
,  // measure 11
0010
0000
0010
0000
,  // measure 12
0001
0000
0100
0000
,  // measure 13
0010
0000
1000
0000
,  // measure 14
0001
0000
0010
0000
,  // measure 15
0001
0001
1000
1000
,  // measure 16
2002
0000
3003
0000
,  // measure 17
0001
0100
0001
0000
,  // measure 18
1000
0100
1000
0000
,  // measure 19
0001
0010
0001
0000
,  // measure 20
1000
0010
1000
0000
,  // measure 21
0001
0100
0001
0000
,  // measure 22
1000
0100
1000
0000
,  // measure 23
0001
0010
0001
0000
,  // measure 24
1000
1000
1000
0000
,  // measure 25
0001
0001
0001
0000
,  // measure 26
0100
0100
0100
0000
,  // measure 27
0010
0000
0010
0000
0010
0010
0010
0000
,  // measure 28
1000
0000
0100
0000
,  // measure 29
1000
0000
0100
0000
,  // measure 30
0020
0030
0020
0030
,  // measure 31
0020
0030
0001
0010
,  // measure 32
0001
0000
0100
0000
,  // measure 33
0001
0000
0100
0000
,  // measure 34
0010
0000
1000
0000
,  // measure 35
0002
0000
0003
0000
,  // measure 36
1000
1000
1000
1000
,  // measure 37
0001
0001
0001
0001
,  // measure 38
1000
0000
0100
0000
,  // measure 39
1000
0000
0100
0000
,  // measure 40
0010
0000
0001
0000
,  // measure 41
0010
0000
0001
0000
,  // measure 42
1000
0010
0100
0000
,  // measure 43
0001
0010
0100
0000
,  // measure 44
1000
0000
1000
0000
,  // measure 45
0100
0000
0100
0000
,  // measure 46
0010
0000
0010
0000
,  // measure 47
0001
0000
0001
0000
,  // measure 48
1000
0000
0010
0000
,  // measure 49
0100
0000
0001
0000
,  // measure 50
1000
0000
0100
0000
,  // measure 51
1000
1000
0001
0001
,  // measure 52
2002
0000
3003
0000
,  // measure 53
1000
0010
1000
0000
,  // measure 54
0001
0010
0001
0000
,  // measure 55
1000
0100
1000
0000
,  // measure 56
0001
0100
0001
0000
,  // measure 57
1000
0010
1000
0000
,  // measure 58
0001
0010
0001
0000
,  // measure 59
1000
0100
1000
0000
,  // measure 60
0001
0001
0001
0000
,  // measure 61
1000
1000
1000
0000
,  // measure 62
0010
0010
0010
0000
,  // measure 63
0100
0000
0100
0000
0100
0100
0100
0000
;
