#TITLE:CELEBRATE NITE;
#SUBTITLE:(D.M.R Remix);
#ARTIST:N.M.R;
#TITLETRANSLIT:;
#SUBTITLETRANSLIT:;
#ARTISTTRANSLIT:;
#GENRE:Dance Rave;
#CREDIT:N.M.R;
#BANNER:CELEBRATE NITE (D.M.R Remix).png;
#BACKGROUND:CELEBRATE NITE (D.M.R Remix)-bg.png;
#LYRICSPATH:;
#CDTITLE:cdtitle.png;
#MUSIC:CELEBRATE NITE (D.M.R Remix).mp3;
#OFFSET:-3.241000;
#SAMPLESTART:63.239002;
#SAMPLELENGTH:15.000000;
#SELECTABLE:YES;
#BPMS:0.000000=152.000000
;
#STOPS:86.000000=0.197000,
86.500000=0.197000
;
#BGCHANGES:;
#KEYSOUNDS:;
#ATTACKS:;

//---------------dance-single - ----------------
#NOTES:
     dance-single:
     :
     Easy:
     3:
     0.227803,0.380863,0.288959,0.032107,0.000000,149.000000,122.000000,27.000000,3.000000,0.000000,0.000000,0.227803,0.380863,0.288959,0.032107,0.000000,149.000000,122.000000,27.000000,3.000000,0.000000,0.000000:
0000
0000
0000
0000
,
1000
0000
0000
0000
,
1001
0000
0000
0000
,
0010
0000
0000
0000
,
0100
0000
0010
0000
,
0100
0001
1000
0010
,
1001
0000
0000
0000
,
0001
0000
0000
0000
,
1000
0000
0000
0000
,
0100
0000
0000
0000
,
0010
0000
0000
0000
,
0001
0000
0000
0000
,
1000
0000
0000
0000
,
0010
0100
0000
0000
,
1001
0000
0001
0000
,
0010
0000
0100
0000
,
1000
0000
0100
0000
,
0010
0000
0001
0000
,
1001
0000
0100
0000
,
0010
0000
0100
0000
,
0001
0000
1000
0000
,
0001
0000
0000
0000
1000
1000
1001
0000
,
0000
0000
0000
0010
,
0000
0000
0000
0100
,
0000
0000
0000
0001
,
0010
0100
1000
1002
,
0003
0000
0000
0100
,
0000
0000
0000
0010
,
0000
0000
0000
1000
,
0010
0100
0001
1001
,
0000
0000
0000
0110
,
0000
0000
0000
1001
,
0000
0110
0000
1001
,
0100
0110
0010
1001
,
0000
0000
0000
0110
,
0000
0000
0000
1001
,
0000
0110
0000
1001
,
0010
0200
0320
0031
,
1000
0100
1000
0001
,
0100
0001
0100
0001
,
0010
0100
1000
1000
,
0100
0010
0001
1001
,
1000
0010
1000
0001
,
0100
0001
0010
0100
,
1000
0010
1000
1001
,
1001
0110
1001
0010
,
0010
0010
0010
0000
,
0000
0000
1001
0100
,
0100
0100
0100
0000
,
0000
0000
1001
1000
,
0010
0100
0001
0000
,
0000
0000
0000
1000
,
0010
1000
0001
0100
,
0110
0000
0000
1001
,
0001
1000
0001
1001
;

//---------------dance-single - Copied from----------------
#NOTES:
     dance-single:
     Copied from:
     Medium:
     6:
     0.409740,0.468755,0.438789,0.074915,0.074915,268.000000,227.000000,41.000000,7.000000,0.000000,0.000000,0.409740,0.468755,0.438789,0.074915,0.074915,268.000000,227.000000,41.000000,7.000000,0.000000,0.000000:
0000
0000
0000
0000
,
1001
0101
0110
0101
,
1001
1000
0001
1000
,
0110
0000
0000
0000
,
0110
0000
1001
0000
,
0110
0101
1001
1100
,
1001
0000
0000
1000
0000
0000
0000
0000
0100
0000
0000
0000
0010
0000
0000
0000
,
0001
0000
0000
0100
0000
0000
0000
0000
0010
0000
0000
0000
0100
0000
0000
0000
,
0001
0000
0000
0010
0000
0000
0000
0000
0100
0000
0000
0000
1000
0000
0000
0000
,
0010
0000
0000
0100
0000
0000
0000
0000
0001
0000
0000
0000
0100
0000
0010
0000
,
0100
0000
0000
0001
0000
0000
0000
0000
1000
0000
0000
0000
0100
0000
0000
0000
,
1000
0000
0000
0010
0000
0000
0000
0000
0100
0000
0000
0000
0010
0000
0000
0000
,
1000
0000
0000
0100
0000
0000
0000
0000
0010
0000
0000
0000
0001
0000
0000
0000
,
1000
0001
1000
0000
0001
0010
0100
0010
,
0001
0010
0100
1000
,
0100
1000
0010
1000
,
0001
0100
0010
0100
,
0001
1000
0010
0000
1000
0100
0010
0000
,
1001
1000
0100
0010
,
0001
0010
0100
0010
,
0001
0100
0001
0100
,
0010
0000
0100
0000
0010
0000
0000
0000
1001
0000
0011
0000
1001
0000
0000
1000
,
0000
0000
0000
0000
0100
0000
0000
0000
0010
0000
0000
0000
0100
0000
0000
0100
,
0000
0000
0000
0000
0010
0000
0000
0000
0001
0000
0000
0000
0010
0000
0000
0010
,
0000
0000
0000
0000
0100
0000
0000
0000
0010
0000
0000
0000
0001
0000
0000
0001
,
0000
0000
0000
0000
0100
0000
0000
0000
0010
0000
0000
0000
1002
0000
0000
1000
,
0003
0000
1000
0000
0000
0000
0000
0000
0001
0000
0000
0000
0010
0000
0000
0010
,
0000
0000
0010
0000
0000
0000
0000
0000
0001
0000
0000
0000
0100
0000
0000
0100
,
0000
0100
0010
0000
0100
0000
0001
0010
,
0001
0100
0001
0100
0001
0000
2001
0000
,
0000
0000
0000
0000
0000
3010
0210
0000
,
0000
0000
0300
1001
,
0000
0110
0000
1001
,
0110
1001
0110
1002
,
0000
0000
0000
0000
0000
0103
0120
0000
,
0000
0000
0030
1001
,
0000
0110
0000
1001
,
0100
0020
0230
0301
,
0001
0000
0001
0010
0001
0000
1000
0000
,
1000
0000
1000
0100
1000
0000
1000
0000
,
0100
0000
0010
0100
1000
0000
0001
0000
,
0010
0000
0100
0010
0001
0000
1001
0000
,
0001
0100
0001
0100
0001
0000
1000
0000
,
1000
0010
1000
0010
1000
0000
0001
0000
,
0010
0100
1000
1001
,
1010
0000
0110
0000
1010
0000
0100
0010
,
0100
0001
0100
0010
0100
0000
0001
0000
,
1000
0000
0001
0000
1001
0000
0010
1000
,
0010
0100
0010
1000
0010
0000
0100
0000
,
0010
0000
0100
0000
1001
0000
1000
0010
,
0100
0001
0010
0100
1000
0000
0000
0000
,
0000
0000
0000
0000
0000
0000
0001
0010
,
0100
0010
0001
0010
0100
1000
1001
0000
,
0110
0000
0001
0000
0000
0000
1000
0100
,
0000
0100
0000
0100
1000
0001
1001
0000
;

//---------------dance-single - Copied from Copied f----------------
#NOTES:
     dance-single:
     Copied from Copied f:
     Hard:
     8:
     0.527464,0.615241,0.395980,0.042809,0.272905,345.000000,308.000000,37.000000,4.000000,0.000000,0.000000,0.527464,0.615241,0.395980,0.042809,0.272905,345.000000,308.000000,37.000000,4.000000,0.000000,0.000000:
0000
0000
0000
0000
,
0110
1100
1001
1100
,
0110
0000
0010
0001
0100
0001
0010
0000
,
1001
0000
0100
0001
1000
0001
0100
0000
,
1001
0010
0110
0100
,
1001
1100
1001
1010
,
0010
0000
0000
0001
0000
0000
0010
0000
1000
0000
0000
0010
0000
0000
0000
0000
,
0010
0000
0000
1000
0000
0000
0100
0000
0010
0000
0000
0001
0000
0000
0000
0000
,
0100
0000
0000
0001
0000
0000
0100
0000
0000
1000
0000
0000
0100
0000
0000
0000
,
0001
0000
0000
1000
0000
0000
0100
0000
0000
0010
0000
0000
0001
0000
1000
0000
,
0001
0000
0000
0010
0000
0000
0010
0000
0000
0100
0000
0000
1000
0000
0000
0000
,
0100
0000
0000
0010
0000
0000
0010
0000
0000
0100
0000
0000
1000
0000
0000
0000
,
0010
0000
0000
1000
0000
0000
0100
0000
0000
0010
0000
0000
0100
0000
0000
0000
,
1000
0000
0010
0000
1000
0000
0010
0000
0100
0010
0100
0010
1000
0001
1000
0001
,
1000
0001
0100
0001
0010
0001
0010
0001
,
1000
0100
1000
0100
0010
0100
0010
0100
,
1000
0010
1000
0010
0100
0010
0100
0010
,
1000
0100
1000
0010
0001
0010
1000
1001
,
0000
0010
1000
0100
0010
0010
0001
0100
,
1000
0100
0001
0010
1000
0010
0001
0000
,
0010
0010
0001
0100
1000
0100
0001
0100
,
0020
0000
0000
0000
1030
0000
0000
0000
0110
0000
1001
0000
0001
0000
0000
0010
,
0000
0000
0100
0000
0000
1000
0000
0000
0001
0000
0000
0000
1000
0000
0000
0100
,
0000
0000
0010
0000
0000
0001
0000
0000
0001
0000
0100
0000
0001
0000
0000
0010
,
0000
0000
0100
0000
0000
1000
0000
0000
0001
0000
0000
0000
0100
0000
0000
0010
,
0000
0000
0100
0000
0000
0001
0000
0000
0010
0000
0100
0000
0010
0000
0000
0010
,
0000
0000
0010
0000
0000
0010
0000
0000
0010
0000
0000
0000
0001
0000
0000
0010
,
0000
0000
0100
0000
0000
1000
0000
0000
1000
0000
0001
0000
1000
0000
0000
0100
,
0000
0000
0010
0000
0000
0100
0000
0000
1000
0000
0000
0000
0010
0000
0001
0000
,
1000
0100
0001
1000
0010
0000
0210
0000
,
0000
0000
0000
0000
0300
0100
1002
0000
,
0000
0000
0003
0110
,
0000
1001
0000
0110
,
0101
0110
1010
0120
,
0000
0000
0000
0000
0030
0010
1001
0000
,
0000
0000
0000
0011
,
0000
1001
0000
0110
,
1000
0000
0000
0000
0001
1000
0001
1000
0010
0100
0010
0100
0010
0000
0100
0000
,
0010
1000
0100
0001
0100
0000
0010
0100
,
0010
0001
0010
1000
0010
0000
0001
0100
,
1000
0100
0001
1000
0100
0000
1000
0010
,
1000
0000
0100
0000
1001
0000
0000
0000
0010
0000
0000
0000
0110
0000
0000
0010
,
0100
0000
0010
0000
0100
0001
0000
0000
0100
0000
0000
0000
0010
0000
0000
0100
,
0010
0000
1000
0000
0010
1000
0000
0000
0010
0000
0000
0000
0100
0000
0000
0000
,
0001
1000
0010
0110
,
0011
0000
1001
0000
0011
0000
1000
0001
,
1000
0000
0100
0000
1000
0000
0001
0000
1000
0000
0000
0000
1000
0000
0000
0100
,
1000
0000
0100
0000
0000
1000
0000
0000
0000
0000
0000
0000
0001
0000
0010
0000
,
0001
0000
1000
0000
0001
0000
0010
0000
0001
0000
0000
0000
0001
0000
0000
0010
,
0001
0000
0010
0000
0000
0001
0000
0000
0000
0000
0000
0000
0010
0000
0001
0000
,
1000
0000
0100
0000
0010
0000
0001
0000
0100
0000
0000
0000
0100
0000
0000
0010
,
0100
0000
0010
0000
1000
0010
0000
0000
0000
0000
0000
0000
0100
0000
0010
0000
,
0001
0010
1000
0010
0001
0000
0011
1000
,
1100
0000
0000
0000
0000
0001
0000
1000
0010
0000
0000
0100
0010
0000
0100
0000
,
0100
0000
0001
0010
0000
0001
0000
0000
0010
0000
0100
0000
1001
0000
0000
0000
;

//---------------dance-single - ----------------
#NOTES:
     dance-single:
     :
     Challenge:
     9:
     0.642130,0.673835,0.524406,0.064213,0.390629,420.000000,371.000000,49.000000,6.000000,0.000000,0.000000,0.642130,0.673835,0.524406,0.064213,0.390629,420.000000,371.000000,49.000000,6.000000,0.000000,0.000000:
// measure 0
0000
0000
0000
0000
,  // measure 1
1001
0000
0000
0000
0110
0000
0000
0000
1001
0000
0000
0010
0100
0000
0010
0000
,  // measure 2
1001
0000
0000
0000
0000
0000
0000
0110
,  // measure 3
1100
0000
0000
0000
,  // measure 4
0011
0100
0101
0001
,  // measure 5
1001
0000
0000
0000
1100
0000
0000
0000
0101
0000
0000
0001
1000
0000
0010
0000
,  // measure 6
1001
0000
0000
0001
0100
0000
0010
0100
0000
0001
0000
0000
1010
0000
0000
0000
,  // measure 7
0001
0000
0000
1000
0001
0000
0100
0001
0000
0000
0010
0000
0001
0000
1000
0000
,  // measure 8
0001
0000
0000
0010
0100
0000
1000
0100
0000
1000
0000
0000
1001
0000
0000
0000
,  // measure 9
0001
0000
0000
0010
0001
0000
0100
0010
0000
0100
0000
0000
1001
0000
0110
0000
,  // measure 10
0010
0000
0000
0100
0001
0000
0010
0100
0000
0010
0000
0000
1100
0000
0000
0000
,  // measure 11
1000
0000
0000
0001
1000
0000
0010
0100
0000
0001
0000
0000
0010
0000
0100
0000
,  // measure 12
1000
0000
0000
0100
1000
0000
0001
0100
0000
0001
0000
0000
1001
0000
0000
0000
,  // measure 13
0010
0000
0100
0000
0010
0000
0010
0000
0001
1000
0010
0100
0001
1000
0010
0100
,  // measure 14
0001
0100
0001
0010
0001
1000
0001
0100
,  // measure 15
0001
1000
0010
0100
0010
1000
0010
0100
,  // measure 16
0010
1000
0001
0010
0001
1000
0001
0100
,  // measure 17
0001
0010
1000
0010
0001
0100
1000
0100
,  // measure 18
0001
0010
0100
1000
0001
0010
0100
1000
,  // measure 19
0001
0100
0010
1000
0001
0100
0010
1000
,  // measure 20
0010
1000
0010
1000
0100
0001
0100
1000
,  // measure 21
0002
0000
0000
0000
0103
0000
0000
0000
1100
0000
0011
0000
1001
0000
0000
0100
,  // measure 22
0010
0000
1000
0010
0000
1000
0000
0000
0011
0000
0000
0000
1000
0000
0000
0010
,  // measure 23
0100
0000
0001
0010
0000
0001
0000
0000
1000
0000
0010
0000
1000
0000
0000
0001
,  // measure 24
0010
0000
0100
0010
0000
0001
0000
0000
0011
0000
0000
0000
1000
0000
0010
0000
,  // measure 25
0001
0000
0010
0000
1000
0000
0010
0000
0001
0000
0010
0000
1001
0000
0000
0010
,  // measure 26
1000
0000
0100
1000
0000
0010
0000
0000
0110
0000
0000
0000
0001
0000
0000
0100
,  // measure 27
0001
0000
0010
0001
0000
1000
0000
0000
0110
0000
1001
0000
0010
0000
0000
0100
,  // measure 28
0010
0000
1000
0010
0000
1000
0000
0000
1100
0000
0000
0000
0001
0000
0010
0000
,  // measure 29
1000
0010
0002
0000
2000
3003
1001
0000
,  // measure 30
0000
0000
0000
0000
0000
0011
1100
0000
,  // measure 31
0000
0000
0000
1001
,  // measure 32
0000
1001
0000
0110
,  // measure 33
1001
0000
0000
0000
0110
0000
0000
1000
0001
0000
1000
0000
1100
0000
0000
0000
,  // measure 34
0000
0000
0000
0000
0000
1010
0101
0000
,  // measure 35
0000
0000
0000
0011
,  // measure 36
1000
0000
1001
0000
0001
0000
0100
0010
,  // measure 37
0100
0000
0010
0000
1000
0100
0010
0001
1000
0100
0010
0001
1000
0000
0010
1000
,  // measure 38
0010
0000
0100
0000
0001
0010
0001
0000
1000
0000
0001
0000
0100
0000
1000
0000
,  // measure 39
0100
0000
0001
0000
0010
0000
1000
0000
0010
0000
0001
0000
1000
0000
0010
0100
,  // measure 40
0010
0000
0100
0000
0001
0000
0010
0100
0010
0000
0001
0000
1000
0000
0010
0000
,  // measure 41
0001
1000
0100
0001
1000
0010
2000
0000
,  // measure 42
3002
0000
0000
0000
0023
0000
0000
0000
0130
0000
1001
0000
0000
0000
0010
0100
,  // measure 43
0010
0000
0100
0010
1000
0000
0001
0000
0010
0000
0100
0000
1000
0000
0010
0000
,  // measure 44
1000
0001
0100
0001
0010
0000
1001
0000
,  // measure 45
0110
0000
0000
0000
1001
0000
0000
0000
0001
1000
0001
1000
0001
0000
0000
0010
,  // measure 46
0001
0000
0100
0000
0001
0100
0010
0000
1000
0000
0001
0000
0100
0000
0000
0010
,  // measure 47
0100
0000
0001
0000
0100
0001
0000
0000
1000
0000
0001
0000
0010
0000
0000
0100
,  // measure 48
0010
0000
0001
0000
0010
0001
1000
0000
0100
0000
0001
0000
0100
0000
1000
0100
,  // measure 49
1000
0000
0001
0000
1000
0010
0000
0000
1001
0000
0000
0000
0001
0000
0100
0000
,  // measure 50
1000
0100
0001
0010
1000
0010
0001
1001
,  // measure 51
0000
0000
1001
0000
0000
0000
1000
1000
,  // measure 52
0001
0000
0001
1000
0001
0000
0001
0000
1000
0000
0001
1000
0001
0010
0001
0000
,  // measure 53
1000
0100
1000
0100
0000
1000
0000
0010
1000
0000
0001
0100
0001
0000
0010
0000
,  // measure 54
1000
0100
0001
0010
1000
0001
0011
0000
;
