#VERSION:0.83;
#TITLE:Addicted To A Memory;
#SUBTITLE:;
#ARTIST:Zedd (feat. Bahari);
#TITLETRANSLIT:;
#SUBTITLETRANSLIT:;
#ARTISTTRANSLIT:;
#GENRE:;
#ORIGIN:;
#CREDIT:;
#BANNER:Addicted To A Memory-bn.png;
#BACKGROUND:Addicted To A Memory-bg.png;
#PREVIEWVID:;
#JACKET:Addicted To A Memory-jk.png;
#CDIMAGE:;
#DISCIMAGE:;
#LYRICSPATH:;
#CDTITLE:;
#MUSIC:Addicted To A Memory.ogg;
#OFFSET:0.000000;
#SAMPLESTART:50.639565;
#SAMPLELENGTH:15.000008;
#SELECTABLE:YES;
#DISPLAYBPM:109.000000:128.000000;
#BPMS:0.000=128.000,
172.500=64.000,
173.000=128.000,
173.500=64.000,
174.000=128.000,
174.500=64.000,
175.000=128.000,
175.500=64.000,
176.000=128.000,
178.500=64.000,
179.000=128.000,
179.500=64.000,
180.000=128.000,
180.500=64.000,
181.000=128.000,
181.500=64.000,
183.000=128.000,
183.500=64.000,
184.000=128.000,
184.500=64.000,
185.000=128.000,
185.500=64.000,
186.000=128.000,
186.500=64.000,
187.000=128.000,
189.500=64.000,
190.000=128.000,
190.500=64.000,
191.000=128.000,
191.500=64.000,
192.000=128.000,
192.500=64.000,
194.000=128.000,
222.000=64.000,
223.000=128.000,
249.000=64.000,
249.250=128.000,
250.250=64.000,
250.500=128.000,
251.500=64.000,
251.750=128.000,
252.750=64.000,
253.000=128.000,
268.000=127.901,
268.250=127.703,
268.500=127.505,
268.750=127.307,
269.000=127.109,
269.250=126.911,
269.500=126.714,
269.750=126.516,
270.000=126.318,
270.250=126.120,
270.500=125.922,
270.750=125.724,
271.000=125.526,
271.250=125.328,
271.500=125.130,
271.750=124.932,
272.000=124.734,
272.250=124.536,
272.500=124.339,
272.750=124.141,
273.000=123.943,
273.250=123.745,
273.500=123.547,
273.750=123.349,
274.000=123.151,
274.250=122.953,
274.500=122.755,
274.750=122.557,
275.000=122.359,
275.250=122.161,
275.500=121.964,
275.750=121.766,
276.000=121.568,
276.250=121.370,
276.500=121.172,
276.750=120.974,
277.000=120.776,
277.250=120.578,
277.500=120.380,
277.750=120.182,
278.000=119.984,
278.250=119.786,
278.500=119.589,
278.750=119.391,
279.000=119.193,
279.250=118.995,
279.500=118.797,
279.750=118.599,
280.000=118.401,
280.250=118.203,
280.500=118.005,
280.750=117.807,
281.000=117.609,
281.250=117.411,
281.500=117.214,
281.750=117.016,
282.000=116.818,
282.250=116.620,
282.500=116.422,
282.750=116.224,
283.000=116.026,
283.250=115.828,
283.500=115.630,
283.750=115.432,
284.000=115.234,
284.250=115.036,
284.500=114.839,
284.750=114.641,
285.000=114.443,
285.250=114.245,
285.500=114.047,
285.750=113.849,
286.000=113.651,
286.250=113.453,
286.500=113.255,
286.750=113.057,
287.000=112.859,
287.250=112.661,
287.500=112.464,
287.750=112.266,
288.000=112.068,
288.250=111.870,
288.500=111.672,
288.750=111.474,
289.000=111.276,
289.250=111.078,
289.500=110.880,
289.750=110.682,
290.000=110.484,
290.250=110.286,
290.500=110.089,
290.750=109.891,
291.000=109.693,
291.250=109.495,
291.500=109.297,
291.750=109.099,
292.000=109.000;
#STOPS:;
#DELAYS:;
#WARPS:;
#TIMESIGNATURES:0.000=4=4;
#TICKCOUNTS:0.000=4;
#COMBOS:0.000=1;
#SPEEDS:0.000=1.000=0.000=0;
#SCROLLS:0.000=1.000,
182.000=1.100,
182.250=1.250,
182.500=1.450,
182.750=1.700,
183.000=1.000,
193.000=0.950,
193.250=0.850,
193.500=0.700,
193.750=0.500,
194.000=1.000;
#FAKES:;
#LABELS:0.000=Song Start;
#BGCHANGES:;
#KEYSOUNDS:;
#ATTACKS:
;

//---------------dance-single - ----------------
#NOTEDATA:;
#CHARTNAME:;
#STEPSTYPE:dance-single;
#DESCRIPTION:;
#CHARTSTYLE:;
#DIFFICULTY:Challenge;
#METER:11;
#RADARVALUES:0.633927,1.022344,0.191448,0.813653,0.923052,649.000000,621.000000,28.000000,119.000000,0.000000,0.000000,1.000000,0.000000,0.000000,0.633927,1.022344,0.191448,0.813653,0.923052,649.000000,621.000000,28.000000,119.000000,0.000000,0.000000,1.000000,0.000000,0.000000;
#CREDIT:;
#NOTES:
0000
0000
0000
0000
,
0000
0000
0000
0000
,
0000
0000
0000
0000
,
0000
0000
0000
0000
,
0000
0000
0000
0000
,
0000
0000
0000
0000
0000
0000
0100
1000
,
0000
0000
0000
0000
0010
1000
0100
0002
,
0000
0000
0103
0020
0000
0032
0000
2003
,
0000
3020
0000
0230
0000
0302
0000
0023
,
0000
2030
0000
3002
0000
0203
0000
0000
,
2300
3002
0000
0000
,
0203
0010
1000
0001
,
0320
0001
0100
2030
,
3002
0000
0010
0000
1000
0000
0103
0001
,
2000
0000
3020
0000
0230
0000
0302
0010
,
2003
0000
3200
0000
0310
0001
0010
0000
,
0002
0000
0203
0000
0310
1000
0010
0000
,
2000
0000
3002
0000
0013
0100
0010
0000
,
0002
0000
0000
0023
0000
0000
0230
0000
1300
0000
0000
0000
0001
0000
0000
0000
,
0100
0000
0000
0100
0000
0002
0000
0000
0103
0000
0000
0200
0000
0000
0300
0000
,
0010
0000
0000
0010
0000
2000
0000
0000
3010
0000
0000
0020
0000
0000
0130
0000
,
0001
0000
0000
0001
0000
0020
0000
0000
0031
0000
0000
0002
0000
0000
0003
0000
,
1000
0000
0000
1000
0000
0020
0000
0000
1030
0000
0000
2000
0000
0000
3001
0000
,
0100
0001
0100
0001
1000
0100
1000
0100
0010
0001
0010
0001
1000
0010
1000
0010
,
0100
0001
1000
0100
0010
0001
1000
0010
0100
0001
0010
0100
1000
0010
0100
0001
,
1000
0100
1000
0100
0010
0100
0010
0001
0010
0001
1000
0001
1000
0010
1000
0010
0100
0010
0100
0001
0100
0001
1000
0001
,
0020
0000
0000
0000
0000
0000
0000
0030
,
0100
0000
0000
1000
0000
0001
0010
0001
0000
1000
0001
1000
0010
0000
0000
0010
,
0100
0000
0001
1000
0000
0100
0010
0001
0000
1000
0001
1000
0100
0000
0100
0000
,
2000
0000
0000
3010
0000
0100
0001
0100
0010
1000
0001
1000
0400
0000
0000
0000
,
0310
0000
0010
0001
0000
0001
1000
0001
2200
0000
0000
3300
0202
0000
0000
0303
,
0010
0000
0000
1000
0001
0010
0100
0010
0001
0100
0010
0100
0001
1000
0100
1000
,
0001
0000
0000
0000
0100
0000
0010
0000
0000
0000
1000
0100
1000
0000
0001
0000
0000
0000
0001
0000
1000
0000
0100
0000
0020
0000
0000
0000
0130
0000
1000
0000
,
0002
0000
0003
0100
0000
0100
1000
0100
0010
1000
0100
0010
0002
0000
2003
0000
,
3100
0000
0010
0100
0000
0010
0001
1000
0022
0000
0000
0033
2020
0000
0000
3030
,
0001
0000
0000
1000
0000
0001
1000
0100
0000
0100
0001
0010
0000
0010
1000
0001
,
0100
0000
0100
0010
0000
1000
0100
0001
0000
0001
0100
0010
0002
0000
0000
0000
,
2003
0000
0000
0000
3000
0000
1000
0000
0000
0000
0010
0100
0010
0000
0100
0000
0000
0000
0001
0000
1000
0000
0010
0000
0000
0000
0010
0000
0001
0000
1000
0000
,
0100
0000
0100
0010
0000
0100
1000
0001
0220
0000
0000
0330
2002
0000
0000
3003
,
0010
1000
0001
0100
0010
1000
0001
0100
0010
1000
0001
0100
0010
1000
0001
1000
,
0100
0010
0001
1000
0100
0010
0001
1000
0010
0100
1000
0100
0002
0000
0000
0000
,
0013
0100
1000
0001
0010
0100
1000
0001
0010
0100
1000
0001
0010
0100
0010
0001
,
2000
0000
3010
1000
0020
0000
0130
0010
0200
0000
0301
0100
0010
0000
0000
0000
,
2020
3030
0202
0303
0022
0033
2200
3300
,
2002
3003
0220
0330
0202
0303
2020
3030
,
2200
3300
0022
0033
0000
0000
2002
3003
,
2020
3030
0220
0330
0202
0303
2200
3300
,
0022
0033
2002
3003
0220
0330
2002
3003
,
0220
0000
0330
0000
0000
0000
0000
0000
0001
0000
1000
0000
0000
0010
0000
0000
,
1000
0000
0001
0000
0000
0010
0000
0000
0001
0000
1000
0000
0000
0100
0000
0000
,
1000
0000
0001
0000
0000
0100
0000
0001
0010
0000
0001
0000
0000
0100
0000
0000
,
0010
0000
1000
0000
0000
0100
0000
0000
0010
0000
0001
0000
0000
1000
0000
0000
,
0010
0000
0100
0000
0000
0001
0000
1000
0001
0100
0010
1000
0010
1000
0001
0010
,
0001
0010
0100
1000
0100
1000
0001
0100
0001
1000
0100
0010
0100
1000
0010
0100
,
0010
0000
0000
1000
0000
0000
0001
0000
0000
0010
0000
0000
0100
0000
0000
0010
0000
0000
0001
0000
0000
0100
0000
0000
0010
0000
1000
0000
0010
0000
1000
0000
0001
0000
1000
0000
0001
0000
0010
0000
0001
0000
0010
0000
0100
0000
0010
0000
,
0100
1000
0100
1000
0001
1000
0001
0100
0001
1000
0100
0010
0001
0000
0000
0000
0000
0000
0200
0000
0000
0000
0000
0000
,
0310
0000
0000
0000
2000
0000
3010
0100
0001
1000
0200
0000
0310
0001
1000
0010
,
0200
0000
0301
1000
0100
0010
0002
0000
1003
0010
0100
1000
0000
1000
0100
0000
,
0010
0000
1010
0000
0002
0000
0013
0100
1000
0010
0200
0000
0310
1000
0001
0010
,
0200
0000
0000
0000
0310
0000
0001
0000
0100
0000
0010
0000
2000
0000
0000
0000
3001
0000
0100
0000
0010
0000
1000
0000
0001
0010
0001
0000
1000
0000
0001
0000
,
1000
0100
0010
0100
2000
0000
3010
0100
0001
0010
2000
0000
3010
0001
0100
0010
,
0002
0000
0013
1000
0100
0010
2000
0000
3010
0100
0001
0100
0000
0100
1000
0000
,
0001
0100
1000
0100
0020
1030
0100
0010
0001
2000
3010
0100
0001
1000
0200
0310
,
0001
0000
1000
0000
0010
0000
0200
0000
0301
0000
1000
0000
0100
0000
0010
0000
0001
0010
0001
0000
0010
0000
0100
0000
0010
0000
0100
0000
1000
0000
0100
0000
,
0000
0000
0000
0000
,
1001
0000
0100
1000
0100
0010
0000
0000
0001
0100
0001
1000
0000
0000
0010
0100
,
0010
1000
0000
0000
0001
0100
0001
0010
0000
0010
0100
0000
0000
0000
1000
0010
,
0000
0000
0100
0001
0100
0010
0000
0000
1000
0100
1000
0001
0000
0000
0010
0100
,
0010
0000
0001
0000
0000
0000
0000
0000
1000
0000
0010
0000
1000
0000
0001
0000
0010
0001
0010
0000
0001
0000
1000
0000
0001
0000
1000
0000
0010
0000
0100
0000
,
0000
0000
0001
1000
0100
0010
0000
0000
1000
0001
0100
0010
0000
0000
0001
1000
,
0010
0100
0000
0000
1000
0001
0010
0100
0000
0100
1000
0000
0000
0000
0010
1000
,
0000
0000
0100
0010
0001
0100
0000
0000
0010
1000
0001
0010
0000
0000
0100
1000
,
0010
0000
0100
0000
0000
0000
0000
0000
0010
0000
1000
0000
0001
0000
0010
0000
0100
0010
0100
0000
0010
0000
0001
0000
1000
0000
0010
0000
0100
0000
1000
0000
;

//---------------dance-single - ----------------
#NOTEDATA:;
#CHARTNAME:;
#STEPSTYPE:dance-single;
#DESCRIPTION:;
#CHARTSTYLE:;
#DIFFICULTY:Hard;
#METER:9;
#RADARVALUES:0.575320,0.797927,0.184610,0.697417,0.741860,589.000000,562.000000,27.000000,102.000000,0.000000,0.000000,4.000000,0.000000,0.000000,0.575320,0.797927,0.184610,0.697417,0.741860,589.000000,562.000000,27.000000,102.000000,0.000000,0.000000,4.000000,0.000000,0.000000;
#CREDIT:;
#NOTES:
// measure 0
0000
0000
0000
0000
,  // measure 1
0000
0000
0000
0000
,  // measure 2
0000
0000
0000
0000
,  // measure 3
0000
0000
0000
0000
,  // measure 4
0000
0000
0000
0000
,  // measure 5
0000
0000
0000
0000
0000
0000
1000
0200
,  // measure 6
0000
0000
0000
0000
0301
0100
1000
0020
,  // measure 7
0000
0000
0130
0002
0000
2003
0000
3200
,  // measure 8
0000
0320
0000
0230
0000
2300
0000
3020
,  // measure 9
0000
0230
0000
0302
0000
0023
0000
0000
,  // measure 10
0230
2300
0000
0000
,  // measure 11
3002
0010
1000
0100
,  // measure 12
0023
1000
0100
0031
,  // measure 13
2000
0000
0010
0000
0001
0000
3100
1000
,  // measure 14
0002
0000
0023
0000
0230
0000
0310
0100
,  // measure 15
2000
0000
3020
0000
0130
0001
0100
0000
,  // measure 16
0002
0000
0023
0000
0130
1000
0100
0000
,  // measure 17
2000
0000
3002
0000
0103
0010
0100
0000
,  // measure 18
0010
1000
0010
0000
0100
0000
0001
0000
,  // measure 19
0010
0000
0000
0010
0000
0002
0000
0000
0013
0000
0000
0020
0000
0000
0030
0000
,  // measure 20
0100
0000
0000
0100
0000
2000
0000
0000
3100
0000
0000
0200
0000
0000
0310
0000
,  // measure 21
0001
0000
0000
0001
0000
0200
0000
0000
0301
0000
0000
0002
0000
0000
0003
0000
,  // measure 22
1000
0000
0000
1000
0000
0200
0000
0000
1300
0000
0000
2000
0000
0000
3001
0000
,  // measure 23
0100
0100
0001
0001
1000
1000
0010
0010
,  // measure 24
1000
0100
1000
0100
1000
0001
1000
0001
0010
0001
0010
0001
1000
0001
1000
0004
,  // measure 25
0400
0000
0000
0000
0000
0000
0000
0300
4000
0000
0000
0000
0000
0000
0000
3000
,  // measure 26
0023
0000
0000
0000
,  // measure 27
0130
0000
0000
1000
0000
0001
0010
0001
0000
1000
0010
1000
0001
0000
0000
1000
,  // measure 28
0100
0000
0010
0001
0000
1000
0010
0100
0000
0010
1000
0001
1000
0000
0010
0000
,  // measure 29
0100
0000
0000
0010
0000
1000
0100
1000
0000
0001
0100
0001
4000
0000
0000
0000
,  // measure 30
3100
0000
0100
1000
0000
0001
1000
0000
2200
0000
0000
3300
0202
0000
0000
0303
,  // measure 31
1000
0000
0000
0010
0100
0010
1000
0010
0100
0001
1000
0001
0010
0001
1000
0001
,  // measure 32
0100
0000
0100
0010
0000
1000
0100
0010
0000
0001
1000
0100
0020
0000
0130
1000
,  // measure 33
0002
0000
0003
0100
0000
0100
1000
0100
0010
1000
0100
0010
0002
0000
2003
0000
,  // measure 34
3100
0000
0010
0100
0000
0010
0001
0000
0022
0000
0000
0033
2020
0000
0000
3030
,  // measure 35
0001
0000
0000
0100
0000
0001
1000
0010
0000
1000
0100
0010
0000
0100
1000
0001
,  // measure 36
0100
0000
0100
0010
0000
1000
0001
0010
0000
0001
1000
0010
0200
0000
0000
0000
,  // measure 37
0301
0000
0000
1000
0000
0100
0010
0001
0000
0100
0010
1000
0000
0010
0100
0001
,  // measure 38
1000
0000
0100
0001
0000
0100
0010
0000
0220
0000
0000
0330
2002
0000
0000
3003
,  // measure 39
0010
1000
0001
1000
0010
1000
0001
1000
0010
1000
0001
1000
0010
1000
0001
1000
,  // measure 40
0010
0100
0001
0100
0010
0100
0001
0100
0010
1000
0001
1000
0200
0000
0000
0000
,  // measure 41
0310
0100
1000
0100
0010
0100
1000
0100
0010
0100
1000
0100
0010
0100
0010
0001
,  // measure 42
2000
0000
3001
0100
0002
0000
1003
0100
2000
0000
3001
0010
0100
0000
0000
0000
,  // measure 43
2020
3030
0220
0330
0202
0303
2002
3003
,  // measure 44
2200
3300
0022
0033
0202
0303
0220
0330
,  // measure 45
2020
3030
2002
3003
0000
0000
0022
0033
,  // measure 46
2200
3300
2020
3030
0202
0303
2002
3003
,  // measure 47
2200
3300
0220
0330
2002
3003
0220
0330
,  // measure 48
2002
0000
3003
0000
0000
0000
0000
0000
0001
0000
1000
0000
0000
0100
0000
0000
,  // measure 49
1000
0000
0001
0000
0000
0100
0000
0000
0001
0000
1000
0000
0000
0010
0000
0000
,  // measure 50
1000
0000
0001
0000
0000
0010
0000
0001
1000
0000
0010
0000
0000
0100
0000
0000
,  // measure 51
0010
0000
1000
0000
0000
0001
0000
0000
1000
0000
0100
0000
0000
0010
0000
0000
,  // measure 52
0100
0000
1000
0000
0000
0001
0000
0100
0010
0000
1000
0010
1000
0000
0100
1000
,  // measure 53
0100
0000
0010
0001
0010
0000
0001
0100
0001
0000
1000
0010
0100
0000
0001
1000
,  // measure 54
0100
0000
0010
0100
1000
0000
0001
0100
0010
0000
0010
0000
0100
0000
0100
0000
,  // measure 55
0010
1000
0010
1000
0001
1000
0001
1000
0100
0000
0000
0000
0020
0000
0000
0000
,  // measure 56
0130
0000
0000
0000
1000
0000
0001
1000
0001
0010
0001
0000
0100
0001
0100
0010
,  // measure 57
0100
0000
0001
1000
0001
0100
0010
0000
1000
0100
1000
0001
0000
0001
0100
0000
,  // measure 58
0010
0000
2000
0000
3001
0000
0010
0100
0010
0100
1000
0000
0010
0100
0010
0100
,  // measure 59
0001
0000
0010
0100
0010
0100
1000
0000
0001
0010
0001
1000
0010
0100
0001
1000
,  // measure 60
0100
0010
0100
1000
0001
0000
1000
0100
0010
0001
1000
0000
0001
0010
0100
1000
,  // measure 61
0001
0000
1000
0010
0100
0001
1000
0000
0010
1000
0001
0100
0000
0100
0010
0000
,  // measure 62
1000
0010
0001
0010
0200
0310
1000
0010
1000
0200
0310
0001
0010
0001
2000
3010
,  // measure 63
0100
0010
0100
0002
0013
0100
0010
0100
0001
0100
0010
0001
1000
0010
0100
1000
,  // measure 64
0000
0000
0000
0000
,  // measure 65
0110
0000
0001
1000
0001
0010
0000
0000
0100
0010
0100
1000
0000
0000
0010
1000
,  // measure 66
0010
0100
0000
0000
0001
1000
0001
0010
0000
0010
0100
0000
0000
0000
1000
0010
,  // measure 67
0000
0000
0100
0001
0100
0010
0000
0000
1000
0100
1000
0001
0000
0000
0010
0100
,  // measure 68
0010
0001
0000
0000
1000
0010
1000
0001
0010
0100
1000
0001
0100
1000
0100
0010
,  // measure 69
0000
0000
1000
0100
0010
0001
0000
0000
0100
0001
1000
0010
0000
0000
0100
0010
,  // measure 70
1000
0001
0000
0000
0010
0100
1000
0001
0000
0001
0100
0000
0000
0000
0010
0100
,  // measure 71
0000
0000
0001
1000
0100
0001
0000
0000
0100
1000
0010
0100
0000
0000
1000
0100
,  // measure 72
0001
0000
1000
0000
0000
0000
0000
0000
0010
0000
0100
0000
0001
0000
1000
0000
0010
1000
0010
0000
0100
0000
0010
0000
0100
0000
0001
0000
0010
0000
1000
0000
;
