#TITLE:1999;
#SUBTITLE:;
#ARTIST:Charli XCX & Troye Sivan;
#TITLETRANSLIT:;
#SUBTITLETRANSLIT:;
#ARTISTTRANSLIT:;
#GENRE:;
#CREDIT:;
#BANNER:[Round 1] - 1999.png;
#BACKGROUND:[Round 1] - 1999-BG.png;
#LYRICSPATH:;
#CDTITLE:;
#MUSIC:[Round 1] - 1999.ogg;
#OFFSET:-0.349662;
#SAMPLESTART:46.731998;
#SAMPLELENGTH:15.000000;
#SELECTABLE:YES;
#DISPLAYBPM:124.000000;
#BPMS:0.000000=124.000000;
#STOPS:;
#BGCHANGES:15.750=wall1.avi=0.900=1=0=1,
27.750=countdown1r.avi=0.700=0=0=1,
31.750=aliens2.avi=0.900=0=0=1,
39.750=smoke3.avi=1.000=0=0=1,
47.750=dog2.avi=0.900=0=0=1,
55.750=butterfly1.avi=1.000=0=0=1,
63.750=clouds1.avi=1.000=0=0=1,
71.750=robot13.avi=1.000=0=0=1,
79.750=room2.avi=1.000=0=0=1,
87.750=text16.avi=1.000=0=0=1,
95.750=jewelry2.avi=1.000=0=0=1,
107.750=car4.avi=1.000=0=0=1,
111.750=jewelry1.avi=1.000=0=0=1,
123.750=countdown1r.avi=0.700=0=1=1,
127.750=gun1.avi=1.000=0=0=1,
131.750=dance12.avi=1.000=0=0=1,
135.750=jump1.avi=1.000=0=0=1,
139.750=city3.avi=1.000=0=0=1,
143.750=text17.avi=1.000=0=0=1,
159.750=film6.avi=1.000=0=0=1,
175.750=[Round 1] - 1999-BG.png=1.000=0=0=1;
#KEYSOUNDS:;
#ATTACKS:;

//---------------dance-single - BEGINNER----------------
#NOTES:
     dance-single:
     BEGINNER:
     Beginner:
     1:
     0.111470,0.149272,0.022617,0.000000,0.000000:
0000
0000
0000
0000
,
0000
0000
0000
0000
,
0000
0000
0000
0000
,
0000
0000
0000
0000
,
0100
0000
0000
0000
,
1000
0000
0000
0000
,
0001
0000
0000
0000
,
0010
0000
0100
0000
,
0010
0000
1000
0000
,
0000
0000
0001
0000
,
0000
0000
0001
0000
,
0000
0000
1000
0000
,
0010
0000
0001
0000
,
0100
0000
1000
0000
,
0100
0000
0001
0000
,
0010
0000
1000
0000
,
0100
0000
0000
0000
,
0010
0000
0100
0000
,
0010
0000
0000
0000
,
0001
0000
0100
0000
,
1000
0000
0000
0000
,
1000
0000
0001
0000
,
1000
0000
0100
0000
,
0001
0000
0000
0000
,
1001
0000
0001
0000
,
0001
0000
1000
0000
,
1000
0000
0000
0000
,
0010
0000
0001
0000
,
0100
0000
0010
0000
,
0010
0000
1000
0000
,
1000
0000
0000
0000
,
0010
0000
0001
0000
,
1001
0000
0001
0000
,
1000
0000
1000
0000
,
0010
0000
0010
0000
,
1000
0000
0100
0000
,
1000
0000
0001
0000
,
0001
0000
0000
0000
,
1000
0000
0100
0000
,
0010
0000
0001
0000
,
1000
0000
0010
0000
,
0100
0000
0000
0000
,
0100
0000
1000
0000
,
0010
0000
0001
0000
,
1000
0000
0000
0000
;

//---------------dance-single - BASIC----------------
#NOTES:
     dance-single:
     BASIC:
     Easy:
     3:
     0.210015,0.223908,0.022617,0.000000,0.000000:
0000
0000
0000
0000
,
0000
0000
0000
0000
,
0000
0000
0000
0000
,
0001
0000
1000
0000
,
0100
0000
1000
0100
,
1000
0000
0001
0010
,
0001
0001
0100
0000
,
0010
0010
0100
0100
,
0010
0000
1000
1000
,
0100
0000
0001
0001
,
0100
0100
0001
0000
,
0010
0010
1000
0000
,
0010
0010
0001
0001
,
0100
0100
1000
1000
,
0100
0100
0001
0001
,
0010
0010
1000
1000
,
0100
1000
0010
0000
,
0010
1000
0100
1000
,
0010
0000
0100
0000
,
0001
1000
0100
0000
,
1000
0000
0001
0000
,
1000
0010
0001
0010
,
1000
0000
0100
0000
,
0001
0000
0000
0000
,
1001
0000
0001
0100
,
0001
0000
1000
0100
,
1000
1000
0001
0000
,
0010
0000
0001
0000
,
0100
0000
0010
0100
,
0010
0000
1000
0010
,
1000
1000
0100
0000
,
0010
0000
0001
0000
,
1001
0100
0001
0000
,
1000
0010
1000
0000
,
0010
0100
0010
0000
,
1000
0001
0100
0001
,
1000
0000
0001
0010
,
0001
0000
1000
0010
,
1000
1000
0100
0100
,
0010
0010
0001
0001
,
1000
0000
0010
1000
,
0100
0000
0010
0001
,
0100
0100
1000
1000
,
0010
0010
0001
0001
,
1000
0000
0000
0000
;

//---------------dance-single - DIFFICULT----------------
#NOTES:
     dance-single:
     DIFFICULT:
     Medium:
     5:
     0.337640,0.353249,0.192245,0.000000,0.000000:
// measure 0
0000
0000
0000
0000
,  // measure 1
0000
0000
0000
0000
,  // measure 2
0000
0000
0000
0000
,  // measure 3
0001
0100
1000
0100
,  // measure 4
0001
0000
0010
0000
1000
0100
1000
0000
,  // measure 5
0001
0000
0000
0000
0001
0100
0001
0000
,  // measure 6
1000
1000
0100
0100
,  // measure 7
0010
0000
0010
0000
0001
1000
0001
0000
,  // measure 8
0100
0000
0001
0101
,  // measure 9
0100
0000
1000
1100
,  // measure 10
0100
0000
0010
0000
0001
1000
0001
0000
,  // measure 11
0100
0000
0010
0000
1000
0001
1000
0000
,  // measure 12
0010
1010
0100
0101
,  // measure 13
1000
1100
0001
0011
,  // measure 14
1000
0000
0010
0010
1000
0000
0001
0000
,  // measure 15
1000
0000
0100
0100
1000
0000
0001
0000
,  // measure 16
1000
0000
0100
0000
1000
1000
0000
0000
,  // measure 17
0010
0001
0100
1000
,  // measure 18
0010
0000
0100
0000
0001
0001
0000
0000
,  // measure 19
0100
0001
1000
0100
,  // measure 20
0010
0000
0001
0000
1000
1000
0000
0000
,  // measure 21
0010
0000
1000
0000
0100
0000
0010
0010
,  // measure 22
0000
0000
0001
0001
0000
0000
1000
1000
,  // measure 23
0000
0000
0000
0000
,  // measure 24
1001
0000
0100
0000
1000
0100
1000
0000
,  // measure 25
0010
0000
1000
0000
0001
0100
0001
0000
,  // measure 26
1001
0000
1001
0000
0100
0000
1000
0100
,  // measure 27
0001
0000
0001
0100
1000
0000
1000
0010
,  // measure 28
0100
0000
0010
0000
1000
0100
1000
0000
,  // measure 29
0010
0000
0100
0000
0001
0010
0100
0000
,  // measure 30
0110
0000
1001
0000
0100
0000
0010
0001
,  // measure 31
0100
0000
0100
0000
0010
1000
0100
0000
,  // measure 32
1001
0000
0100
0000
0010
0000
1000
0001
,  // measure 33
0001
0000
0010
0000
0100
0000
1000
0010
,  // measure 34
0010
0000
1000
0000
0100
0000
1000
0001
,  // measure 35
0001
0000
0010
0000
0001
0000
0001
0100
,  // measure 36
1000
0000
0100
0001
0010
0001
0100
0000
,  // measure 37
0100
1010
0010
0101
,  // measure 38
0001
0001
0001
0000
0100
0010
1000
0000
,  // measure 39
0100
0100
0100
0000
0010
0001
1000
0000
,  // measure 40
1010
0000
1000
0000
0100
1000
0100
0000
,  // measure 41
0010
0000
0001
0000
0100
0001
1000
0001
,  // measure 42
0100
0000
0101
0000
0010
1000
0100
0000
,  // measure 43
0010
0000
0011
0000
0001
1000
0100
0000
,  // measure 44
1000
0000
0000
1000
0000
1000
0000
0000
;

//---------------dance-single - EXPERT----------------
#NOTES:
     dance-single:
     EXPERT:
     Hard:
     7:
     0.441032,0.479410,0.226170,0.000000,0.163973:
0000
0000
0000
0000
,
0000
0000
0000
0000
,
0000
0000
0000
0000
0000
0000
0001
0100
,
0001
0000
1000
0010
1000
0000
1000
0100
,
1000
0000
0010
0001
0100
0001
0010
0000
,
0100
0000
1000
0010
0100
0010
1000
0000
,
0001
0001
0001
0000
0100
0000
0010
1000
,
0100
1100
0010
0011
,
1000
0100
0001
0000
0001
0100
1000
0000
,
0010
1000
0100
0000
0010
0001
0100
0000
,
0010
0010
0010
0000
0001
0010
1000
0000
,
0100
0100
0100
0000
0001
0100
1000
0000
,
1001
0000
0000
0000
1000
0100
0000
0000
0100
0010
0000
0000
0010
0001
0000
0000
,
1001
0000
0001
0100
0010
1000
0001
0000
,
0110
0000
0100
0100
0001
1000
0010
0000
,
1000
0000
0100
1000
0010
0100
0001
0000
,
1001
0000
0000
0000
1000
0000
0000
0001
0100
0000
0001
0000
1000
0000
0000
0000
,
0010
1000
0010
0100
0001
0010
0100
1000
,
0001
0000
0000
0000
1000
0000
0000
0100
1000
0000
0001
0000
0100
0000
0000
0000
,
0010
1000
0100
1000
0001
0100
1000
0000
,
0100
0000
0000
0000
0001
0000
0000
1000
0001
0000
1000
0000
0100
0000
0000
0000
,
0010
0001
1000
0010
0100
0001
1000
1000
,
0000
0000
0100
0100
0000
0000
0001
0001
,
0000
0000
0000
0000
,
1001
0000
0000
0001
0000
0000
1000
0000
0100
0000
1000
0000
0001
0000
0000
0000
,
0010
0000
0000
0010
0000
0000
0001
0000
0100
0000
0010
0000
1000
0000
0000
0000
,
0100
0000
0000
0100
0000
0000
1000
0000
0001
0000
0100
0000
0010
0000
1000
0000
,
0100
0000
0010
0001
0100
0000
1000
0100
,
0001
0000
0000
0001
0000
0000
1000
0000
0100
0000
1000
0000
0001
0000
0000
0000
,
1000
0000
0000
1000
0000
0000
0001
0000
0010
0000
0001
0000
0100
0000
0000
0000
,
0010
0000
0000
0010
0000
0000
1000
0000
0001
0000
0100
0000
0010
0000
1000
0000
,
1100
1100
0011
0011
,
1001
0000
0001
0100
0000
1000
0100
0000
0001
0000
0000
0000
0100
0000
0010
0000
,
1000
0000
0100
0010
0000
0001
1000
0000
0100
0000
0000
0000
1000
0000
0001
0000
,
1000
0000
0001
0100
0000
0010
1000
0000
0100
0000
0000
0000
1000
0000
0001
0000
,
0100
0000
0001
0010
0000
0100
1000
0000
0010
0000
1000
0000
0100
0000
1000
0000
,
1001
0000
0000
1000
0000
0000
0001
0000
1000
0000
0010
0000
0100
0000
0000
0000
,
0110
0000
0000
0010
0000
0000
1000
0000
0001
0000
0100
0000
0010
0000
0000
0000
,
1000
0000
0000
0100
0000
0000
1100
0000
0000
0000
0100
0000
1000
0000
0000
0000
,
0010
0000
0000
0001
0000
0000
0101
0000
0000
0000
0001
0000
1000
0000
0000
0000
,
1010
0000
0000
0100
0000
0000
0010
0000
1000
0000
0001
0000
0100
0000
0000
0000
,
0101
0000
0000
0010
0000
0000
0100
0000
1000
0000
0001
0000
0010
0000
0000
0000
,
0100
0000
0000
1000
0000
0000
1001
0000
0000
0000
0001
0000
1000
0000
0000
0000
,
0001
0000
0000
0100
0000
0000
0110
0000
0000
0000
1000
0000
0001
0000
0000
0000
,
0010
0000
0000
0100
0000
0000
1000
0000
0000
0000
1000
0000
0000
0000
0000
0000
;

//---------------dance-double - BASIC----------------
#NOTES:
     dance-double:
     BASIC:
     Easy:
     3:
     0.210015,0.223908,0.022617,0.000000,0.000000:
00000000
00000000
00000000
00000000
,
00000000
00000000
00000000
00000000
,
00000000
00000000
00000000
00000000
,
00010000
00000000
00001000
00000000
,
01000000
00000000
00100000
10000000
,
00100000
00000000
01000000
00010000
,
00001000
00001000
00010000
00000000
,
00000010
00000010
00000100
00000100
,
00000010
00000000
00010000
00010000
,
00001000
00000000
00000100
00000100
,
00000001
00000001
00000010
00000000
,
00000100
00000100
00010000
00000000
,
00000010
00000010
00001000
00001000
,
00010000
00010000
01000000
01000000
,
10000000
10000000
00100000
00100000
,
00010000
00010000
00001000
00001000
,
00000010
00001000
00000100
00000000
,
00010000
00000100
00001000
00000100
,
00000010
00000000
00000100
00000000
,
00010000
00001000
01000000
00000000
,
00100000
00000000
10000000
00000000
,
00010000
00100000
00001000
00100000
,
01000000
00000000
10000000
00000000
,
00010000
00000000
00000000
00000000
,
00011000
00000000
00010000
00000100
,
00010000
00000000
00000001
00000100
,
00000001
00000001
00001000
00000000
,
00100000
00000000
00010000
00000000
,
01000000
00000000
00100000
01000000
,
00100000
00000000
10000000
00100000
,
00010000
00010000
00001000
00000000
,
00000010
00000000
00000001
00000000
,
00001001
00010000
00001000
00000000
,
10000000
00100000
10000000
00000000
,
00001000
01000000
00001000
00000000
,
00000010
00000001
00000100
00000001
,
00001000
00000000
00100000
01000000
,
00100000
00000000
10000000
01000000
,
00010000
00010000
00001000
00001000
,
00000100
00000100
00000010
00000010
,
00000001
00000000
00000010
00000001
,
00000100
00000000
00000100
00000001
,
00001000
00001000
00010000
00010000
,
00100000
00100000
10000000
10000000
,
00010000
00000000
00000000
00000000
;

//---------------dance-double - DIFFICULT----------------
#NOTES:
     dance-double:
     DIFFICULT:
     Medium:
     5:
     0.332793,0.353249,0.192245,0.000000,0.000000:
00000000
00000000
00000000
00000000
,
00000000
00000000
00000000
00000000
,
00000000
00000000
00000000
00000000
,
00010000
01000000
10000000
01000000
,
00010000
00000000
00001000
00000000
00000010
00000100
00000010
00000000
,
00001000
00000000
00000000
00000000
00000001
00000100
00000001
00000000
,
00001000
00001000
00000100
00000100
,
01000000
00000000
01000000
00000000
00010000
10000000
00010000
00000000
,
01000000
00000000
00001000
00011000
,
00010000
00000000
00000001
00001001
,
00000100
00000000
00000010
00000000
00000001
00001000
00000001
00000000
,
00000100
00000000
00000010
00000000
00010000
00001000
00010000
00000000
,
00100000
10100000
01000000
01010000
,
00001000
00001100
00000001
00000011
,
00001000
00000000
00000010
00000010
00001000
00000000
00000100
00000000
,
00010000
00000000
00100000
00100000
10000000
00000000
00010000
00000000
,
10000000
00000000
01000000
00000000
10000000
10000000
00000000
00000000
,
00100000
00010000
00001000
00000100
,
00000001
00000000
00001000
00000000
00000100
00000100
00000000
00000000
,
01000000
00010000
10000000
01000000
,
00100000
00000000
00010000
00000000
00001000
00001000
00000000
00000000
,
00100000
00000000
00010000
00000000
01000000
00000000
00010000
00010000
,
00000000
00000000
00001000
00001000
00000000
00000000
00000001
00000001
,
00000000
00000000
00000000
00000000
,
00001001
00000000
00000100
00000000
00010000
00001000
00010000
00000000
,
00100000
00000000
01000000
00000000
00001000
00010000
00001000
00000000
,
00011000
00000000
00011000
00000000
01000000
00000000
10000000
01000000
,
00010000
00000000
00001000
00000100
00000001
00000000
00000001
00000010
,
00000100
00000000
00000010
00000000
00001000
00010000
00001000
00000000
,
01000000
00000000
00100000
00000000
10000000
01000000
00100000
00000000
,
01100000
00000000
00011000
00000000
00000100
00000000
00000010
00000001
,
00000100
00000000
00000100
00000000
00000001
00001000
00000100
00000000
,
00011000
00000000
01000000
00000000
00100000
00000000
10000000
00010000
,
00010000
00000000
00000010
00000000
00000001
00000000
00000100
00001000
,
00001000
00000000
00010000
00000000
01000000
00000000
10000000
00010000
,
00010000
00000000
00100000
00000000
00010000
00000000
00001000
00010000
,
00000100
00000000
00001000
00000100
00000001
00000100
00001000
00000000
,
00010000
10010000
00010000
00011000
,
00001000
00001000
00001000
00000000
00001000
00000100
00000001
00000000
,
0000000F
0000000F
0000000F
00000000
00000001
00000010
00001000
00000000
,
00101000
00000000
10000000
00000000
01000000
10000000
01000000
00000000
,
00100000
00000000
00010000
00000000
00000100
00010000
00001000
00010000
,
00000100
00000000
00001100
00000000
00000010
00000001
00000100
00000000
,
00001000
00000000
00101000
00000000
00010000
10000000
01000000
00000000
,
10000000
00000000
00000000
10000000
00000000
10000000
00000000
00000000
;

//---------------dance-double - EXPERT----------------
#NOTES:
     dance-double:
     EXPERT:
     Hard:
     7:
     0.441032,0.479410,0.226170,0.000000,0.163973:
00000000
00000000
00000000
00000000
,
00000000
00000000
00000000
00000000
,
00000000
00000000
00000000
00000000
00000000
00000000
00000010
00000001
,
00000010
00000000
00010000
00000100
00010000
00000000
00001000
01000000
,
00001000
00000000
00100000
00001000
01000000
00001000
00100000
00000000
,
01000000
00000000
10000000
00100000
01000000
00100000
10000000
00000000
,
00010000
00010000
00010000
00000000
01000000
00000000
00001000
00010000
,
00001000
01001000
00010000
00001010
,
00001000
00000100
00000001
00000000
00000001
00000100
00001000
00000000
,
00010000
00100000
10000000
00000000
10000000
00100000
00010000
00000000
,
00001000
00001000
00001000
00000000
00000001
00001000
00000100
00000000
,
00010000
00010000
00010000
00000000
01000000
10000000
00100000
00000000
,
10010000
00000000
00000000
00000000
00100000
00010000
00000000
00000000
00010000
00001000
00000000
00000000
00001000
00000100
00000000
00000000
,
00000110
00000000
00000001
00000100
00000010
00001000
00000001
00000000
,
00001001
00000000
00010000
00010000
00001000
00000100
00000001
00000000
,
00000100
00000000
00010000
00001000
00100000
01000000
10000000
00000000
,
10010000
00000000
00000000
00000000
10000000
00000000
00000000
00010000
01000000
00000000
00010000
00000000
00100000
00000000
00000000
00000000
,
00100000
01000000
10000000
01000000
00100000
00010000
00001000
00010000
,
00000100
00000000
00000000
00000000
00000100
00000000
00000000
00001000
00000001
00000000
00000010
00000000
00000100
00000000
00000000
00000000
,
00010000
00000100
00001000
00000100
00000010
00000001
00000100
00000000
,
00000001
00000000
00000000
00000000
00001000
00000000
00000000
00000100
00000010
00000000
00000001
00000000
00001000
00000000
00000000
00000000
,
00000010
00001000
00000100
00001000
00010000
00100000
10000000
10000000
,
00000000
00000000
01000000
01000000
00000000
00000000
00010000
00010000
,
00000000
00000000
00000000
00000000
,
10010000
00000000
00000000
00010000
00000000
00000000
00001000
00000000
00000100
00000000
00001000
00000000
00010000
00000000
00000000
00000000
,
00001000
00000000
00000000
00001000
00000000
00000000
00000010
00000000
00000100
00000000
00000010
00000000
00000001
00000000
00000000
00000000
,
00001000
00000000
00000000
00001000
00000000
00000000
00000001
00000000
00000100
00000000
00000010
00000000
00001000
00000000
00001000
00000000
,
00100000
00000000
00100000
10000000
01000000
00000000
10000000
01000000
,
00010000
00000000
00000000
00001000
00000000
00000000
00010000
00000000
01000000
00000000
00010000
00000000
00001000
00000000
00000000
00000000
,
00000100
00000000
00000000
00000100
00000000
00000000
00001000
00000000
00000010
00000000
00001000
00000000
00000100
00000000
00000000
00000000
,
00010000
00000000
00000000
00010000
00000000
00000000
00000010
00000000
00001000
00000000
00000001
00000000
00000100
00000000
00000010
00000000
,
00001010
00001010
00010010
00010010
,
00011000
00000000
01000000
00010000
00000000
00100000
00010000
00000000
00001000
00000000
00000000
00000000
00000100
00000000
00000010
00000000
,
00001000
00000000
00000001
00000100
00000000
00000010
00001000
00000000
00010000
00000000
00000000
00000000
01000000
00000000
10000000
00000000
,
00010000
00000000
01000000
00001000
00000000
00010000
00000010
00000000
00001000
00000000
00000000
00000000
00000001
00000000
00001000
00000000
,
00000100
00000000
00001000
00000010
00000000
00010000
00001000
00000000
01000000
00000000
10000000
00000000
00010000
00000000
10000000
00000000
,
10010000
00000000
00000000
00010000
00000000
00000000
01000000
00000000
00100000
00000000
01000000
00000000
00010000
00000000
00000000
00000000
,
00011000
00000000
00000000
00001000
00000000
00000000
00000001
00000000
00000010
00000000
00000100
00000000
00001000
00000000
00000000
00000000
,
00100000
00000000
00000000
00010000
00000000
00000000
01010000
00000000
00000000
00000000
01000000
00000000
00001000
00000000
00000000
00000000
,
00010000
00000000
00000000
00000100
00000000
00000000
00001100
00000000
00000000
00000000
00001000
00000000
00000001
00000000
00000000
00000000
,
00000011
00000000
00000000
00000100
00000000
00000000
00001000
00000000
00000010
00000000
00000100
00000000
00001000
00000000
00000000
00000000
,
00110000
00000000
00000000
00100000
00000000
00000000
01000000
00000000
10000000
00000000
00010000
00000000
01000000
00000000
00000000
00000000
,
00010000
00000000
00000000
00100000
00000000
00000000
00101000
00000000
00000000
00000000
00010000
00000000
00000100
00000000
00000000
00000000
,
00001000
00000000
00000000
00000010
00000000
00000000
00010010
00000000
00000000
00000000
00010000
00000000
01000000
00000000
00000000
00000000
,
00100000
00000000
00000000
00010000
00000000
00000000
00001000
00000000
00000000
00000000
00001000
00000000
00000000
00000000
00000000
00000000
;
