#TITLE:Stargazer;
#SUBTITLE:;
#ARTIST:Takahiro Eguchi;
#TITLETRANSLIT:;
#SUBTITLETRANSLIT:;
#ARTISTTRANSLIT:;
#GENRE:;
#CREDIT:;
#BANNER:stargazer.png;
#BACKGROUND:stargazer-bg.png;
#LYRICSPATH:;
#CDTITLE:;
#MUSIC:SUPERBEAT XONiC ORIGINAL SOUNDTRACK (DISC 1) 01 STARGAZER (Opening).mp3;
#OFFSET:0.000000;
#SAMPLESTART:27.051001;
#SAMPLELENGTH:12.000000;
#SELECTABLE:YES;
#BPMS:0.000000=179.500000
,54.500000=180.000000
;
#STOPS:
;
#BGCHANGES:;
#KEYSOUNDS:;
#ATTACKS:;

//---------------dance-single - ----------------
#NOTES:
     dance-single:
     :
     Challenge:
     10:
     0.908109,1.165765,0.555825,0.555825,0.986394,812.000000,741.000000,71.000000,71.000000,0.000000,0.000000,0.908109,1.165765,0.555825,0.555825,0.986394,812.000000,741.000000,71.000000,71.000000,0.000000,0.000000:
0000
0000
1001
0100
0000
1000
0010
0000
,
0000
0000
0001
0000
0000
0000
1000
0100
0010
0000
0000
0000
0001
0000
0000
0000
,
0100
0000
0010
0001
0010
0000
0100
1000
,
0000
0000
0001
0100
1000
0000
0000
0000
0100
0000
0010
0000
0001
0010
0001
0000
,
0200
0000
0010
0000
0310
0000
0001
0000
0100
0000
0000
1000
0100
0000
0010
0000
,
0001
0000
0100
0000
1000
0000
0100
0000
0010
0000
0000
0010
0100
0000
1000
0000
,
1001
0000
0001
0001
0010
0010
0100
0100
,
1000
0000
1000
0000
0001
0010
0100
1000
0100
0010
0100
1000
0100
0010
0001
0010
,
0001
0000
1100
0000
0000
0022
0000
0000
,
0033
0000
0101
0000
0000
2020
0000
0000
,
3030
0000
0110
0000
0000
2002
0000
0000
,
3003
0000
1001
0000
0000
0220
0000
0000
,
0330
0000
0000
0000
0100
0000
1000
0001
0000
1000
0002
0000
0000
0000
0000
0000
,
0000
0000
0103
0010
0100
0000
1000
0001
0000
1000
0002
0000
0000
0000
0000
0000
,
0000
0000
0013
0100
0010
0000
0001
0100
0000
0001
0200
0000
0000
0000
0000
0000
,
0000
0000
0310
0001
0010
0001
0010
0100
1000
0100
0020
0000
0000
0000
0000
0000
,
0031
0000
0000
0000
1100
0000
0000
0101
0000
0000
2020
0000
0000
0000
0000
0000
,
3030
0000
0100
0010
0011
0000
0000
0110
0000
0000
2200
0000
0000
0000
0000
0000
,
3300
0000
0100
0010
0011
0000
0000
0000
1001
0000
0000
0000
0110
0000
0000
0000
,
1100
0000
0000
0000
0000
0000
0000
0000
0000
0000
0000
0000
0001
0000
0000
0000
0010
0000
0000
0000
0100
0000
0000
0000
1000
0000
0000
0000
0100
0000
0000
0000
0010
0000
0000
0000
0001
0000
0000
0000
0000
0000
0010
0000
0000
0100
0000
0000
,
0010
0100
1000
0100
0001
0100
1000
0100
,
0010
0001
0010
0001
0020
0000
0000
0031
0000
0000
1100
0000
0000
0110
0000
0000
,
1001
0000
1000
0000
0001
0010
0100
0010
0001
0000
1000
0100
0010
0100
1000
0000
,
0001
1000
0001
1000
0001
0000
0100
0010
0100
0010
0100
0000
1000
0100
0001
0100
,
1000
0100
0010
0000
0011
0000
0100
0000
1000
0000
0100
0000
1001
0000
0000
0100
,
0010
0000
0001
0000
1100
0000
0000
1010
0000
0000
0110
0000
0000
0101
0000
0000
,
1001
0000
1001
0000
0001
0010
0100
1000
0100
0000
1000
0100
0010
0001
0010
0000
,
1000
0010
1000
0100
1000
0000
0001
0100
0001
0010
0001
0000
1000
0001
1000
0001
,
1000
0100
0010
0001
0010
0000
0100
0000
1000
0000
0100
0000
0001
0000
0100
1000
,
0100
0000
0010
0000
0101
0000
0000
0010
0100
0000
1100
0000
0100
0010
0001
0000
,
0110
0000
0110
0000
1000
0001
1000
0001
1000
0001
0100
0010
0100
0010
0100
0010
,
0001
0010
0001
0010
0001
0010
0100
0001
0100
0001
0100
0001
0010
0100
0010
0100
,
0010
0100
0010
0001
0010
0000
0100
0000
1000
0000
0100
0000
0010
0000
0001
0010
,
0001
0010
0001
0000
0110
0000
0000
1100
0000
0000
0110
0000
0000
0010
0001
0000
,
1001
1001
0100
0100
0010
0010
1000
1000
,
0001
0000
0001
0000
1000
0001
1000
0001
0100
0010
0100
0010
0001
0010
0100
0010
,
0001
0000
0000
0000
1000
0100
0010
0100
1000
0100
0010
0001
0020
0000
0000
0000
,
0130
0000
0000
0000
0001
0100
0010
1000
0010
1000
0100
0010
0002
0000
0000
0000
,
0103
0000
0000
0000
0100
0010
0100
1000
0100
0010
0001
0010
0200
0000
0000
0000
,
0310
0000
0000
0000
0100
1000
0100
0010
0001
0010
0001
0100
2000
0000
0100
0000
,
3100
0000
0000
0000
0001
0100
0001
0010
0001
0100
0001
1000
0002
0000
0000
0000
,
0103
0000
0000
0000
0010
0100
1000
0100
0010
0001
0010
0001
0020
0000
0000
0000
,
0130
0000
1000
0100
0010
0001
1000
0100
,
0010
0000
0000
0001
0000
0000
1000
0000
0100
0000
1000
0000
0001
0000
0010
0000
0001
0000
0010
0000
0100
0000
1000
0000
,
0100
2001
3100
2100
,
3001
0000
0010
0100
2100
0000
0000
0100
3000
0000
0001
0000
0210
0000
0000
0000
,
0310
0000
0102
0000
0103
1000
0210
0000
,
1300
0000
0100
0010
0012
0000
0000
0100
0003
0000
1000
0000
0210
0000
0000
0010
,
2300
0000
0000
0000
3200
0000
0000
0010
0300
0000
0001
0000
2010
0000
0000
0000
,
3100
0000
0001
1000
0201
0000
0000
0010
0300
0000
1000
0000
0201
0000
0000
0000
,
0310
0000
1000
0100
0010
0001
1000
0100
,
0010
0000
0000
0000
0000
0000
0001
0000
0000
0000
0000
0000
1000
0000
0000
0100
0000
0000
0010
0000
0000
0001
0000
0000
1000
0000
0000
0100
0000
0000
0010
0000
0000
0001
0000
0000
1000
0000
0000
0000
0100
0000
0000
0000
0010
0000
0000
0000
,
0001
0000
1001
0000
0000
2020
0000
0000
,
3030
0000
0101
0000
0000
0220
0000
0000
,
0330
0000
0000
0000
1000
0100
1000
0100
1000
0000
0001
0010
0001
0010
0001
0000
,
1000
0010
1000
0010
1000
0000
0100
0001
0100
0001
0100
0000
1000
0001
1000
0001
,
1000
0100
0011
0000
0000
0022
0000
0000
,
0033
0000
1100
0000
0000
2200
0000
0000
,
3300
0000
0000
0000
0100
0000
1000
0001
0000
1000
0002
0000
0000
0000
0000
0000
,
0003
0000
0010
0100
1000
0100
0010
0001
0100
1000
0200
0000
0000
0000
0000
0000
,
0301
0000
0000
0000
1100
0000
0000
0110
0000
0000
0022
0000
0000
0000
0000
0000
,
0033
0000
0100
1000
1001
0000
0000
0110
0000
0000
2002
0000
0000
0000
0000
0000
,
3003
0000
0100
0010
0011
0000
0000
0000
0110
0000
0000
0000
1001
0000
0000
0000
,
0110
0000
0000
1000
0100
0010
0100
1000
0100
0001
0100
1000
,
0010
0001
0010
1000
0100
0010
0001
1000
0100
0010
0001
0010
,
1000
0100
0010
0001
0000
0000
0000
0000
0000
0000
0000
0000
,
0000
0000
0000
0000
1000
0100
0010
0100
1000
0100
0020
0000
0000
0000
0000
0000
,
0030
0000
0000
0001
0010
0100
0010
0001
0010
0100
0020
0000
0000
0000
0000
0000
,
0030
0000
0000
0000
1000
0010
1000
0001
0100
0001
0020
0000
0000
0000
0000
0000
,
0030
0000
0000
0010
0100
1000
0100
0010
0001
0010
2000
0000
0000
0000
0000
0000
,
3000
0000
0000
0000
0001
0010
0100
1000
0100
0010
0002
0000
0010
0000
0000
0000
,
0013
0000
0000
1000
0100
0010
0100
0010
0001
0010
0200
0000
0010
0000
0000
0000
,
0310
0000
0000
0000
0001
0100
0010
1000
0010
0100
0020
0000
0001
0000
0000
0000
,
0031
0000
0000
0000
0000
0000
0000
0000
0000
1000
0000
0000
0100
0000
0000
0000
0010
0000
0000
0000
0001
0000
0000
0000
0100
0000
0000
0000
0010
0000
0000
0000
0001
0000
0000
0000
2000
0000
0000
0000
0000
0000
0000
0000
0000
0000
0000
0000
,
3100
0000
0000
0000
0010
0001
0010
0100
0010
0100
2000
0000
0100
0000
0000
0000
,
3100
0000
0000
0001
0010
0100
1000
0100
0010
0001
0200
0000
0010
0000
0000
0000
,
0310
0000
0000
0000
1000
0001
1000
0001
0100
0010
0200
0000
0001
0000
0000
0000
,
0301
0000
0000
0100
1000
0100
1000
0100
0010
0001
0020
0000
0100
0000
0100
0000
,
0130
0000
0000
0000
1000
0100
0001
0100
0001
0100
2000
0000
0010
0000
0000
0000
,
3010
0000
0000
0100
0010
0100
1000
0100
0010
0100
0002
0000
0100
0000
0000
0000
,
0103
0000
1000
0100
0010
0001
1000
0001
,
1000
0000
0000
0000
0000
0000
0100
0000
0000
0010
0000
0000
0001
0000
0000
0010
0000
0000
0100
0000
0000
1000
0000
0000
0100
0000
0000
1000
0000
0000
0100
0000
0000
0010
0000
0000
0001
0000
0000
0000
0100
0000
0000
0000
1000
0000
0000
0000
,
0100
0001
2001
0100
,
3100
0000
0000
0010
0001
0100
0001
0100
1000
0100
0020
0000
0001
0000
0000
0000
,
0031
0000
0000
0000
1000
0100
1000
0100
0010
0100
0020
0000
0001
0000
0000
0000
,
0031
0000
0000
1000
0010
1000
0010
0100
0001
0100
0002
0000
0100
0000
0100
0000
,
1003
0000
0000
0000
0100
0010
0100
0010
0001
0010
0200
0000
1000
0000
1000
0000
,
1300
0000
0000
0010
0100
1000
0100
0010
0100
0010
0002
0000
1000
0000
1000
0000
,
0103
0000
1000
1000
0100
0100
0010
0010
,
0001
0000
0000
0000
0000
0000
0001
0000
0000
0000
0000
0000
1000
0000
0000
0100
0000
0000
0010
0000
0000
0001
0000
0000
1000
0000
0000
0100
0000
0000
0010
0000
0000
0001
0000
0000
0010
0000
0000
0000
0100
0000
0000
0000
0010
0000
0000
0000
,
0001
1001
0000
0000
;

//---------------dance-single - ----------------
#NOTES:
     dance-single:
     :
     Hard:
     10:
     0.712396,0.883155,0.461883,0.516683,0.512768,637.000000,578.000000,59.000000,66.000000,0.000000,0.000000,0.712396,0.883155,0.461883,0.516683,0.512768,637.000000,578.000000,59.000000,66.000000,0.000000,0.000000:
0000
0000
1000
0100
0010
0000
0001
0000
,
0000
0000
0100
0000
0000
0000
1000
0100
1000
0000
0000
0000
0100
0000
0000
0000
,
0010
0000
0001
0010
0100
0000
1000
0100
,
0000
0000
0001
0010
0001
0000
0000
0000
0100
0000
1000
0000
0100
0010
0001
0000
,
2000
0000
3100
0010
0001
0000
0100
0000
,
0000
0000
1000
0000
0000
0000
0100
0010
0001
0000
0000
0000
0010
0000
0000
0000
,
0100
0000
1000
0100
1000
0100
0010
0001
,
0010
0000
0001
0000
1000
0100
1000
0100
0010
0001
0010
0001
0010
0100
1000
0100
,
0010
0000
0011
0000
0000
2200
0000
0000
,
3300
0000
0110
0000
0000
2002
0000
0000
,
3003
0000
0101
0000
0000
2020
0000
0000
,
3030
0000
1100
0000
0000
0022
0000
0000
,
0033
0000
0000
0000
1000
0000
0100
0010
0000
0100
0020
0000
0000
0000
0000
0000
,
0000
0000
0130
1000
0100
0000
0010
0001
0000
0010
0002
0000
0000
0000
0000
0000
,
0000
0000
0103
1000
0100
0000
1000
0100
0000
0010
0002
0000
0000
0000
0000
0000
,
0000
0000
0013
0100
0010
0100
0010
0100
0010
0100
0020
0000
0000
0000
0000
0000
,
0031
0000
0000
0000
1100
0000
0000
0110
0000
0000
2002
0000
0000
0000
0000
0000
,
3003
0000
0100
0010
0001
0000
0000
1010
0000
0000
0220
0000
0000
0000
0000
0000
,
0330
0000
1000
0100
0010
0000
0000
0000
0011
0000
0000
0000
0010
0000
0000
0000
,
0110
0000
0000
0000
0000
0000
0000
0000
0000
0000
0000
0000
1000
0000
0000
0000
0100
0000
0000
0000
1000
0000
0000
0000
0100
0000
0000
0000
0010
0000
0000
0000
0001
0000
0000
0000
0010
0000
0000
0000
0000
0000
1000
0000
0000
0100
0000
0000
,
1000
0000
0100
0000
0010
0000
0001
0000
0010
0000
0100
0000
1000
0000
0000
0100
,
0010
0000
0001
0000
0010
0000
0000
0010
0000
0000
0100
0000
0000
0100
0000
0000
,
1000
1000
0001
0010
0100
0001
0010
0100
,
1000
0100
0010
1000
0100
0010
1000
0100
,
0010
0000
0001
0000
1000
0000
0100
0000
1000
0000
0010
0000
0001
0000
0000
0010
,
1000
0000
0100
0000
0010
0000
0000
0001
0000
0000
0010
0000
0000
0100
0000
0000
,
0010
0010
1000
0100
1000
0001
0010
0001
,
1000
0100
0001
1000
0010
0001
1000
0100
,
0010
0000
0001
0000
0010
0000
1000
0000
0100
0000
0010
0000
0001
0000
0000
0010
,
0100
0000
1000
0000
0011
0000
0000
0110
0000
0000
1001
0000
0000
0110
0000
0000
,
1000
1000
0001
0010
0011
1000
0100
1100
,
0100
0010
0011
0100
0001
1001
1000
0100
,
0010
0000
0001
0000
0100
0000
1000
0000
0100
0000
0001
0000
0100
0000
0000
1000
,
0100
0000
0010
0000
0110
0000
0000
0110
0000
0000
1001
0000
0000
1001
0000
0000
,
0100
0100
0001
0010
0100
1000
0100
0001
,
0100
0000
1000
0000
1000
0100
1000
0100
0010
0001
0010
0001
0010
0000
0100
0000
,
1001
0000
1000
0100
0010
0002
0000
0000
,
0013
0000
0100
1000
0100
0000
0010
0000
0100
0000
2000
0000
0000
0000
0000
0000
,
3100
0000
0010
0100
0010
0200
0000
0000
,
0310
0000
0001
0010
0100
0000
1000
0100
0010
0001
0020
0000
0000
0000
0000
0000
,
0130
0000
0100
0001
0100
0020
0000
0000
,
0130
0000
1000
0100
0010
0000
0001
0000
0100
0000
2000
0000
0000
0000
0000
0000
,
3100
0000
0001
0001
0010
0010
0100
0100
,
1000
0000
0000
1000
0000
0000
0001
0000
0010
0000
0001
0000
0010
0000
0100
0000
1000
0000
0100
0000
0010
0000
0100
0000
,
1000
0201
0310
2100
,
3010
2001
3001
2001
,
3100
0201
1300
1020
,
0031
0000
0000
0000
2100
0000
0000
0010
0000
0000
3100
0000
0102
0000
0000
0000
,
0013
0000
0000
0000
2001
0000
0000
0100
0000
0000
3010
0000
0002
0000
0000
0000
,
0003
0000
0010
0100
0020
0000
0000
0100
0000
0000
1030
0000
2001
0000
0000
0000
,
3100
0000
1000
1000
0100
0100
0010
0010
,
0001
0000
0000
0000
0000
0000
0001
0000
0000
0000
0000
0000
1000
0000
0000
0001
0000
0000
1000
0000
0000
0001
0000
0000
0100
0000
0000
0010
0000
0000
0100
0000
0000
0010
0000
0000
1000
0000
0000
0000
0100
0000
0000
0000
0010
0000
0000
0000
,
0001
0000
1100
0000
0000
0220
0000
0000
,
0330
0000
1100
0000
0000
0202
0000
0000
,
0303
0000
0011
0000
0000
0202
0000
0000
,
0303
0000
1001
0000
0000
0220
0000
0000
,
0330
0000
1010
0000
0000
0220
0000
0000
,
0330
0000
1100
0000
0000
2020
0000
0000
,
3030
0000
0001
0010
0001
0000
0010
0100
0000
0010
0002
0000
0000
0000
0000
0000
,
0000
0000
0013
0100
0010
0100
0010
0100
0010
0100
0020
0000
0000
0000
0000
0000
,
0031
0000
0000
0000
1010
0000
0000
1100
0000
0000
2002
0000
0000
0000
0000
0000
,
3003
0000
0100
0010
0001
0000
0000
0110
0000
0000
2200
0000
0000
0000
0000
0000
,
3300
0000
0010
0001
0010
0000
0000
0000
0110
0000
0000
0000
1000
0000
0000
0000
,
1100
0000
0000
0001
0010
0001
0010
0100
1000
0100
0010
0100
,
1000
0100
0010
0100
0010
0001
0010
0100
1000
0100
0010
0001
,
0010
0100
0010
1000
0000
0000
0000
0000
0000
0000
0000
0000
,
0000
1000
1000
1000
,
1000
0100
0100
0100
,
0100
0010
0010
0010
,
0010
0001
0001
0001
,
0001
1000
0100
0001
,
0001
0010
0100
1000
,
1000
0001
0010
0001
,
0100
0000
0000
1000
0100
0010
0001
0010
0100
2000
0000
0000
,
3000
0000
0000
0000
0100
0010
0001
0000
0010
0000
2000
0000
0000
0000
0000
0000
,
3100
0000
0100
0010
0001
0000
0100
1000
0100
0000
0020
0000
0000
0000
0000
0000
,
0031
0000
0000
0000
1000
0100
1000
0000
0010
0000
0002
0000
0000
0000
0000
0000
,
0013
0000
0100
1000
0100
0000
0010
0001
0100
0000
2000
0000
0000
0000
0000
0000
,
3100
0000
0000
0000
0001
0010
0100
0000
0010
0000
0002
0000
0000
0000
0000
0000
,
1003
0000
0100
0010
0100
0000
0010
0001
0010
0000
0200
0000
0000
0000
0000
0000
,
0310
0000
0100
0100
0010
0010
0001
0001
,
1000
0000
0000
0000
0000
0000
1000
0000
0000
0000
0000
0000
0001
0000
0000
0010
0000
0000
0001
0000
0000
0010
0000
0000
0100
0000
0000
1000
0000
0000
0100
0000
0000
1000
0000
0000
0100
0000
0000
0000
0010
0000
0000
0000
0001
0000
0000
0000
,
0010
0100
2001
0001
,
3100
0000
0010
0001
0010
0000
0100
1000
0100
0010
0002
0000
0010
0000
0000
0000
,
0013
0000
0000
0000
1000
0100
1000
0000
0100
0000
0020
0000
0001
0000
0000
0000
,
0031
0000
0100
1000
0010
0000
0100
0010
0001
0010
2000
0000
0100
0000
0000
0000
,
3100
0000
0000
0000
1000
0010
1000
0000
0100
0000
0020
0000
0100
0000
0000
0000
,
0130
0000
0001
0010
0100
0000
1000
0100
0010
0001
0020
0000
0100
0000
0000
0000
,
0130
0000
0100
0100
0010
0010
0001
0001
,
1000
0000
0000
0000
0000
0000
1000
0000
0000
0000
0000
0000
0100
0000
0000
0010
0000
0000
0100
0000
0000
0010
0000
0000
1000
0000
0000
0001
0000
0000
1000
0000
0000
0001
0000
0000
0010
0000
0000
0000
0100
0000
0000
0000
1000
0000
0000
0000
,
0100
1001
0000
0000
;

//---------------dance-single - ----------------
#NOTES:
     dance-single:
     :
     Medium:
     8:
     0.564772,0.706524,0.250513,0.516683,0.230941,505.000000,473.000000,32.000000,66.000000,0.000000,0.000000,0.564772,0.706524,0.250513,0.516683,0.230941,505.000000,473.000000,32.000000,66.000000,0.000000,0.000000:
0000
0000
1000
0100
0000
0001
0010
0000
,
0000
1000
0000
0010
0001
0000
0010
0000
,
0100
0000
1000
0100
0010
0000
0001
0010
,
0000
0000
1000
0100
1000
0000
0000
0000
0010
0000
0001
0000
0010
0100
0010
0000
,
2000
0000
0000
0000
3100
0000
0010
0000
0001
0000
0000
1000
0100
0000
0010
0000
,
0001
0000
0000
0000
0100
0000
0000
0000
1000
0000
0000
0100
0010
0000
0100
0000
,
0010
0000
0001
0010
0001
0010
0100
1000
,
0100
1000
0100
0100
0010
0010
0001
0001
,
1001
0000
1100
0000
0000
0202
0000
0000
,
0303
0000
1010
0000
0000
0220
0000
0000
,
0330
0000
0110
0000
0000
0202
0000
0000
,
0303
0000
0011
0000
0000
2200
0000
0000
,
3300
0000
0000
0000
0001
0000
1000
0001
0000
1000
0002
0000
0000
0000
0000
0000
,
0000
0000
0013
0000
0100
0000
1000
0001
0000
1000
0002
0000
0000
0000
0000
0000
,
0000
0000
0103
0000
1000
0000
0100
0010
0000
0100
0020
0000
0000
0000
0000
0000
,
0000
0031
0010
0100
0010
0002
0000
0000
,
0013
0000
0000
0000
0100
0000
0000
1000
0000
0000
0200
0000
0000
0000
0000
0000
,
0000
0000
0301
0000
0010
0000
0000
0100
0000
0000
2000
0000
0000
0000
0000
0000
,
0000
3100
0001
0000
0011
0000
0001
0000
,
1001
0000
0000
1000
0001
1000
0001
1000
0001
2000
0000
0000
,
3000
0000
0000
0000
0001
0000
0010
0000
0100
0000
1000
0000
0100
0000
0000
0010
,
0001
0000
0010
0000
0100
0000
0000
0100
0000
0000
0010
0000
0000
0010
0000
0000
,
0001
0001
1000
0100
0000
0010
0001
0000
,
0100
1000
0000
0100
0010
0000
0001
0010
,
0100
0000
1000
0000
0001
0000
0010
0000
0001
0000
0010
0000
0100
0000
0000
1000
,
0100
0000
0010
0000
0001
0000
0000
0001
0000
0000
0010
0000
0000
0010
0000
0000
,
0100
0100
0010
0001
0000
0001
0010
0000
,
0100
0010
0000
0001
0010
0000
1000
0100
,
1000
0000
0100
0000
0010
0000
0001
0000
0010
0000
0100
0000
1000
0000
0000
0100
,
0000
0000
0010
0000
0001
0000
0000
0001
0000
0000
1000
0000
0000
1000
0000
0000
,
0100
0100
0001
0010
0001
0010
0100
0010
,
0100
1000
0100
0010
0100
0010
0001
0010
,
0100
0000
1000
0000
0100
0000
0010
0000
0100
0000
0010
0000
0100
0000
0000
1000
,
0000
0000
0100
0000
0010
0000
0000
0100
0000
0000
0010
0000
0000
0001
0000
0000
,
0010
0010
0001
0010
0001
0010
0100
1000
,
0100
1000
0100
0100
0010
0010
0100
0100
,
1001
0000
1000
0100
0010
0002
0000
0000
,
0013
0000
0000
0100
1000
0000
0100
0000
1000
0000
0200
0000
0000
0000
0000
0000
,
0310
0000
0001
0010
0100
2000
0000
0000
,
3100
0010
0100
0010
0001
0020
0000
0000
,
0130
0000
0001
0100
0010
2000
0000
0000
,
3100
0000
0000
0010
0001
0000
0010
0000
0100
0000
0020
0000
0000
0000
0000
0000
,
0031
0000
1000
0100
1000
0200
0000
0000
,
0310
0000
0000
0000
0000
0000
0000
0000
0000
0100
0000
0000
1000
0000
0000
0000
0100
0000
0000
0000
1000
0000
0000
0000
0100
0000
0000
0000
1000
0000
0000
0000
0100
0000
0000
0000
2000
0000
0000
0000
0000
0000
0000
0000
0000
0000
0000
0000
,
3100
0002
0013
0200
,
1300
0200
0001
0001
,
0301
2000
3010
0200
,
0301
0002
0100
0100
,
0103
2001
3100
2010
,
3100
2001
0001
0001
,
3001
0000
1000
1000
0100
0100
0010
0010
,
0001
0000
0000
0001
0000
0000
2000
0000
0000
0000
0000
0000
0000
0000
0000
0000
0000
0000
3100
0000
0010
0000
0001
0000
,
0010
0000
1100
0000
0000
0202
0000
0000
,
0303
0000
0011
0000
0000
0220
0000
0000
,
0330
0000
1001
0000
0000
0220
0000
0000
,
0330
0000
1010
0000
0000
0022
0000
0000
,
0033
0000
1001
0000
0000
2200
0000
0000
,
3300
0000
0011
0000
0000
2020
0000
0000
,
3030
0000
0000
0000
0001
0000
0100
0010
0000
0100
0020
0000
0000
0000
0000
0000
,
0030
1000
0100
0010
0100
0002
0000
0000
,
0013
0000
0000
0000
0100
0000
0000
1000
0000
0000
0200
0000
0000
0000
0000
0000
,
0000
0000
0301
0000
0100
0000
0000
1000
0000
0000
0020
0000
0000
0000
0000
0000
,
0000
0130
0010
0000
0011
0000
0010
0000
,
0110
0000
0000
1000
0001
1000
0001
0000
0000
0100
0010
0100
,
0010
0000
0000
1000
0100
0010
0001
0000
0000
1000
0100
1000
,
0100
1000
0100
1000
0000
0000
0000
0000
0000
0000
0000
0000
,
0000
0001
0001
0001
,
0001
0010
0010
0010
,
0010
0100
0100
0100
,
0100
1000
1000
1000
,
1000
0100
0010
0001
,
0001
0010
0100
1000
,
1000
0001
0100
1000
,
1000
0100
0010
2002
,
3003
0000
1000
0100
0010
0002
0000
0000
,
0013
0000
0000
0100
1000
0000
0100
0000
0010
0000
0200
0000
0000
0000
0000
0000
,
0310
0000
0001
0100
0001
2000
0000
0000
,
3100
0010
0100
0010
0100
2000
0000
0000
,
3100
0000
0010
0100
0010
0002
0000
0000
,
0013
0000
0000
0100
1000
0000
0100
0000
0001
0000
0020
0000
0000
0000
0000
0000
,
0130
0000
1000
0100
0010
0200
0000
0000
,
0310
0001
0010
0100
0010
0002
0000
0000
,
0103
0000
2001
0100
,
3100
0000
0000
0010
0001
0000
0010
0000
0001
0000
0020
0000
0000
0000
0000
0000
,
0130
0000
1000
0100
1000
0200
0000
0000
,
0310
0001
0010
0100
0010
0002
0000
0000
,
0013
0000
1000
0100
1000
0020
0000
0000
,
0031
0000
0000
0010
0100
0000
0010
0000
0001
0000
0020
0000
0000
0000
0000
0000
,
0031
0000
1000
1000
0100
0100
0010
0010
,
0001
0000
0000
0000
0000
0000
0001
0000
0000
0000
0000
0000
1000
0000
0000
0100
0000
0000
1000
0000
0000
0000
0000
0000
0100
0000
0000
0010
0000
0000
0100
0000
0000
0000
0000
0000
0001
0000
0000
0000
0010
0000
0000
0000
0100
0000
0000
0000
,
1000
1001
0000
0000
;

//---------------dance-single - ----------------
#NOTES:
     dance-single:
     :
     Easy:
     6:
     0.414912,0.529893,0.211370,0.610625,0.070457,371.000000,344.000000,27.000000,78.000000,0.000000,0.000000,0.414912,0.529893,0.211370,0.610625,0.070457,371.000000,344.000000,27.000000,78.000000,0.000000,0.000000:
// measure 0
0000
0000
0001
0010
0000
0000
0100
0000
,  // measure 1
0000
1000
0000
0100
0010
0000
0001
0000
,  // measure 2
0001
0000
1000
0100
1000
0000
0100
0010
,  // measure 3
0000
0001
0001
0000
0010
0100
1000
0000
,  // measure 4
1000
0000
0001
0000
0001
0000
0010
0100
,  // measure 5
1000
0000
1000
0000
1000
0000
0100
0010
,  // measure 6
0001
1000
0100
0010
,  // measure 7
0001
2000
0000
0000
,  // measure 8
3100
0000
0001
0000
0000
0200
0000
0000
,  // measure 9
0000
0300
1000
0000
0000
0200
0000
0000
,  // measure 10
0300
0000
0010
0000
0000
0002
0000
0000
,  // measure 11
0003
0000
1000
0000
0000
2000
0000
0000
,  // measure 12
3000
0000
0100
0000
0000
0020
0000
0000
,  // measure 13
0030
0000
0100
0000
0000
2000
0000
0000
,  // measure 14
3000
0000
0100
0000
0000
0002
0000
0000
,  // measure 15
0003
0000
1000
0100
0010
0002
0000
0000
,  // measure 16
0013
0000
0000
0000
1000
0000
0000
1000
0000
0000
2000
0000
0000
0000
0000
0000
,  // measure 17
0000
0000
3000
0000
0001
0000
0000
0001
0000
0000
0002
0000
0000
0000
0000
0000
,  // measure 18
0000
0003
1000
0000
1000
0000
0001
0000
,  // measure 19
0001
1000
0100
0002
,  // measure 20
0013
1000
1100
0001
,  // measure 21
0011
0000
0000
0000
1000
0000
0000
1000
0000
0000
0100
0000
0000
0010
0000
0000
,  // measure 22
0002
0000
2003
0000
3000
0200
0000
0300
,  // measure 23
0020
0000
0030
0002
0000
0003
1000
0000
,  // measure 24
1000
0100
0110
0001
,  // measure 25
1001
0000
0000
0000
0100
0000
0000
0100
0000
0000
0010
0000
0000
0010
0000
0000
,  // measure 26
0002
0000
0203
0000
0300
2000
0000
3000
,  // measure 27
0200
0000
0300
0020
0000
0030
0200
0000
,  // measure 28
0310
0001
0011
0010
,  // measure 29
0110
0000
0000
0000
1000
0000
0000
1000
0000
0000
0100
0000
0000
0010
0000
0000
,  // measure 30
0002
0000
1003
0100
0000
0010
0001
0000
,  // measure 31
0010
0100
0000
1000
0100
0000
0001
0000
,  // measure 32
0001
0100
1100
0100
,  // measure 33
0110
0000
0000
0000
0001
0000
0000
0001
0000
0000
0010
0000
0000
0100
0000
0000
,  // measure 34
2000
3100
0010
0001
,  // measure 35
0010
2000
0000
0000
,  // measure 36
3100
0000
0001
0010
0001
0020
0000
0000
,  // measure 37
0030
0000
1000
0100
0010
0002
0000
0000
,  // measure 38
0003
0000
0100
1000
0100
0020
0000
0000
,  // measure 39
0030
0000
1000
0100
1000
0200
0000
0000
,  // measure 40
0300
0000
0001
0100
1000
2000
0000
0000
,  // measure 41
3000
0000
0100
0010
0001
0002
0000
0000
,  // measure 42
0003
0000
1000
0100
1000
0020
0000
0000
,  // measure 43
0030
0001
0010
0000
0100
0000
2000
0000
,  // measure 44
3000
0200
0310
0002
,  // measure 45
0103
2000
0100
0100
,  // measure 46
3100
0002
0103
0200
,  // measure 47
1300
0002
0010
0100
,  // measure 48
1003
2000
3100
0020
,  // measure 49
0031
2000
0100
0010
,  // measure 50
3001
0000
1000
0100
1000
0100
0010
0001
,  // measure 51
0010
0000
0000
0001
0000
0000
2000
0000
0000
0000
0000
0000
0000
0000
0000
0000
0000
0000
3001
0000
0010
0000
0100
0000
,  // measure 52
1000
0000
0011
0000
0000
0202
0000
0000
,  // measure 53
0303
0000
0110
0000
0000
2002
0000
0000
,  // measure 54
3003
0000
1100
0000
0000
2020
0000
0000
,  // measure 55
3030
0000
0011
0000
0000
0202
0000
0000
,  // measure 56
0303
0000
0011
0000
0000
2002
0000
0000
,  // measure 57
3003
0000
0110
0000
0000
2200
0000
0000
,  // measure 58
3300
0000
0101
0000
0000
0022
0000
0000
,  // measure 59
0033
0000
1000
0100
0010
0002
0000
0000
,  // measure 60
0013
0000
0000
0000
1000
0000
0000
0100
0000
0000
2000
0000
0000
0000
0000
0000
,  // measure 61
0000
0000
3000
0000
0001
0000
0000
0100
0000
0000
0020
0000
0000
0000
0000
0000
,  // measure 62
0000
0030
0100
0000
0110
0000
1000
0000
,  // measure 63
1001
1000
0100
0010
,  // measure 64
0001
0010
0100
1000
,  // measure 65
0001
0010
0100
1000
0000
0000
0000
0000
0000
0000
0000
0000
,  // measure 66
0000
1000
1000
1000
,  // measure 67
1000
0100
0100
0100
,  // measure 68
0100
0010
0010
0010
,  // measure 69
0010
0001
0001
0001
,  // measure 70
0001
1000
0010
0001
,  // measure 71
0001
0010
0100
1000
,  // measure 72
1000
0100
0010
0100
,  // measure 73
1000
0100
0010
2002
,  // measure 74
3003
0000
1000
0100
0010
0002
0000
0000
,  // measure 75
0003
0000
1000
0100
1000
0200
0000
0000
,  // measure 76
0300
0000
0010
0100
0010
0002
0000
0000
,  // measure 77
0003
0100
1000
0100
0010
0020
0000
0000
,  // measure 78
0030
0000
1000
0001
1000
0002
0000
0000
,  // measure 79
0003
0000
0100
1000
0100
0020
0000
0000
,  // measure 80
0030
0000
0100
0010
0100
2000
0000
0000
,  // measure 81
3000
0100
0010
0000
0001
0000
0002
0000
,  // measure 82
1003
0000
2001
0100
,  // measure 83
3100
0000
0010
0001
0010
0200
0000
0000
,  // measure 84
1300
0000
0100
0010
0001
0020
0000
0000
,  // measure 85
0130
0000
0100
0010
0001
0002
0000
0000
,  // measure 86
1003
0000
0100
1000
0100
0020
0000
0000
,  // measure 87
0031
0000
0010
0100
0010
0200
0000
0000
,  // measure 88
0310
0001
0010
0100
,  // measure 89
1000
0000
0000
0200
0000
0000
0300
0000
0000
0001
0010
0100
,  // measure 90
1000
1001
0000
0000
;

//---------------dance-single - ----------------
#NOTES:
     dance-single:
     :
     Beginner:
     5:
     0.287419,0.353262,0.086114,0.508854,0.000000,257.000000,246.000000,11.000000,65.000000,0.000000,0.000000,0.287419,0.353262,0.086114,0.508854,0.000000,257.000000,246.000000,11.000000,65.000000,0.000000,0.000000:
0000
1000
0000
0100
,
0000
0010
0000
0000
0001
0000
0010
0000
,
0100
1000
0000
0100
,
0000
0010
0001
0000
0010
0000
0100
0000
,
1000
0100
0000
0010
,
0000
0001
0000
0100
,
1000
0001
0010
0001
,
0010
2000
0000
0000
,
3100
0000
0001
0000
0000
0200
0000
0000
,
0300
0000
1000
0000
0000
0200
0000
0000
,
0300
0000
0010
0000
0000
0002
0000
0000
,
0003
0000
0100
0000
0000
2000
0000
0000
,
3000
0000
0100
0000
0000
0020
0000
0000
,
0030
0000
0001
0000
0000
0200
0000
0000
,
0300
0000
1000
0000
0000
0200
0000
0000
,
0300
0002
0000
0000
,
0103
1100
0000
0000
,
0000
1001
0000
0000
,
0000
0011
0000
1100
,
0000
0001
0010
0002
,
0003
1000
0100
1000
,
0100
0000
0010
0000
0000
0001
0000
0000
,
0100
0000
1000
0000
0000
0100
0000
0000
,
0010
0000
0000
0001
0000
0000
1000
0000
,
1000
0001
0100
0001
,
0100
0000
1000
0000
0000
0100
0000
0000
,
1000
0000
0001
0000
0000
0100
0000
0000
,
1000
0000
0000
0100
0000
0000
0001
0000
,
0001
1000
0000
0100
,
0000
0001
0010
0100
,
1000
0000
0002
0000
0003
0020
0000
0030
,
0200
0000
0300
2000
0000
3000
0001
0000
,
0001
0100
0000
1000
,
0000
0001
0010
0100
,
0100
2000
3100
0020
,
0031
2000
0000
0000
,
3100
0001
0010
0200
,
0300
0001
0010
0002
,
0003
0100
0010
0200
,
0300
1000
0100
0020
,
0030
0001
0010
2000
,
3000
1000
0010
0002
,
0003
1000
0100
0010
,
0100
2000
0000
0100
,
3100
0002
0000
0013
,
0000
2000
0100
3100
,
0000
0002
0000
0103
,
0000
1000
0100
0020
,
0031
2000
0000
3100
,
0000
0002
0010
0013
,
0000
1000
0100
1000
,
0100
0020
0000
0000
,
0031
0000
1000
0000
0000
2000
0000
0000
,
3000
0000
0100
0000
0000
0200
0000
0000
,
0300
0000
0010
0000
0000
0020
0000
0000
,
0030
0000
0001
0000
0000
0002
0000
0000
,
0003
0000
1000
0000
0000
2000
0000
0000
,
3000
0000
0010
0000
0000
0020
0000
0000
,
0030
0000
1000
0000
0000
0002
0000
0000
,
0003
0000
0001
0000
0000
2000
0000
0000
,
3100
1001
0000
0000
,
0000
0110
0000
0000
,
0000
1100
0000
0011
,
0000
1000
0100
0010
,
0100
1000
1000
0001
,
0001
1001
0000
0000
,
0000
2000
0000
0000
,
3000
0200
0000
0000
,
0300
0020
0000
0000
,
0030
0002
0000
0000
,
0003
2000
3000
0200
,
0300
0002
0003
0200
,
0300
2000
3000
0200
,
0300
0001
0010
2000
,
3100
0001
0010
0200
,
1300
0001
0010
2000
,
3100
0010
0001
0020
,
0130
1000
0100
0002
,
0003
1000
0100
2000
,
3100
0010
0001
0020
,
0130
1000
0001
2000
,
3100
0002
0000
0000
,
0013
0000
2001
0100
,
3100
0001
0010
0002
,
0013
0100
1000
0200
,
0310
0001
0100
2000
,
3000
0001
1000
0002
,
0013
1000
0001
2000
,
3100
0001
0001
0010
,
0010
0200
0000
0000
,
1300
1001
0000
0000
;
