#TITLE:[ROUND 1] - Kasaihochiki kanshi-yaku o metsuke -Silencer-;
#SUBTITLE:;
#ARTIST:DJ TECHNORCH;
#TITLETRANSLIT:;
#SUBTITLETRANSLIT:;
#ARTISTTRANSLIT:;
#GENRE:;
#CREDIT:;
#MUSIC:[ROUND 1] - Kasaihochiki kanshi-yaku o metsuke -Silencer-.ogg;
#BANNER:;
#BACKGROUND:;
#CDTITLE:;
#SAMPLESTART:44.289;
#SAMPLELENGTH:22.857;
#SELECTABLE:YES;
#OFFSET:-0.003;
#BPMS:0.000=168.000
,286.000=336.000
,288.000=168.000
;
#STOPS:286.000=0.089
,286.500=0.089
,287.000=0.089
,287.500=0.089
;
#BGCHANGES:;
#FGCHANGES:;

//--------------- dance-single - P. Clark [Z-I-V Battle Royale 2019 Round 1] ----------------
#NOTES:
     dance-single:
     P. Clark [Z-I-V Battle Royale 2019 Round 1]:
     Challenge:
     11:
     0,0,0,0,0:
0000
0000
0000
0000
,
0000
0000
0000
0000
,
0000
0000
0000
0000
,
0000
0000
0000
0000
,
0000
0000
0000
0000
,
0000
0000
0000
0000
,
0000
0000
0000
0000
,
0000
0000
0000
0000
,
0101
0101
0110
0110
,
1010
1010
1100
1100
,
0110
0110
0011
0011
,
1001
0000
0000
0000
1001
0000
0000
0000
0001
0100
0010
0000
1000
0000
1000
0000
,
1100
1100
0110
0110
,
0011
0011
1001
1001
,
1010
1010
0110
0110
,
0101
0000
0000
0000
0101
0000
0000
0000
0100
0010
1000
0000
0001
0000
0001
0000
,
0010
0000
0000
0100
1000
0000
0001
0000
0100
0000
0000
0010
0100
0000
0001
0000
,
1000
0000
0000
0100
1000
0000
0010
0000
0100
0001
0100
0001
0100
0000
0010
0000
,
1000
0000
0000
0100
0010
0000
0001
0000
1000
0000
0000
0010
0100
0000
0010
0000
,
1000
0100
0000
0010
0001
0000
0100
0000
0010
1000
0010
1000
0010
0000
0100
0000
,
0001
0000
0000
0010
0001
0000
1000
0000
0100
0000
0000
0010
0100
0000
1000
0000
,
0001
0000
0000
0100
0001
0000
0010
0000
0100
1000
0100
1000
0100
0000
0010
0000
,
0001
0000
0000
0100
0010
0000
1000
0000
0001
0000
0000
0010
0100
0000
0010
0000
,
0001
0100
0000
0010
1000
0000
0100
0000
0010
0001
0010
0001
0010
0000
0100
0000
,
1000
0000
0000
0010
1000
0000
0001
0000
0100
0000
0000
0010
0100
0000
0001
0000
,
1000
0000
0000
0100
1000
0000
0010
0000
0100
0001
0100
0001
0100
0000
0010
0000
,
1000
0000
0000
0100
0010
0000
0001
0000
1000
0000
0000
0010
0100
0000
0010
0000
,
1000
0100
0000
0010
0001
0000
0100
0000
0010
1000
0010
1000
0010
0000
0100
0000
,
0001
0000
0000
0010
0001
0000
1000
0000
0100
0000
0000
0010
0100
0000
1000
0000
,
0001
0000
0000
0100
0001
0000
0010
0000
0100
1000
0100
1000
0100
0000
0010
0000
,
0001
0000
0000
0100
0010
0000
1000
0000
0001
0000
0000
0010
0100
0000
0010
0000
,
0000
0000
0000
0000
0000
0000
0000
0000
0001
1000
0001
0000
1001
0000
1001
0000
,
0101
1010
1100
0011
,
0101
1010
1001
0011
,
0110
0000
1001
1000
1010
0000
0110
0000
,
0101
0000
0000
0000
1001
0000
0000
0000
1000
0001
1000
0000
1001
0000
1001
0000
,
1010
0110
0101
1001
,
1100
0110
1001
0101
,
0110
0000
1010
1000
1100
0000
0110
0000
,
0011
0000
0000
0000
1001
0000
0000
0000
1000
0001
1000
0000
1001
0000
1001
0000
,
0011
1100
1010
0101
,
0011
1100
1001
0101
,
0110
0000
1001
1000
1100
0000
0110
0000
,
0011
0000
0000
0000
1001
0000
0000
0000
1000
0001
1000
0000
1001
0000
1001
0000
,
1100
0110
0011
1001
,
1010
0110
1001
0011
,
0110
0000
1100
1000
1010
0000
0110
0000
,
0101
0000
0000
0000
1001
0000
0000
0000
1000
0001
1000
0000
1001
0000
1001
0000
,
0001
0000
0000
0010
1000
0000
0010
0000
0001
0000
0000
0100
1000
0000
0001
0000
,
0010
0000
0000
1000
0100
0000
0001
0000
1000
0001
1000
0001
1000
0000
0010
0000
,
0100
0000
0000
1000
0010
0000
0001
0000
1000
0000
0000
0100
0010
0000
1000
0000
,
0100
0000
0000
0001
0100
0000
0010
0000
1000
0001
1000
0001
1000
0000
0010
0000
,
0100
0000
0000
1000
0010
0000
0001
0000
0010
0000
0000
1000
0100
0000
0001
0000
,
1000
0000
0000
0010
0100
0000
0001
0000
1000
0001
1000
0001
1000
0000
0010
0000
,
0100
0000
0000
1000
0001
0000
0100
0000
1000
0000
0000
0100
0010
0000
1000
0000
,
0100
0000
0000
0010
1000
0000
0001
0000
1000
0001
1000
0001
1000
0000
0010
0000
,
0001
0000
0000
0100
1000
0000
0100
0000
0001
0000
0000
0010
1000
0000
0001
0000
,
0100
0000
0000
1000
0010
0000
0001
0000
1000
0001
1000
0001
1000
0000
0100
0000
,
0010
0000
0000
1000
0100
0000
0001
0000
1000
0000
0000
0010
0100
0000
1000
0000
,
0010
0000
0000
0001
0010
0000
0100
0000
1000
0001
1000
0001
1000
0000
0100
0000
,
0010
0000
0000
1000
0100
0000
0001
0000
0100
0000
0000
1000
0010
0000
0001
0000
,
1000
0000
0000
0100
0010
0000
0001
0000
1000
0001
1000
0001
1000
0000
0100
0000
,
0010
0000
0000
1000
0001
0000
0010
0000
1000
0000
0000
0010
0100
0000
1000
0000
,
0010
0000
0000
0100
1000
0000
0001
0000
1000
0001
1000
0001
1000
0000
0100
0000
,
0001
0010
0100
0010
0001
0000
1000
0000
0010
0100
0001
1000
0100
0000
0010
0000
,
0100
1000
0001
0100
0001
0000
1000
0000
0100
0010
0001
0100
0010
0000
1000
0000
,
0001
0010
0001
1000
0010
0000
0100
0000
0010
1000
0001
0010
0100
0000
0010
0000
,
0001
1000
0010
0100
0001
0000
1000
0000
0100
0010
0100
0010
0001
0000
0001
0000
,
1000
0010
0100
0010
1000
0000
0001
0000
0010
0100
1000
0001
0100
0000
0010
0000
,
0100
0001
1000
0100
1000
0000
0001
0000
0100
0010
1000
0100
0010
0000
0001
0000
,
1000
0010
1000
0001
0010
0000
0100
0000
0010
0001
1000
0010
0100
0000
0010
0000
,
1000
0001
0010
0100
1000
0000
0001
0000
2000
3000
0020
0030
0200
0300
0002
0003
,
1000
0000
0100
0010
0100
0000
1000
0000
0001
0000
1000
0010
0100
0000
0001
0000
,
1000
0000
0100
1000
0001
0000
0100
0000
0010
0000
1000
0000
0001
0000
0010
0000
,
0100
0000
1000
0001
0100
0000
0001
0000
1000
0000
0010
0100
0001
0000
0010
0000
,
0100
1000
0001
0100
0001
0000
1000
0000
0010
0100
0001
0000
0010
0000
0100
0000
,
0010
0000
0001
1000
0010
0000
0100
0000
0010
0000
1000
0100
0010
0000
0001
0000
,
0100
0000
0010
0100
0001
0000
1000
0000
0100
0000
0010
0100
1000
0000
0001
0000
,
0100
0000
0010
1000
0100
0000
0010
0000
0001
0000
1000
0010
1000
0000
0001
0000
,
0010
0100
0010
0001
1000
0000
0010
0000
0100
0001
1000
0000
0100
0000
1000
0000
,
1001
0000
1000
0010
0100
0000
0001
0000
1000
0000
0001
0010
0100
0000
1000
0000
,
0001
0000
0100
0001
1000
0000
0100
0000
0010
0000
0001
0000
1000
0000
0010
0000
,
0100
0000
0001
1000
0100
0000
1000
0000
0001
0000
0010
0100
1000
0000
0010
0000
,
0100
0001
1000
0100
1000
0000
0001
0000
0010
0100
1000
0000
0010
0000
0100
0000
,
0010
0000
1000
0001
0010
0000
0100
0000
0010
0000
0001
0100
0010
0000
1000
0000
,
0100
0000
0010
0100
1000
0000
0001
0000
0100
0000
0010
0100
0001
0000
1000
0000
,
0100
0000
0010
0001
0100
0000
0010
0000
1000
0000
0001
0010
0001
0000
1000
0000
,
0010
0000
0100
0001
1000
0100
0010
0000
0001
1000
0010
0100
0001
0000
1000
0000
,
1001
0000
0000
0000
;
