#TITLE:I'm Outta Love;
#SUBTITLE:;
#ARTIST:Anastacia;
#TITLETRANSLIT:;
#SUBTITLETRANSLIT:;
#ARTISTTRANSLIT:;
#GENRE:;
#CREDIT:SoulEdge5000;
#BANNER:[Round 1] - I'm Outta Love - Banner.png;
#BACKGROUND:[Round 1] - I'm Outta Love - BG.png;
#LYRICSPATH:;
#CDTITLE:;
#MUSIC:[Round 1] - I'm Outta Love.ogg;
#OFFSET:-0.020000;
#SAMPLESTART:49.000000;
#SAMPLELENGTH:12.000000;
#SELECTABLE:YES;
#BPMS:0.000000=119.476997
;
#STOPS:
;
#BGCHANGES:;
#KEYSOUNDS:;
#ATTACKS:;

//---------------dance-single - ----------------
#NOTES:
     dance-single:
     :
     Beginner:
     1:
     0.112287,0.145412,0.209602,0.000000,0.000000,60.000000,44.000000,16.000000,0.000000,0.000000,0.000000,0.112287,0.145412,0.209602,0.000000,0.000000,60.000000,44.000000,16.000000,0.000000,0.000000,0.000000:
0000
0000
0000
0000
,
0000
0000
0000
0000
,
0000
0000
0000
0000
,
0000
0000
0000
0000
,
1000
0000
0000
0000
,
0001
0000
0000
0000
,
1000
0000
0000
0000
,
0001
0000
0000
0000
,
1000
0000
0000
0000
,
0001
0000
0000
0000
,
1000
0000
0000
0000
,
1000
0000
0000
0000
,
1001
0000
0000
0000
,
0110
0000
0000
0000
,
1000
0000
1000
0000
,
0001
0000
0001
0000
,
1001
0000
0000
0000
,
0110
0000
0000
0000
,
1001
0000
0000
0000
,
0110
0000
0000
0000
,
1000
0000
1000
0000
,
0001
0000
0001
0000
,
1000
0000
1000
0000
,
0001
0000
0001
0000
,
1001
0000
0000
0000
,
1001
0000
0000
0000
,
0110
0000
0000
0000
,
1001
0000
0000
0000
,
0110
0000
0000
0000
,
1000
0000
1000
0000
,
0001
0000
0001
0000
,
1000
0000
1000
0000
,
0001
0000
0001
0000
,
1001
0000
0000
0000
,
0110
0000
0000
0000
,
1001
0000
0000
0000
,
0110
0000
0000
0000
,
0110
0000
0000
0000
;

//---------------dance-single - ----------------
#NOTES:
     dance-single:
     :
     Easy:
     2:
     0.183402,0.247265,0.262003,0.340604,0.000000,98.000000,78.000000,20.000000,26.000000,0.000000,0.000000,0.183402,0.247265,0.262003,0.340604,0.000000,98.000000,78.000000,20.000000,26.000000,0.000000,0.000000:
0000
0000
0000
0000
,
0000
0000
0000
0000
,
0000
0000
0000
0000
,
0000
0000
0000
0000
,
1000
0000
1000
0000
,
0001
0000
0001
0000
,
1000
0000
1000
0000
,
0001
0000
0001
0000
,
2002
0000
0000
3003
,
0220
0000
0000
0330
,
1000
0100
1000
0100
,
0001
0100
0001
0100
,
0220
0000
0000
0330
,
2002
0000
0000
3003
,
0001
0100
1000
0100
,
0001
0100
1000
0100
,
0002
0000
1000
1003
,
2000
0000
0001
3001
,
0001
0000
0001
0000
,
1000
0000
1000
0000
,
2002
0000
0000
3003
,
0220
0000
0000
0330
,
0100
0100
0100
0100
,
0010
0010
0010
0010
,
0220
0000
0000
0330
,
1001
0000
1001
0000
,
0110
0000
0110
0000
,
0100
0010
0100
0010
,
1000
0001
1000
0001
,
0110
0000
1001
0000
,
0110
0000
1001
0000
,
1000
0001
1000
0001
,
0100
0010
0100
0010
,
2002
0000
0000
3003
,
0220
0000
0000
0330
,
2002
0000
0000
3003
,
0220
0000
0000
0330
,
0220
0000
0000
0330
;

//---------------dance-single - ----------------
#NOTES:
     dance-single:
     :
     Medium:
     4:
     0.265746,0.323574,0.131002,0.288203,0.000000,142.000000,132.000000,10.000000,22.000000,0.000000,0.000000,0.265746,0.323574,0.131002,0.288203,0.000000,142.000000,132.000000,10.000000,22.000000,0.000000,0.000000:
0000
0000
0000
0000
,
0000
0000
0000
0000
,
0000
0000
0000
0000
,
0000
0000
0000
0000
,
1000
0000
0001
0000
1000
0100
1000
0000
,
0001
0000
1000
0000
0001
0100
0001
0000
,
1000
0000
1000
0000
0001
1000
0001
0000
,
0001
0000
0001
0000
1000
0001
1000
0000
,
0200
0000
0000
0000
0010
0001
0310
0000
,
0020
0000
0000
0000
0100
1000
0130
0000
,
1000
0100
0001
0010
,
1000
0100
0001
0010
,
0200
0010
0010
0310
,
0020
0100
0100
0130
,
1000
0010
0001
0100
,
2002
0000
0000
3003
,
1000
0000
1000
0000
1000
0100
0001
0000
,
0001
0000
0001
0000
0001
0100
1000
0000
,
1000
0100
0001
0010
,
1000
1000
1000
0000
0001
0001
0001
0000
,
0220
0000
0000
0330
,
2002
0000
0000
3003
,
0200
0000
0010
0000
0010
0010
0310
0000
,
0020
0000
0100
0000
0100
0100
0130
0000
,
0220
0000
0000
0330
,
2002
0000
0000
3003
,
0220
0000
0000
0330
,
1000
1000
1000
1000
,
0100
0000
0001
0000
0001
0010
0001
0000
,
1000
0000
0100
0000
0010
0100
0010
0000
,
0001
0000
0010
0000
0100
0010
0100
0000
,
1000
0100
0100
0100
,
0110
0110
1001
1001
,
0200
0010
0010
0310
,
0020
0100
0100
0130
,
0200
0000
0000
0000
0010
0001
0310
0000
,
0010
0100
0010
0100
0010
0100
0010
0100
,
0020
0000
0000
0000
,
0030
0000
0000
0000
;

//---------------dance-single - ----------------
#NOTES:
     dance-single:
     :
     Hard:
     7:
     0.383647,0.472915,0.091701,0.157202,0.065501,205.000000,198.000000,7.000000,12.000000,0.000000,0.000000,0.383647,0.472915,0.091701,0.157202,0.065501,205.000000,198.000000,7.000000,12.000000,0.000000,0.000000:
// measure 0
0000
0000
0000
0000
,  // measure 1
0000
0000
0000
0000
,  // measure 2
0000
0000
0000
0000
,  // measure 3
0000
0000
0000
0000
,  // measure 4
1000
0100
1000
0000
0001
0010
0001
0000
,  // measure 5
1000
0100
0001
0100
1000
0100
0001
0000
,  // measure 6
0001
0010
0001
0000
0010
0100
0010
0000
,  // measure 7
1000
0100
0001
0100
1000
0100
0001
0000
,  // measure 8
2000
0000
0000
0000
0010
0001
3010
0000
,  // measure 9
0002
0000
0000
0000
1000
0100
1003
0000
,  // measure 10
1000
0100
0001
0010
,  // measure 11
1000
0100
1000
0000
0001
0010
1000
0010
,  // measure 12
0001
1001
1000
1001
,  // measure 13
0001
0010
0100
1000
,  // measure 14
1000
0100
1000
0000
0010
1000
0010
0000
,  // measure 15
1000
0100
0001
0010
1000
0100
0001
0000
,  // measure 16
1000
1001
0001
1001
,  // measure 17
1000
0000
0100
0000
0010
0001
0010
0000
,  // measure 18
0100
0010
0100
0000
1000
0100
0001
0000
,  // measure 19
1000
0100
0001
0000
1000
0010
0001
0000
,  // measure 20
0100
0000
0100
0000
0100
0010
0100
0000
,  // measure 21
0100
1000
0100
0000
0100
0001
0100
0000
,  // measure 22
0100
1000
0100
0000
0100
0010
0100
0000
,  // measure 23
0100
0000
0010
0000
0100
0000
0010
0000
0100
0000
0010
0000
0100
0010
0100
0010
,  // measure 24
0220
0330
2002
3003
,  // measure 25
1000
0100
0010
0000
0010
0100
1000
0000
,  // measure 26
0001
0010
0100
0000
0100
0010
0001
0000
,  // measure 27
1000
0100
0001
0000
0001
0100
1000
0000
,  // measure 28
1000
0100
0001
0000
1000
0100
0001
0000
1000
0100
0001
0000
1000
0100
0001
0000
,  // measure 29
1000
0100
1000
0000
0001
0010
0001
0000
,  // measure 30
1000
0100
0001
0100
1000
0100
0001
0000
,  // measure 31
0010
0100
0010
0000
0100
0010
0100
0000
,  // measure 32
0100
0000
0010
0000
0100
0000
0010
0000
0100
0010
0100
0010
0100
0010
0100
0010
,  // measure 33
0200
0000
0010
0000
0010
0001
0310
0000
,  // measure 34
0020
0000
0100
0000
0100
1000
0130
0000
,  // measure 35
0200
0000
0001
0000
0001
1000
0301
0000
,  // measure 36
0020
0000
1000
0000
1000
0001
1030
0000
,  // measure 37
0220
0000
0000
0000
,  // measure 38
0330
0000
0000
0000
;
