#TITLE:هلا بالخميس;
#SUBTITLE:;
#ARTIST:معن برغوث;
#TITLETRANSLIT:Hala Bel Khamis;
#SUBTITLETRANSLIT:;
#ARTISTTRANSLIT:Maan Barghouth;
#CREDIT:SupremeX;
#BANNER:Hala Bel Khamis-bn.png;
#BACKGROUND:Hala Bel Khamis-bg.png;
#LYRICSPATH:;
#CDTITLE:cdtitle.png;
#MUSIC:Hala Bel Khamis.ogg;
#OFFSET:-0.326;
#SAMPLESTART:61.999;
#SAMPLELENGTH:12.000;
#SELECTABLE:YES;
#BPMS:0.000=92.070;
#STOPS:30.000=0.985
,44.500=0.320
;
#BGCHANGES:;

//---------------dance-single - ----------------
#NOTES:
     dance-single:
     :
     Hard:
     9:
     0.566,0.498,0.405,0.231,0.416: // measure 1
0000
0000
0000
0000
,  // measure 2
0000
0000
0000
0000
,  // measure 3
1000
0000
0001
0000
0100
0000
0001
0000
1000
0100
0020
0000
0031
0000
0001
0000
,  // measure 4
1000
0000
0001
0000
0100
0000
0010
0000
1000
0100
0020
0000
0031
0000
0010
0000
,  // measure 5
0100
0000
1000
0100
0000
0000
1000
0100
1000
0000
1000
0010
0000
0000
0100
0010
,  // measure 6
0100
0000
0001
1000
0000
0000
0001
0100
0001
0000
0100
0010
0000
0000
1000
0010
,  // measure 7
1000
0000
0001
0100
0000
0000
0010
0100
0010
0000
0100
0001
0000
0000
1000
0100
,  // measure 8
1000
0000
0100
1000
0000
0000
0001
0010
0100
0000
0000
0000
1000
0100
1000
0000
,  // measure 9
1100
0000
0010
0000
0110
0000
0012
0000
0000
0013
0000
0000
0100
1000
0100
0000
,  // measure 10
1000
0000
0100
0000
0010
0001
0010
0001
0010
0001
0010
0000
0100
1000
0100
0000
,  // measure 11
1000
0000
0100
0000
1100
0000
0102
0000
0000
1003
0000
0000
0001
0100
0010
0000
,  // measure 12
1000
0010
0100
0000
0001
0000
0001
0000
1000
0000
0100
1000
0100
0000
1000
0000
,  // measure 13
0200
0000
0310
0001
0010
0000
0100
0000
1000
0000
0010
0100
0020
0000
0130
0000
,  // measure 14
0010
0000
0100
0001
0100
0000
0010
0000
0110
0000
1000
0001
1000
0000
0002
0000
,  // measure 15
0023
0000
0230
0000
2300
0000
3100
0000
1000
0000
0100
1000
0100
0000
0010
0000
,  // measure 16
0010
0000
0101
0000
0101
0000
0000
0000
0010
0000
1000
0001
0100
0000
0100
0000
,  // measure 17
0020
0000
0130
0010
0100
0000
1010
0000
0001
0000
1000
0100
2000
0000
3001
0000
,  // measure 18
0100
0000
0010
1000
0010
0000
0110
0000
1001
0000
0001
0100
0010
0000
0101
0000
,  // measure 19
0010
0000
1000
0100
2000
0000
3100
0000
0010
0000
0001
1000
0100
0000
0100
0000
,  // measure 20
0020
0000
0031
0000
0011
0000
0000
0000
0100
0000
1000
0100
1000
0000
0100
0000
,  // measure 21
1100
0000
0101
0000
0210
0000
0010
0000
0310
0000
1000
0010
0100
0000
0001
0000
,  // measure 22
1100
0000
0011
0000
0200
0000
1300
0100
1000
0000
0100
0010
0001
0000
1000
0000
,  // measure 23
0001
0000
0100
0010
0100
0000
0001
0000
1000
0000
0100
0000
1000
0000
0001
0000
,  // measure 24
1000
0100
1000
0100
0010
0100
0010
0001
0010
0000
0001
0100
0010
0000
0010
1000
,  // measure 25
0100
0000
0010
0001
0010
0000
0100
1000
0100
0000
1000
0100
0010
0000
0001
0000
,  // measure 26
1001
0000
1100
0000
1001
0000
0110
0000
0101
0000
1000
0010
0100
0000
0100
0000
,  // measure 27
0010
0000
0110
0000
2001
0000
0000
3100
0000
0000
0100
1000
0100
0000
0010
0001
,  // measure 28
0010
0000
1100
0000
0110
0000
0011
0000
1001
0000
0010
0100
0010
0000
1000
0001
,  // measure 29
1000
0000
0110
0000
0102
0000
0000
0103
0000
0000
0010
1000
0010
0000
1010
0000
,  // measure 30
0100
0000
0100
0001
1000
0010
0100
0001
1000
0000
0010
1000
0001
0000
1000
0010
,  // measure 31
0100
0000
1001
0000
2100
0000
0000
3100
0000
0000
0010
0001
0010
0000
0100
1000
,  // measure 32
0100
0000
0010
0001
1000
0000
0010
0200
0000
0000
0300
0000
0000
0000
0000
1001
;

//---------------dance-single - ----------------
#NOTES:
     dance-single:
     :
     Medium:
     7:
     0.337,0.309,0.370,0.046,0.000:
0000
0000
0000
0000
,
0000
0000
0000
0000
,
1000
1000
0100
0010
0001
0001
1000
1000
,
0010
0100
0001
1000
0010
0010
0100
0100
,
0001
1100
0110
0011
,
1000
0001
1000
0000
0110
0000
0110
0000
,
1001
1001
0101
0101
,
0010
1000
0010
0000
1001
0000
0000
0100
,
0100
0001
1000
0020
0030
0000
1000
0100
,
0000
0100
1000
0001
0100
0001
0000
1000
,
1000
0010
0100
0002
0003
1000
0000
0101
,
0000
1001
0000
0000
0100
0000
1000
0000
,
0001
0100
0010
0000
0101
0000
1010
0000
,
0001
0100
0010
0000
0010
0000
1100
0000
,
0010
0000
0011
0000
1000
0100
1000
0000
,
0001
0001
0001
0000
1000
0001
0100
0010
,
1000
0001
0100
0100
0010
1000
0001
0100
,
0002
0003
1000
1000
0010
0100
0010
0100
,
0001
1000
0100
0100
1000
0001
0100
0010
,
1000
0001
0001
0000
1100
0000
1001
0000
,
0010
0010
0010
0000
1000
0000
1001
0000
,
0100
0100
0100
0000
0101
0000
1010
0000
,
0001
1000
0200
0300
0000
0000
1000
0000
,
0001
0000
1000
0001
0100
0000
1010
0000
,
1001
0000
0101
0000
1010
0000
0001
0001
,
1000
0100
1000
1000
1000
0000
0110
0000
,
1001
0110
1001
0110
,
0001
0001
0001
0001
0001
0000
1000
0100
,
1000
0100
0100
0000
0010
0001
0010
0100
,
1000
0100
1000
1000
0001
0000
0001
0000
,
1000
0010
0100
0001
1000
0000
0001
0000
,
0110
1000
1001
0000
;

//---------------dance-single - ----------------
#NOTES:
     dance-single:
     :
     Easy:
     3:
     0.266,0.328,0.566,0.035,0.000:
0000
0000
0000
0000
,
0000
0000
0000
0000
,
0000
1000
1000
0010
,
0100
0100
0001
0001
,
1000
0010
0001
0100
,
0010
1000
0001
1000
,
0001
0010
0100
1000
,
0001
0000
0100
0000
1001
0000
0000
1000
,
0000
0100
0000
0010
0000
0000
0000
0001
,
0000
1000
0000
0010
0000
0100
0000
0001
,
0000
1000
0000
0010
0000
0000
0000
0100
,
0000
1001
0000
0000
0010
0000
1000
0000
,
0110
0110
0001
1000
,
0110
0110
0001
0100
,
0010
1000
0000
1001
,
0110
0110
0001
1000
,
1100
1100
1000
0001
,
0011
0011
0100
1000
,
0100
0010
0001
1000
,
0010
0100
0001
1000
,
1010
1010
0001
0100
,
0101
0101
1000
0010
,
1010
0101
1000
0020
,
0000
0000
0000
0030
0000
0000
1001
0000
,
1001
1001
1001
1001
,
1001
1001
1100
1100
,
1100
1100
1100
1100
,
1100
1100
0011
0011
,
0011
0011
0011
0011
,
0011
0011
0110
0110
,
0110
0110
0110
0110
,
2002
0000
3003
0000
;

//---------------dance-single - Copied from----------------
#NOTES:
     dance-single:
     Copied from:
     Beginner:
     2:
     0.116,0.161,0.000,0.046,0.000:
0000
0000
0000
0000
,
0000
0000
0000
0000
,
0000
1000
0000
0000
,
0000
0001
0000
0000
,
0100
0000
0100
0000
,
0100
0000
0100
0000
,
0010
0000
0010
0000
,
0010
0000
0000
0000
0010
0000
0000
1000
,
0000
0000
0000
1000
0000
0000
0000
1000
,
0000
0000
0000
1000
0000
0000
0000
0001
,
0000
0000
0000
0001
0000
0000
0000
0001
,
0000
0000
0100
0000
,
0010
0000
0100
0000
,
0010
0000
1000
0000
,
1000
0000
0001
0000
,
0001
0000
0100
0000
,
0100
0000
0010
0000
,
0010
0000
1000
0000
,
1000
0000
0001
0000
,
0001
0000
0200
0000
,
0000
0300
0020
0000
,
0000
0030
2000
0000
,
0000
3000
0002
0000
,
0000
0003
0000
1000
,
1000
1000
1000
1000
,
1000
1000
0001
0001
,
0001
0001
0001
0001
,
0001
0000
0100
0100
,
0100
0100
0100
0100
,
0100
0100
0010
0010
,
0010
0010
0010
0010
,
0010
0000
0000
0000
;
