#TITLE:Back in Time;
#SUBTITLE:;
#ARTIST:Pitbull;
#TITLETRANSLIT:;
#SUBTITLETRANSLIT:;
#ARTISTTRANSLIT:;
#GENRE:;
#CREDIT:;
#BANNER:Back in Time-bn.png;
#BACKGROUND:Back in Time-bg.png;
#LYRICSPATH:;
#CDTITLE:;
#MUSIC:Back in Time.ogg;
#OFFSET:0.000000;
#SAMPLESTART:22.677000;
#SAMPLELENGTH:20.000000;
#SELECTABLE:YES;
#DISPLAYBPM:127.000000;
#BPMS:0.000000=126.999992
;
#STOPS:
;
#BGCHANGES:;
#KEYSOUNDS:;
#ATTACKS:;

//---------------dance-single - x scale 13----------------
#NOTES:
     dance-single:
     :
     Hard:
     9:
     0.582707,0.580154,0.263158,0.263158,0.258772,465.000000,435.000000,30.000000,30.000000,0.000000,0.000000,0.582707,0.580154,0.263158,0.263158,0.258772,465.000000,435.000000,30.000000,30.000000,0.000000,0.000000:
0000
0000
0000
0000
,
0000
0000
0000
0000
,
0000
0000
0000
0000
,
0000
0000
0000
0000
,
1002
0000
0000
0000
0013
0000
0000
0000
0001
0000
1000
0100
0000
0100
1000
0000
,
2010
0000
0000
0000
3001
0000
0000
0000
1000
0000
0010
0100
0000
0100
0010
0000
,
0201
0000
0000
0000
0310
0000
0100
0000
0001
0000
1000
0010
0000
0010
1000
0000
,
0120
0000
0000
0000
0130
0000
0001
1000
0001
0000
0100
0010
0000
0010
0100
0000
,
0001
0010
0100
0010
0001
0010
0100
0010
,
0001
0100
0010
0100
0001
0100
0010
0100
,
0001
0001
0010
0010
0100
0100
1000
1000
,
0010
0010
0100
0100
0001
0001
1000
1000
,
1200
2300
3002
1003
,
0022
0000
0000
0000
0033
0000
0000
0000
1000
0001
1000
0000
0010
0000
0100
0000
,
0010
1000
0001
0010
0100
1000
0001
0100
,
0001
1000
0100
0010
0100
1000
0001
0010
,
0001
0100
1000
0100
0001
0010
1000
0010
,
0001
1000
0100
1000
0010
0001
0010
0100
,
1000
0001
0100
0001
1000
0010
0100
0010
,
0100
1000
0100
0001
1000
0010
0001
0010
,
1000
1000
0100
0100
0010
0010
0001
0001
,
0100
0100
0010
0010
1000
1000
0001
0001
,
0012
0203
0320
1030
,
2020
0000
0000
0000
3030
0000
0000
0000
0100
0010
0100
0000
0001
0000
1000
0000
,
0010
0000
0000
1000
0100
0000
0000
0000
0010
0000
0000
0001
0100
0000
0000
0000
,
0001
0100
0001
0100
0001
0000
1000
0100
0000
0000
0000
1000
0010
0000
0010
0000
,
1000
0000
0000
0001
0100
0000
0000
0000
0001
0000
0000
1000
0010
0000
0000
0000
,
0001
0000
0000
0100
0010
0000
1000
0100
1000
0000
0001
1000
0000
0001
0010
0000
,
0001
0000
1000
0100
0000
1000
0001
0000
0100
0000
0010
1000
0000
0010
0100
0000
,
0001
0010
0100
0000
1000
0000
0001
1000
0000
0000
0000
0000
0010
0000
0100
0000
,
1002
0000
0000
0000
0103
0000
0000
0000
0001
1000
0001
1000
0010
0000
0100
0000
,
0220
0000
0000
0000
0330
0000
0001
0100
0001
0000
1000
0100
1000
0000
0000
0000
,
0010
1000
0010
0001
0010
1000
0010
0001
,
0010
0100
1000
0100
0010
0100
1000
0100
,
0010
0001
1000
0001
0010
0001
1000
0001
,
0100
0010
0100
0010
0100
0000
0001
0000
0101
0000
1000
0000
2200
0000
0000
3300
,
1000
1000
0100
0100
0010
0010
0001
0001
,
0100
0100
0010
0010
1000
1000
0001
0001
,
0010
0010
0100
0100
1000
1000
0001
0001
,
1000
0000
0000
0010
0100
0001
0100
0000
0110
0000
0010
0000
1001
0000
0000
0000
,
2100
3020
0230
0302
,
1003
0000
0000
0000
0100
0000
0000
0000
1000
0000
0000
0000
0001
0000
0000
0000
0100
0000
0000
0000
0001
0000
0000
0000
1000
0000
0000
0100
0000
0000
0010
0000
0000
0000
0000
0000
0001
0000
0000
0000
0000
0000
0100
0000
0000
0000
0000
0000
,
0001
0010
0001
0010
0001
0000
0000
0000
1000
0010
1000
0010
1000
0000
0000
0000
,
0010
0010
0100
0100
0101
0011
1010
0000
,
1000
0000
0001
0000
1000
0000
0010
0000
0000
0010
0000
0000
0100
0000
0001
0000
1000
0000
0100
0000
0000
0100
0000
0000
,
1000
1000
0001
0001
0011
1001
1100
0000
,
1000
0100
1000
0100
1000
0000
0000
0000
0001
0100
0001
0100
0001
0000
0000
0000
,
1000
1000
0001
0001
0101
0110
1010
0000
,
1000
0000
0100
0000
0010
0000
0001
0000
0000
0001
0000
0000
0001
0000
0010
0000
0100
0000
1000
0000
0000
1000
0000
0000
,
0010
0010
1000
1000
1100
1010
0101
0000
,
0010
0001
0100
1000
0010
0100
0001
1000
,
0100
0010
0100
1000
0001
1000
0001
0010
,
0001
0100
1000
0100
0010
1000
0010
0001
,
0010
1000
0100
0001
1000
0100
0010
0001
,
0100
0001
0100
0001
1000
0100
1000
0100
,
0010
0001
0010
0001
1000
0010
1000
0010
,
1000
1000
0001
0001
0100
0100
0010
0010
,
1000
1000
0100
0100
0010
0010
0001
0001
,
0012
2003
3020
0130
,
0220
0000
0000
0000
0330
0000
0000
0000
1000
0001
0100
0000
0001
0000
1000
0000
,
2002
3003
0000
0000
0000
0000
0000
0000
;

//---------------dance-single - ----------------
#NOTES:
     dance-single:
     :
     Medium:
     6:
     0.419800,0.395559,0.210526,0.315789,0.030702,335.000000,311.000000,24.000000,36.000000,0.000000,0.000000,0.419800,0.395559,0.210526,0.315789,0.030702,335.000000,311.000000,24.000000,36.000000,0.000000,0.000000:
0000
0000
0000
0000
,
0000
0000
0000
0000
,
0000
0000
0000
0000
,
0000
0000
0000
0000
,
1001
0000
0010
0000
0001
0100
1000
0000
,
1100
0000
0001
0000
0100
0010
1000
0000
,
0101
0000
1000
0001
0010
0100
1000
0000
,
0110
0000
0010
1000
0100
1000
0001
0000
,
1000
0001
0000
0100
0000
0010
0000
1000
,
0000
0100
0000
0010
0000
0001
0000
1000
,
0001
0100
0001
0000
1000
0100
1000
0000
,
0010
0100
0010
0000
1000
0001
1000
0000
,
1020
0230
0302
1003
,
0022
0000
0033
0000
0100
0100
0100
0000
,
0001
0010
0100
0000
1000
0001
1000
0000
,
0010
1000
0010
0000
1000
0100
0001
0000
,
1000
0001
0010
0000
0001
1000
0100
0000
,
0010
0100
0010
0000
1000
0001
1000
0000
,
0010
0001
0100
0000
0001
0100
1000
0000
,
0100
1000
0010
0000
1000
0001
0100
0000
,
0001
0010
0001
0000
1000
0100
1000
0000
,
0001
0100
0001
0000
1000
0010
1000
0000
,
1002
0203
0320
1030
,
0220
0000
0330
0000
0001
0001
0001
0000
,
1000
0000
0000
0100
0000
0000
0000
0000
0001
0000
0000
0100
0000
0000
0000
0000
,
0010
0100
0001
1000
0100
0000
0011
0000
,
0001
0000
0000
0010
0000
0000
0000
0000
1000
0000
0000
0010
0000
0000
0000
0000
,
1000
0000
0000
0001
0000
0000
0100
0000
0010
0000
1000
0000
0001
0000
0000
0000
,
1000
0100
0001
0000
1000
0010
0001
0000
,
0100
0010
1000
0001
1000
0000
0101
0000
,
1100
0000
1000
0000
0001
0100
0001
1000
,
0002
0000
0000
0000
0013
0001
0011
0000
,
1000
0001
1000
0001
0000
0010
0001
0010
,
0000
0100
1000
0100
0000
1000
0000
0001
,
0010
0001
0100
0000
0010
1000
0100
0000
,
1000
0000
0001
0000
1000
0000
0001
0000
0100
0000
0100
0000
0220
0000
0000
0330
,
0010
0000
1100
0000
1000
0001
0100
0000
,
0001
0000
0011
0000
1000
0100
0010
0000
,
0100
0000
0101
0000
1000
0001
0010
0000
,
0001
0000
1000
0001
1000
0010
1010
0000
,
1002
0023
0230
2300
,
3001
0000
1000
0000
0001
0000
1000
0000
0000
0000
0000
0000
0010
0000
0000
0010
0000
0000
0010
0000
0000
0000
0000
0000
,
2000
0100
3100
0000
0002
0100
0103
0000
,
0002
1000
1003
0000
0010
0010
0010
0000
,
2000
0010
3010
0000
0002
0010
0013
0000
,
0200
0010
0310
0000
0100
0100
0100
0000
,
0020
1000
1030
0000
0200
0001
0301
0000
,
2000
0001
3001
0000
0001
0001
0001
0000
,
0020
0001
0031
0000
2000
0001
3001
0000
,
0200
0010
0310
0000
1000
1000
1000
0000
,
0001
0101
1000
1100
,
0010
0100
0001
0100
0010
0100
0001
0000
,
1000
1010
0001
0011
,
0100
0001
1000
0001
0100
0001
1000
0000
,
0010
0100
0010
0000
1000
0001
1000
0000
,
0001
1000
0001
0000
0100
0010
0100
0000
,
0001
0010
1000
0000
1000
0010
0001
0000
,
1000
0001
1000
0001
0100
0010
0100
0010
,
2000
3200
0320
0031
,
0220
0000
0330
0000
0010
0010
0010
0000
,
2002
3003
0000
0000
0000
0000
0000
0000
;

//---------------dance-single - ----------------
#NOTES:
     dance-single:
     :
     Easy:
     3:
     0.253133,0.263158,0.114035,0.254386,0.000000,202.000000,189.000000,13.000000,29.000000,0.000000,0.000000,0.253133,0.263158,0.114035,0.254386,0.000000,202.000000,189.000000,13.000000,29.000000,0.000000,0.000000:
0000
0000
0000
0000
,
0000
0000
0000
0000
,
0000
0000
0000
0000
,
0000
0000
0000
0000
,
1002
0000
1000
1003
,
0120
0000
0100
0130
,
2001
0000
0001
3001
,
0210
0000
0010
0310
,
1000
0000
0001
0000
,
0100
0000
0010
0000
,
1000
1000
0100
0100
,
0010
0010
0001
0001
,
0200
0320
0230
0320
,
2030
0000
0001
3100
,
0001
0010
0001
0010
,
0100
1000
0100
1000
,
0010
0100
0010
0100
,
0001
1000
0001
1000
,
0010
0010
0010
0010
,
0100
0100
0100
0100
,
0001
0001
1000
1000
,
0001
1000
0010
0100
,
0002
2003
3002
2003
,
3020
0000
0100
1030
,
0110
0000
1001
0000
,
0010
1000
0100
0001
,
1001
0000
0110
0000
,
1000
0010
0100
0001
,
1000
0100
0010
0001
,
0100
0100
0100
0000
,
1002
0000
1000
0103
,
0210
0000
0001
0310
,
1000
0000
1000
0000
,
0001
0000
0001
0000
,
0100
0000
0010
0000
,
1000
0001
0100
2002
,
3003
0001
0010
0001
,
0000
1000
0100
1000
,
0001
0001
1000
1000
,
0120
0000
0130
0010
,
2000
3200
0320
0032
,
0203
0000
1000
0301
,
0010
0000
0100
0000
,
0001
1000
0100
0100
,
1000
0000
0001
0000
,
0010
0001
1000
1000
,
0100
0000
1000
0000
,
0010
1000
0001
0001
,
0010
0000
0001
0000
,
0100
0001
0010
0010
,
0001
1000
0001
1000
,
0010
0100
0010
0100
,
0001
0100
0001
0100
,
0010
1000
0010
1000
,
0100
0100
0100
0100
,
0010
0010
0010
0010
,
0001
0001
1000
1000
,
0010
1000
0001
0100
,
0002
0023
0230
2300
,
3002
0000
0010
0103
,
1001
0000
0000
0000
;

//---------------dance-single - ----------------
#NOTES:
     dance-single:
     :
     Beginner:
     1:
     0.115288,0.157895,0.078947,0.035088,0.000000,92.000000,83.000000,9.000000,4.000000,0.000000,0.000000,0.115288,0.157895,0.078947,0.035088,0.000000,92.000000,83.000000,9.000000,4.000000,0.000000,0.000000:
// measure 0
0000
0000
0000
0000
,  // measure 1
0000
0000
0000
0000
,  // measure 2
0000
0000
0000
0000
,  // measure 3
0000
0000
0000
0000
,  // measure 4
1001
0000
0000
0000
,  // measure 5
0110
0000
0000
0000
,  // measure 6
1001
0000
0000
0000
,  // measure 7
0110
0000
0000
0000
,  // measure 8
0010
0000
0000
0000
,  // measure 9
0100
0000
0000
0000
,  // measure 10
0001
0000
0000
0000
,  // measure 11
1000
0000
0000
0000
,  // measure 12
0100
0000
0100
0000
,  // measure 13
0200
0000
0300
0000
,  // measure 14
1000
0000
1000
0000
,  // measure 15
0000
0000
0001
0000
,  // measure 16
0001
0000
0001
0000
,  // measure 17
0000
0000
1000
0000
,  // measure 18
0010
0000
0010
0000
,  // measure 19
0000
0000
0100
0000
,  // measure 20
0100
0000
0100
0000
,  // measure 21
0000
0000
0010
0000
,  // measure 22
0001
0000
0001
0000
,  // measure 23
0002
0000
0003
0000
,  // measure 24
1000
0000
1000
0000
,  // measure 25
0001
0000
0001
0000
,  // measure 26
0100
0000
0100
0000
,  // measure 27
0010
0000
0010
0000
,  // measure 28
1000
0000
0100
0000
,  // measure 29
0010
0000
0001
0000
,  // measure 30
0110
0000
0000
0000
,  // measure 31
1001
0000
0000
0000
,  // measure 32
0001
0000
0001
0000
,  // measure 33
1000
0000
1000
0000
,  // measure 34
0010
0000
0010
0000
,  // measure 35
1001
0000
0000
0000
,  // measure 36
0010
0000
0000
0000
,  // measure 37
0100
0000
0000
0000
,  // measure 38
0001
0000
1000
0000
,  // measure 39
0110
0000
0000
0000
,  // measure 40
1000
0000
1000
0000
,  // measure 41
2000
0000
3000
0000
,  // measure 42
0010
0000
0010
0000
,  // measure 43
0010
0000
0000
0000
,  // measure 44
1000
0000
1000
0000
,  // measure 45
1000
0000
0000
0000
,  // measure 46
0100
0000
0100
0000
,  // measure 47
0100
0000
0000
0000
,  // measure 48
0001
0000
0001
0000
,  // measure 49
0001
0000
0000
0000
,  // measure 50
0100
0000
0010
0000
,  // measure 51
0000
0000
1000
0000
,  // measure 52
0001
0000
0010
0000
,  // measure 53
0000
0000
0100
0000
,  // measure 54
1000
0000
0010
0000
,  // measure 55
0000
0000
1000
0000
,  // measure 56
0001
0000
0100
0000
,  // measure 57
0000
0000
0001
0000
,  // measure 58
0010
0000
0010
0000
,  // measure 59
0020
0000
0030
0000
,  // measure 60
1001
0000
0000
0000
;
