#VERSION:0.83;
#TITLE:XINOBIKILL;
#SUBTITLE:;
#ARTIST:SOUND HOLIC feat. Nana Takahashi;
#TITLETRANSLIT:;
#SUBTITLETRANSLIT:;
#ARTISTTRANSLIT:;
#GENRE:Cyber Jazzstep;
#ORIGIN:;
#CREDIT:;
#BANNER:[Round 4] - XINOBIKILL.png;
#BACKGROUND:[Round 4] - XINOBIKILL-bg.png;
#PREVIEWVID:;
#JACKET:[Round 4] - XINOBIKILL-jacket.png;
#CDIMAGE:;
#DISCIMAGE:;
#LYRICSPATH:;
#CDTITLE:cdtitle.png;
#MUSIC:[Round 4] - XINOBIKILL.ogg;
#OFFSET:-0.024739;
#SAMPLESTART:37.707664;
#SAMPLELENGTH:11.707317;
#SELECTABLE:YES;
#BPMS:0.000=164.000;
#STOPS:249.750=0.366;
#DELAYS:;
#WARPS:;
#TIMESIGNATURES:0.000=4=4;
#TICKCOUNTS:0.000=4;
#COMBOS:0.000=1;
#SPEEDS:0.000=1.000=0.000=0;
#SCROLLS:0.000=1.000;
#FAKES:;
#LABELS:0.000=Song Start;
#BGCHANGES:;
#KEYSOUNDS:;
#ATTACKS:
;

//---------------dance-single - ----------------
#NOTEDATA:;
#CHARTNAME:12-17;
#STEPSTYPE:dance-single;
#DESCRIPTION:;
#CHARTSTYLE:;
#DIFFICULTY:Challenge;
#METER:12;
#RADARVALUES:1.023103,1.096238,0.642307,0.369327,1.288629,892.000000,812.000000,80.000000,46.000000,114.000000,0.000000,0.000000,0.000000,0.000000,1.023103,1.096238,0.642307,0.369327,1.288629,892.000000,812.000000,80.000000,46.000000,114.000000,0.000000,0.000000,0.000000,0.000000;
#CREDIT:;
#OFFSET:-0.024739;
#BPMS:0.000000=164.000000
;
#STOPS:249.750000=0.365852
;
#DELAYS:;
#WARPS:;
#TIMESIGNATURES:0.000000=4=4
;
#TICKCOUNTS:0.000000=4
;
#COMBOS:0.000000=1
;
#SPEEDS:0.000000=1.000000=0.000000=0
;
#SCROLLS:0.000000=1.000000
;
#FAKES:;
#LABELS:0.000000=Song Start
;
#NOTES:
// measure 0
0000
0000
0000
0000
,  // measure 1
0000
0000
0000
0000
,  // measure 2
0000
0000
0000
0000
,  // measure 3
0000
0000
0000
0000
,  // measure 4
1000
0010
1000
0001
0010
0001
1000
0000
M00M
0000
1010
0000
1010
0000
0100
0001
,  // measure 5
1000
0100
1000
0001
0100
0001
1000
0000
M00M
0000
1001
0000
1001
0000
0001
1000
,  // measure 6
0001
0010
0001
1000
0010
1000
0001
0000
M00M
0000
0011
0000
0011
0000
0100
1000
,  // measure 7
0001
0100
0010
1000
0100
0010
0001
0000
M00M
0000
0110
0000
0110
0000
1000
0001
,  // measure 8
1000
0000
0001
0000
0100
0010
0000
1020
0000
0000
1030
0000
0010
0000
0100
0000
,  // measure 9
0001
0000
1000
0000
0001
0010
0000
0120
0000
0000
0130
0000
1000
0000
0001
0000
,  // measure 10
0100
0000
0010
1000
0001
0010
0001
0000
0010
0001
1000
0010
1000
0000
0001
0000
,  // measure 11
0001
0000
1000
0100
1000
0001
0100
0000
0001
0100
0001
1000
0100
0000
0010
0000
,  // measure 12
0001
0000
1000
0000
0010
0100
0000
0201
0000
0000
0301
0000
0100
0000
1000
0000
,  // measure 13
0100
0000
0001
0000
0010
0100
0000
0120
0000
0000
0130
0000
1000
0000
0001
0000
,  // measure 14
0100
0010
0200
0000
0001
0000
0000
1000
0000
0000
0301
0000
1000
0000
0200
0000
,  // measure 15
0010
0000
0010
0000
0301
0100
0000
0110
0000
0100
1000
0001
0100
0000
0010
0000
,  // measure 16
201M
0000
3000
0000
M120
0000
0030
01M2
0000
0000
1003
0000
0010
1000
0000
0001
,  // measure 17
0M20
0000
0030
0000
M012
0000
0003
20M1
0000
3001
0100
0000
0010
1000
0100
0010
,  // measure 18
0001
0000
0100
0000
0010
0000
0100
2000
0000
0000
3100
0000
0001
0000
1000
0000
,  // measure 19
0100
0000
0010
0000
0100
0000
0001
0200
0000
0000
1300
0000
0010
1000
0001
0000
,  // measure 20
M012
0000
0003
0000
012M
0000
0030
21M0
0000
0000
3001
0000
0010
0001
0000
1000
,  // measure 21
0M20
0000
0030
0000
201M
0000
3000
10M2
0000
1003
0100
0000
0010
0100
1000
0001
,  // measure 22
01M0
0000
0000
M11M
0000
0000
1M10
0000
10M1
0000
0000
MM11
0000
0000
011M
0000
,  // measure 23
10M1
0000
0000
1M1M
0000
0000
M110
0000
10M1
0000
0000
MM11
0000
0000
100M
0010
,  // measure 24
2M00
0000
0000
0000
0000
0000
0000
0000
3010
1000
0010
1000
0001
0010
0001
0010
,  // measure 25
0100
1000
0100
0010
0001
1000
0010
0200
0000
M0MM
0000
0000
0000
0000
0300
0000
,  // measure 26
0010
0000
1000
0000
0001
0010
0M0M
2010
0000
0000
3001
0000
1000
0200
0000
0000
,  // measure 27
0310
0000
0001
0000
1000
0010
MM00
0012
0000
0000
0100
0003
1000
0000
0001
0000
,  // measure 28
0010
0000
1000
0000
0001
0010
0M0M
2010
0000
0000
3100
0000
0010
0002
0000
0000
,  // measure 29
1003
0000
0010
0000
1000
0100
0000
0100
0010
0001
0100
0010
1000
0000
0100
0010
,  // measure 30
0001
0000
1000
0000
0001
0100
00MM
2100
0000
0000
3010
0000
0100
0002
0000
0000
,  // measure 31
1003
0000
0001
0000
1000
0100
M0M0
0102
0000
0000
0013
0000
1000
0000
0001
0000
,  // measure 32
0100
0000
1000
0000
0001
0100
00MM
1200
0000
0000
0310
0000
0001
0200
0000
0000
,  // measure 33
1300
0000
0100
0000
0001
0010
0000
1002
0000
0000
1003
0010
0100
0001
1000
0001
,  // measure 34
0M10
0000
0000
M11M
0000
0000
11M0
0000
01M1
0000
0001
0010
0100
0010
0001
0000
,  // measure 35
1M01
0000
0000
M11M
0000
0000
0M11
0000
1M10
0000
1000
0100
0010
0001
0100
0010
,  // measure 36
1000
0000
0010
1000
0100
0000
0210
0000
M0MM
0000
0301
0100
0010
0000
0010
0100
,  // measure 37
1000
0001
0100
0001
1000
0001
0100
0001
1000
0100
0010
0001
1000
0100
0010
0001
,  // measure 38
1000
0000
0010
1000
0001
0010
0001
0010
0001
0010
0001
0010
0001
0010
0001
0010
,  // measure 39
0001
0010
0001
0010
0001
0000
1000
0100
0010
0001
0010
0100
1000
0001
0100
0010
,  // measure 40
1000
0001
0010
0001
1000
0010
0000
0110
0000
0100
0001
1000
0100
0010
0100
1000
,  // measure 41
0001
0100
0000
0100
0010
0000
1000
0100
0000
1000
0100
0010
0100
0010
0100
1000
,  // measure 42
0001
0100
0010
0100
1000
0100
0010
0100
0001
0000
0010
0100
1000
0000
0010
0100
,  // measure 43
0001
0000
1000
0100
0010
0001
1000
0010
1000
0100
0010
0001
0100
0010
1000
0001
,  // measure 44
0010
0000
0100
1000
0100
0010
0100
1000
0001
0100
0010
0100
0001
0000
1000
0000
,  // measure 45
0001
0010
0100
0010
1000
0010
0100
0010
0001
0100
0010
1000
0200
0000
0310
0001
,  // measure 46
1000
0000
0010
0000
0110
0000
0010
0000
1000
0000
0010
0000
0110
0000
0010
2000
,  // measure 47
0MM0
0000
3001
0000
0011
0000
0001
0000
0100
0000
0100
0000
0010
2000
0MM0
0000
,  // measure 48
3001
0000
0010
0000
0110
0000
0010
0000
0001
0000
0010
0000
0110
0000
0010
0002
,  // measure 49
0MM0
0000
1003
0000
1010
0000
1000
0000
0100
0000
0001
0000
0100
1000
0100
1000
,  // measure 50
0001
0000
1000
0010
0100
0001
0100
0010
1000
0001
1000
0001
0010
0001
1000
0010
,  // measure 51
1000
0000
0001
0010
0100
1000
0100
0010
0001
1000
0001
1000
0010
1000
0001
0010
,  // measure 52
0001
1000
0010
1000
0001
1000
0100
1000
0001
0100
0010
1000
0001
0010
0100
1000
,  // measure 53
0010
0000
1010
0000
0110
0000
0101
0000
0001
0010
0100
0010
1000
0010
0100
0010
,  // measure 54
0001
0000
0100
M00M
0100
0000
1000
0000
0010
M00M
0010
0000
0001
0000
0000
0000
0000
0000
0000
0000
0000
0000
0000
0000
,  // measure 55
1002
0000
0000
0010
0000
0000
1000
0000
0000
0000
0100
0000
0000
0103
0000
0000
,  // measure 56
1001
0000
0100
0010
0100
0000
1001
0000
0000
0001
0100
0010
1000
0001
0010
0100
,  // measure 57
2000
0000
0000
0100
0000
0000
0001
0000
0000
0000
0010
0000
0000
3010
0000
0000
,  // measure 58
1000
0000
0000
0110
0000
0000
1001
0000
0000
0001
0010
0001
1000
0001
0100
0001
,  // measure 59
1000
0000
0100
0000
0001
0000
0100
1000
0000
1000
0001
0000
1000
0000
0010
0000
,  // measure 60
0001
0000
0010
0000
1000
0000
0001
0010
0000
0010
0100
1000
0001
0100
0010
1000
,  // measure 61
0001
0000
1000
0010
1000
0001
0010
0000
0001
0010
0001
1000
0010
0000
1000
0000
,  // measure 62
1100
0000
0000
0000
0000
0000
0000
0000
0011
0000
0000
0000
0000
0000
0202
0303
M000
00M0
0M00
000M
0000
0000
0000
0000
0001
0000
0000
0000
1000
0000
0000
0000
,  // measure 63
0100
0001
MMM0
0001
0010
0000
1000
0000
0010
0001
0000
0001
1000
0000
0001
0000
,  // measure 64
0100
1000
0MMM
1000
0010
0000
0001
0000
1000
0000
0100
0000
0001
0000
1000
0000
,  // measure 65
0100
0001
MMM0
0001
0010
0000
1000
0000
0010
0001
0000
0001
0100
0000
1000
0000
,  // measure 66
0001
0010
0000
2000
0000
3100
0010
0000
0001
0000
0100
0010
1000
0000
0001
0000
,  // measure 67
0100
1000
0MMM
1000
0010
0000
0001
0000
0010
1000
0000
1000
0001
0000
1000
0000
,  // measure 68
0100
0001
MMM0
0001
0010
0000
1000
0000
0001
0000
0100
0000
1000
0000
0001
0000
,  // measure 69
0100
1000
0MMM
1000
0010
0000
0001
0000
0010
1000
0000
1000
0100
0000
0001
0000
,  // measure 70
0100
1000
0000
2001
0000
3001
0100
0010
1000
0001
0010
0100
10M0
0000
0000
MM11
,  // measure 71
0000
0000
101M
0000
1M01
0000
0001
0100
0010
1000
0100
0000
11M0
0000
0000
1M1M
,  // measure 72
0000
0000
M011
0000
1M01
0000
0001
0010
0100
1000
0010
0100
0001
0000
0100
0001
,  // measure 73
0010
0000
0120
0000
MM0M
0000
1030
0010
0100
0000
0100
0010
0001
1000
0010
1000
,  // measure 74
0001
1000
0010
1000
0100
0010
0001
0100
0010
1000
0100
0010
0001
0000
0100
0000
,  // measure 75
0001
0100
0000
0110
0000
0100
1000
0000
1000
0000
0100
0010
0100
0000
0001
0000
,  // measure 76
0010
0100
0000
1100
0000
1000
0010
0000
0100
0001
0000
1000
0100
0000
0010
0001
,  // measure 77
1000
0010
0000
1000
0010
1000
0001
0010
0001
0000
0100
0000
0010
0000
0100
0001
,  // measure 78
1000
0100
0000
0100
0010
0100
1000
0001
1000
0010
0100
0001
1000
0000
0010
0000
,  // measure 79
1000
0100
0000
0110
0000
0100
0001
0000
0001
0000
0100
0010
0100
0000
1000
0000
,  // measure 80
0010
0100
0000
0101
0000
0001
0010
0000
0100
1000
0000
0001
0100
0000
0010
1000
,  // measure 81
0001
1000
0200
0000
0000
0301
0100
0010
0100
0010
0001
1000
0001
0100
0010
1000
,  // measure 82
0100
0010
0001
0100
0010
1000
0100
0010
0001
0000
M11M
0000
0MM0
0000
0000
0000
;

//---------------dance-single - ----------------
#NOTEDATA:;
#CHARTNAME:10-15;
#STEPSTYPE:dance-single;
#DESCRIPTION:;
#CHARTSTYLE:;
#DIFFICULTY:Hard;
#METER:10;
#RADARVALUES:0.839587,0.830483,0.722596,0.313125,0.738653,732.000000,642.000000,90.000000,39.000000,29.000000,0.000000,0.000000,0.000000,0.000000,0.839587,0.830483,0.722596,0.313125,0.738653,732.000000,642.000000,90.000000,39.000000,29.000000,0.000000,0.000000,0.000000,0.000000;
#CREDIT:;
#OFFSET:-0.024739;
#BPMS:0.000000=164.000000
;
#STOPS:249.750000=0.365852
;
#DELAYS:;
#WARPS:;
#TIMESIGNATURES:0.000000=4=4
;
#TICKCOUNTS:0.000000=4
;
#COMBOS:0.000000=1
;
#SPEEDS:0.000000=1.000000=0.000000=0
;
#SCROLLS:0.000000=1.000000
;
#FAKES:;
#LABELS:0.000000=Song Start
;
#NOTES:
// measure 0
0000
0000
0000
0000
,  // measure 1
0000
0000
0000
0000
,  // measure 2
0000
0000
0000
0000
,  // measure 3
0000
0000
0000
0000
,  // measure 4
1001
0000
0000
0101
0000
0000
1001
0000
0000
0000
1100
0000
1100
0000
0001
0010
,  // measure 5
0001
0000
0000
1001
0000
0000
1010
0000
0000
0000
1001
0000
1001
0000
0001
1000
,  // measure 6
0001
0000
0000
1100
0000
0000
1001
0000
0000
0000
0101
0000
0101
0000
1000
0010
,  // measure 7
1000
0000
0000
0011
0000
0000
1100
0000
0000
0000
0110
0000
0110
0000
1000
0001
,  // measure 8
1000
0000
0010
0000
0100
0001
0000
1002
0000
0000
0013
0000
0100
0000
1000
0000
,  // measure 9
0001
0000
0100
0000
0010
1000
0000
2001
0000
0000
3100
0000
0010
0000
0001
0000
,  // measure 10
1000
0010
2000
0000
0010
0000
0000
0001
0000
0000
3100
0000
1000
0000
0100
0000
,  // measure 11
0001
0000
0100
0000
1000
0010
0000
0002
0000
0000
0013
0100
0010
0000
1000
0000
,  // measure 12
0001
0000
0010
0000
0100
0010
0000
0021
0000
0000
0130
0000
1000
0000
0001
0000
,  // measure 13
1000
0000
0010
0000
0100
0010
0000
1020
0000
0000
0130
0000
0001
0000
1000
0000
,  // measure 14
0001
0010
0002
0000
0010
0000
0000
1000
0000
0000
0013
0000
1000
0000
0010
0000
,  // measure 15
0001
0000
0100
0000
1000
0000
0000
0110
0000
0000
0001
0000
0100
0000
0010
0000
,  // measure 16
1010
0000
M0M0
0000
1001
0000
0000
1100
0000
MM00
0001
0000
0010
0000
0001
0000
,  // measure 17
0101
0000
0M0M
0000
0110
0000
0000
1010
0000
M0M1
0100
0001
0100
0000
0001
0000
,  // measure 18
0010
0000
1000
0000
0010
0000
0001
0200
0000
0000
1300
0000
0100
0000
0001
0000
,  // measure 19
1000
0000
0100
0000
0010
0000
0001
0200
0000
0000
0310
0000
1000
0000
0001
0000
,  // measure 20
0011
0000
00MM
0000
1001
0000
0000
0101
0000
0M0M
1000
0000
0010
0000
1000
0000
,  // measure 21
1100
0000
MM00
0000
0110
0000
0000
0011
0000
10MM
0100
1000
0100
0000
1000
0000
,  // measure 22
1001
0000
0000
0101
0000
0000
0110
0000
1010
0000
0000
1001
0000
0000
1100
0000
,  // measure 23
0110
0000
0000
0011
0000
0000
0110
0000
1100
0000
0000
1001
0000
0000
0001
1000
,  // measure 24
0002
0000
0000
0000
0103
0010
0100
0010
,  // measure 25
1000
0000
0100
0000
0010
0000
0001
2000
0MMM
0000
0000
0000
0000
0000
0000
0000
,  // measure 26
3001
0000
0100
0000
1000
0100
0000
0210
0000
0000
1300
0000
0100
0002
0000
0000
,  // measure 27
1003
0000
0100
0000
0001
0100
0000
0120
0000
0000
0130
0000
1000
0000
0010
0000
,  // measure 28
0001
0000
0010
0000
1000
0100
0000
0210
0000
0000
0301
0000
0100
2000
0000
0000
,  // measure 29
3001
0000
0100
0000
0010
1000
0000
0001
0010
0001
0010
0000
0100
0000
1000
0001
,  // measure 30
1000
0000
0010
0000
0001
0010
0000
0120
0000
0000
0031
0000
0010
2000
0000
0000
,  // measure 31
3001
0000
0010
0000
1000
0010
0000
0210
0000
0000
0310
0000
0001
0000
0100
0000
,  // measure 32
1000
0000
0100
0000
0001
0010
0000
0120
0000
0000
1030
0000
0010
0002
0000
0000
,  // measure 33
0103
0000
1000
0000
0100
0001
0000
0110
0000
0MM0
1000
0001
1000
0000
0001
1000
,  // measure 34
0100
0000
0000
1100
0000
0000
0110
0000
0011
0000
0000
0000
1001
0000
0000
0000
,  // measure 35
0101
0000
0000
0101
0000
0000
0110
0000
1010
0000
0000
0000
1001
0000
0000
0000
,  // measure 36
0011
0000
0010
0000
0100
0000
2100
0000
0000
0000
3001
0000
0100
0000
0010
1000
,  // measure 37
0100
0000
0001
0000
1000
0000
0010
0000
0001
0100
0001
0100
0010
1000
0010
1000
,  // measure 38
0001
0000
1000
0000
1200
0000
0000
0001
0000
0000
0001
0000
0010
0000
0000
0000
,  // measure 39
1000
0000
0310
0001
0100
1000
0001
0010
,  // measure 40
1000
0000
0100
0000
0001
0000
0100
0010
0000
0010
0100
0000
1000
0000
0001
0000
,  // measure 41
0100
0010
0000
0010
1000
0000
0000
1001
0000
1000
0100
1000
0100
0000
0001
0000
,  // measure 42
1000
0000
0010
0000
0001
0000
0100
0000
0010
0000
1000
0010
1000
0000
0001
0010
,  // measure 43
0001
0000
1000
0000
0001
0100
0001
0100
0000
0010
1000
0000
0100
0000
0001
0000
,  // measure 44
0100
0000
1000
0000
0001
0000
0000
0001
0100
0000
0010
0000
0100
0000
0001
0000
,  // measure 45
1000
0000
0100
0000
0001
0000
1000
0000
0010
0000
0001
0000
1000
0010
0100
0001
,  // measure 46
1000
0000
0100
0000
0001
0000
0100
0000
1000
0000
0100
0000
0001
0000
0100
2000
,  // measure 47
0000
0000
3001
0000
0001
0000
0010
0000
0100
0000
0010
0000
0001
2000
0000
0000
,  // measure 48
3001
0000
0100
0000
1000
0000
0100
0000
0001
0000
0100
0000
1000
0000
0100
0002
,  // measure 49
0000
0000
1003
0000
1000
0000
0010
0000
0001
0000
0010
0000
1000
0002
0000
0000
,  // measure 50
1003
0000
0100
0000
0001
0000
1000
0000
0010
0000
0100
0000
1000
0000
0001
0100
,  // measure 51
0001
0000
0100
0000
1000
0000
0001
0000
0010
0000
0100
0000
0001
0000
1000
0001
,  // measure 52
0010
0010
0100
0100
1000
1000
0001
0001
,  // measure 53
1000
0000
0010
0000
0001
0000
0010
0000
1000
0100
1000
0100
0010
0001
0010
0001
,  // measure 54
1000
0010
0100
0001
0010
0100
1000
0000
0000
0000
0000
0000
,  // measure 55
2001
0000
0000
0100
0000
0000
0100
0000
0000
0000
0001
0000
0000
3001
0000
0000
,  // measure 56
2001
0000
0000
3010
0000
0000
0120
0000
0000
1030
0010
0000
0100
0000
0001
0000
,  // measure 57
1002
0000
0000
0100
0000
0000
0100
0000
0000
0000
1000
0000
0000
1003
0000
0000
,  // measure 58
1002
0000
0000
0013
0000
0000
0210
0000
0000
1300
0001
0000
0100
0000
0010
0000
,  // measure 59
1000
0000
0100
0000
0010
0000
0001
0100
0000
0001
0100
0000
1000
0000
0100
0000
,  // measure 60
0001
0000
0010
0000
0100
0000
1000
0010
0000
1000
0010
0000
0001
0000
0010
0000
,  // measure 61
1000
0000
0001
0000
0010
0000
0100
1000
0000
0100
1000
0000
0001
0000
0100
0000
,  // measure 62
1000
0000
0100
0000
0001
0000
0000
0220
M33M
0MM0
0000
0000
1000
0000
0100
0000
,  // measure 63
0001
0100
0000
0100
1000
0000
0010
0000
0001
0010
0000
0100
0010
0000
1000
0000
,  // measure 64
0001
0100
0000
0100
1000
0000
0001
0000
0010
0000
1000
0000
0001
0000
0010
0000
,  // measure 65
0100
0001
0000
0001
0100
0000
0010
0000
0100
1000
0000
0001
0100
0000
1000
0000
,  // measure 66
0100
0010
0000
0020
0000
1030
0100
0000
0010
0000
0100
1000
0001
0000
0100
0000
,  // measure 67
1000
0100
0000
0100
0001
0000
0010
0000
1000
0010
0000
0100
0010
0000
0001
0000
,  // measure 68
1000
0100
0000
0100
0001
0000
1000
0000
0010
0000
0001
0000
1000
0000
0010
0000
,  // measure 69
0100
1000
0000
1000
0100
0000
0010
0000
0100
0001
0000
1000
0100
0000
0010
0000
,  // measure 70
0001
0100
0000
1002
0000
0000
0013
0100
1000
0000
0010
0100
0001
0000
0000
0101
,  // measure 71
0000
0000
1010
0000
1001
0000
0000
0000
0101
0000
0000
0000
0011
0000
0000
1100
,  // measure 72
0000
0011
1001
0000
1100
0000
1010
0010
,  // measure 73
0100
0000
0102
0000
0000
0000
1003
0000
0100
0000
0010
0001
0100
0000
1000
0000
,  // measure 74
0001
0000
0010
0000
1000
0100
1000
0100
0010
0001
0010
0001
1000
0000
0010
0000
,  // measure 75
1000
0100
0000
0100
0000
0100
1000
0000
0001
0000
1000
0010
1000
0000
0010
0000
,  // measure 76
0100
0001
0000
0001
0000
0001
0010
0000
0001
0100
0000
0100
0010
0000
1000
0000
,  // measure 77
0001
0010
0000
0010
0001
0000
1000
0010
0000
0010
1000
0000
0001
0000
1000
0000
,  // measure 78
0100
0010
0000
0100
0010
0000
0001
0000
0100
0000
0010
1000
0001
0000
0010
0000
,  // measure 79
0001
0100
0000
0100
0000
0100
0001
0000
1000
0000
0001
0010
0001
0000
1000
0000
,  // measure 80
0100
1000
0000
1000
0000
1000
0010
0000
1000
0100
0000
0100
0010
0000
0001
0100
,  // measure 81
0000
0010
0200
0000
0000
0000
1300
0000
0100
0000
0001
0000
1001
0000
0000
1100
,  // measure 82
0000
0000
0110
0000
0000
0011
0000
0000
0101
0000
1M1M
0000
M0M0
0000
0000
0000
;

//---------------dance-single - ----------------
#NOTEDATA:;
#CHARTNAME:09-13;
#STEPSTYPE:dance-single;
#DESCRIPTION:;
#CHARTSTYLE:;
#DIFFICULTY:Medium;
#METER:9;
#RADARVALUES:0.598722,0.631167,0.256923,0.417500,0.256923,522.000000,490.000000,32.000000,52.000000,0.000000,0.000000,0.000000,0.000000,0.000000,0.598722,0.631167,0.256923,0.417500,0.256923,522.000000,490.000000,32.000000,52.000000,0.000000,0.000000,0.000000,0.000000,0.000000;
#CREDIT:;
#OFFSET:-0.024739;
#BPMS:0.000000=164.000000
;
#STOPS:249.750000=0.365852
;
#DELAYS:;
#WARPS:;
#TIMESIGNATURES:0.000000=4=4
;
#TICKCOUNTS:0.000000=4
;
#COMBOS:0.000000=1
;
#SPEEDS:0.000000=1.000000=0.000000=0
;
#SCROLLS:0.000000=1.000000
;
#FAKES:;
#LABELS:0.000000=Song Start
;
#NOTES:
// measure 0
0000
0000
0000
0000
,  // measure 1
0000
0000
0000
0000
,  // measure 2
0000
0000
0000
0000
,  // measure 3
0000
0000
0000
0000
,  // measure 4
1000
0000
0000
1000
0000
0000
1000
0000
0000
0000
1100
0000
1100
0000
0000
0000
,  // measure 5
0001
0000
0000
0001
0000
0000
0001
0000
0000
0000
0101
0000
0101
0000
0000
0000
,  // measure 6
0100
0000
0000
0100
0000
0000
0100
0000
0000
0000
1001
0000
1001
0000
0000
0000
,  // measure 7
0010
0000
0000
0010
0000
0000
0010
0000
0000
0000
1001
0000
0110
0000
0000
0000
,  // measure 8
1000
0000
0100
0000
0010
0000
0000
0210
0000
0000
0310
0000
0001
0000
1000
0000
,  // measure 9
0001
0000
0100
0000
0010
0000
0000
0210
0000
0000
0310
0000
1000
0000
0001
0000
,  // measure 10
0010
0000
0100
0000
1000
0000
0000
0020
0000
0000
0130
0000
0001
0000
0000
0000
,  // measure 11
1000
0000
0100
0000
0010
0000
0000
0002
0000
0000
0013
0000
0001
0000
0100
0000
,  // measure 12
0010
0000
1000
0000
0001
0000
0000
0021
0000
0000
0130
0000
1000
0000
0001
0000
,  // measure 13
0100
0000
0001
0000
1000
0000
0000
1020
0000
0000
0130
0000
0001
0000
1000
0000
,  // measure 14
0100
0000
0010
0000
0001
0000
0000
0200
0000
0000
1300
0000
0100
0000
0010
0000
,  // measure 15
1000
0000
0001
0000
0010
0000
0000
0200
0000
0000
1300
0000
0001
0000
1000
0000
,  // measure 16
0010
0000
0000
0000
0101
0000
0000
2010
0000
0000
3010
0000
0100
0000
0001
0000
,  // measure 17
1000
0000
0000
0000
1100
0000
0000
0120
0000
0000
0001
0000
0031
0000
0000
0000
,  // measure 18
0010
0000
0001
0000
0100
0000
0000
0120
0000
0000
0130
0000
0001
0000
1000
0000
,  // measure 19
0100
0000
0010
0000
0100
0000
0000
2001
0000
0000
0000
0000
3010
0000
1000
0000
,  // measure 20
0100
0000
0000
0000
1100
0000
0000
0012
0000
0000
0013
0000
0100
0000
1000
0000
,  // measure 21
0001
0000
0000
0000
0101
0000
0000
0120
0000
0000
1000
0000
1030
0000
0000
0000
,  // measure 22
0001
0000
0000
0001
0000
0000
0100
0000
1000
0000
0000
1000
0000
0000
0100
0000
,  // measure 23
0001
0000
0000
0001
0000
0000
0010
0000
1000
0000
0000
1000
0000
0000
0010
0000
,  // measure 24
0002
0000
0000
0000
1003
0010
1000
0010
,  // measure 25
1000
0000
0001
0000
0010
0000
0000
0200
0000
0000
0000
0000
0300
0000
0000
0000
,  // measure 26
0010
0000
0001
0000
0100
0000
0000
2000
0000
0000
3100
0000
0010
0000
0000
0000
,  // measure 27
0010
0000
1000
0000
0100
0000
0000
0002
0000
0000
0103
0000
1000
0000
0001
0000
,  // measure 28
1000
0000
0010
0000
0100
0000
0000
0002
0000
0000
1003
0000
0100
0000
0000
0000
,  // measure 29
0010
0000
0001
0000
0100
0000
0000
1002
0000
0000
0013
0000
0100
0000
1000
0000
,  // measure 30
0010
0000
1000
0000
0100
0000
0000
0002
0000
0000
0103
0000
0010
0000
0000
0000
,  // measure 31
0010
0000
0001
0000
0100
0000
0000
2000
0000
0000
3100
0000
0001
0000
1000
0000
,  // measure 32
0001
0000
0010
0000
0100
0000
0000
2000
0000
0000
3001
0000
0100
0000
0000
0000
,  // measure 33
1000
0000
0100
0000
0001
0000
0000
0021
0000
0000
0130
0000
1000
0000
0001
0000
,  // measure 34
1000
0000
0000
1000
0000
0000
1000
0000
0010
0000
0000
0000
1001
0000
0000
0000
,  // measure 35
0001
0000
0000
0001
0000
0000
0001
0000
0010
0000
0000
0000
1001
0000
0000
0000
,  // measure 36
0001
0100
1000
0200
0000
1300
0100
0001
,  // measure 37
0010
0100
0010
0100
1000
0100
0010
0001
,  // measure 38
0100
0000
0000
0000
2001
0000
0000
0010
0000
0000
0010
0000
0001
0000
0000
0000
,  // measure 39
0100
0000
3100
0010
0001
1000
0001
0100
,  // measure 40
1000
0000
0100
0000
0001
0000
0000
1000
0000
0000
0001
0000
0010
0000
0100
0000
,  // measure 41
1000
0000
0001
0000
0100
0000
0000
0010
0000
0000
0100
0000
0010
0000
1000
0000
,  // measure 42
0001
0010
1000
0010
0001
1000
0001
0100
,  // measure 43
0001
0000
1000
0000
0100
0000
0000
0010
0000
0000
0100
0000
0010
0000
0001
0000
,  // measure 44
1000
0001
0100
0000
0001
1000
0100
0000
,  // measure 45
0010
0001
0100
1000
0100
0001
0020
0000
,  // measure 46
0130
1000
0001
1000
0010
1000
0001
1000
,  // measure 47
0100
1000
0001
1000
0010
1000
0200
0000
,  // measure 48
0310
0001
1000
0001
0100
0001
1000
0001
,  // measure 49
0010
0001
1000
0001
0100
1000
0200
0000
,  // measure 50
0301
0010
0001
0010
0100
1000
0001
1000
,  // measure 51
0010
1000
0010
0100
0001
1000
0100
0010
,  // measure 52
0001
0100
0001
0100
1000
0100
1000
0100
,  // measure 53
0010
1000
0100
0010
0001
0100
0010
1000
,  // measure 54
0001
1000
0001
1000
0001
1000
0001
0000
0000
0000
0000
0000
,  // measure 55
2002
0000
0000
0003
,  // measure 56
0200
0000
0000
0300
,  // measure 57
3002
0000
0000
0200
0000
0000
0300
0000
,  // measure 58
2003
0000
0000
0020
0000
0000
0030
0000
,  // measure 59
3001
0000
0010
0000
0100
0000
0000
0010
0000
0000
0100
0000
1000
0000
0000
0000
,  // measure 60
1000
0000
0010
0000
0100
0000
0000
0010
0000
0000
0100
0000
0001
0000
0000
0000
,  // measure 61
1000
0000
0100
0000
0010
0000
0000
0001
0000
0000
0100
0000
0010
0000
0000
0000
,  // measure 62
1000
0000
0001
0000
1000
0000
0000
1001
0000
0000
0000
0000
1000
0000
0100
0000
,  // measure 63
0001
0000
0000
0200
0000
0000
0301
0000
0100
0000
1000
0000
0001
0000
1000
0000
,  // measure 64
0010
0000
0000
0002
0000
0000
0013
0000
1000
0000
0001
0000
0010
0000
1000
0000
,  // measure 65
0010
0000
0000
0002
0000
0000
1003
0000
0001
0000
0100
0000
1000
0000
0100
0000
,  // measure 66
0001
0000
0000
0020
0000
0000
0130
0000
1000
0000
1000
0000
0001
0000
0100
0000
,  // measure 67
1000
0000
0000
0200
0000
0000
1300
0000
0100
0000
0001
0000
1000
0000
0001
0000
,  // measure 68
0010
0000
0000
2000
0000
0000
3010
0000
0001
0000
1000
0000
0010
0000
0001
0000
,  // measure 69
0010
0000
0000
2000
0000
0000
3001
0000
1000
0000
0100
0000
0010
0000
0001
0000
,  // measure 70
0100
0000
0000
2010
0000
0000
0000
0000
3001
0000
1000
0000
0100
0000
0000
0100
,  // measure 71
0000
0000
1000
0000
0010
0000
0000
0000
1001
0000
0000
0000
0100
0000
0000
0100
,  // measure 72
0000
0001
0010
0000
1001
0000
1000
0010
,  // measure 73
0001
0020
0000
0031
0010
1000
0100
0010
,  // measure 74
0100
0010
0001
0100
0010
1000
0001
0010
,  // measure 75
0100
0000
0000
0100
0000
0000
0100
0000
0001
0000
0100
0000
0010
0000
0001
0000
,  // measure 76
1000
0000
0000
0010
0000
0000
0010
0000
1000
0000
0000
0100
0000
0000
0010
0000
,  // measure 77
0001
0000
0001
0100
1000
0100
0000
0001
,  // measure 78
1000
0000
0000
0000
0100
0000
0010
0000
0001
0000
0000
1000
0000
0000
0010
0000
,  // measure 79
0100
0000
0000
0100
0000
0000
0100
0000
1000
0000
0100
0000
0010
0000
1000
0000
,  // measure 80
0001
0000
0000
0010
0000
0000
0010
0000
0001
0000
0000
0100
0000
0000
0010
0000
,  // measure 81
1000
0000
0200
0000
0000
0000
0301
0000
0100
0000
1000
0000
0020
0000
0000
0032
,  // measure 82
0000
0000
2003
0000
0000
3200
0000
0000
0302
0000
0020
0000
0033
0000
0000
0000
;

//---------------dance-single - ----------------
#NOTEDATA:;
#CHARTNAME:07-10;
#STEPSTYPE:dance-single;
#DESCRIPTION:;
#CHARTSTYLE:;
#DIFFICULTY:Easy;
#METER:7;
#RADARVALUES:0.455350,0.497537,0.160577,0.401442,0.196707,397.000000,377.000000,20.000000,50.000000,0.000000,0.000000,0.000000,0.000000,0.000000,0.455350,0.497537,0.160577,0.401442,0.196707,397.000000,377.000000,20.000000,50.000000,0.000000,0.000000,0.000000,0.000000,0.000000;
#CREDIT:;
#OFFSET:-0.024739;
#BPMS:0.000000=164.000000
;
#STOPS:249.750000=0.365852
;
#DELAYS:;
#WARPS:;
#TIMESIGNATURES:0.000000=4=4
;
#TICKCOUNTS:0.000000=4
;
#COMBOS:0.000000=1
;
#SPEEDS:0.000000=1.000000=0.000000=0
;
#SCROLLS:0.000000=1.000000
;
#FAKES:;
#LABELS:0.000000=Song Start
;
#NOTES:
// measure 0
0000
0000
0000
0000
,  // measure 1
0000
0000
0000
0000
,  // measure 2
0000
0000
0000
0000
,  // measure 3
0000
0000
0000
0000
,  // measure 4
1000
0000
0000
1000
0000
0000
1000
0000
0000
0000
0100
0000
0100
0000
0000
0000
,  // measure 5
0001
0000
0000
0001
0000
0000
0001
0000
0000
0000
0010
0000
0010
0000
0000
0000
,  // measure 6
0001
0000
0000
0001
0000
0000
0001
0000
0000
0000
0100
0000
0100
0000
0000
0000
,  // measure 7
1000
0000
0000
1000
0000
0000
1000
0000
0000
0000
0010
0000
0010
0000
0000
0000
,  // measure 8
1000
0000
0000
0000
0001
0000
0000
0001
0000
0000
0001
0000
0010
0000
0000
0000
,  // measure 9
0001
0000
0000
0000
1000
0000
0000
1000
0000
0000
1000
0000
0010
0000
0000
0000
,  // measure 10
1000
0100
1000
0000
0001
0100
0001
0000
,  // measure 11
1000
0010
1000
0000
0001
0010
0001
0000
,  // measure 12
1000
0000
0000
0000
0010
0000
0000
0010
0000
0000
0010
0000
0100
0000
0000
0000
,  // measure 13
0001
0000
0000
0000
0010
0000
0000
0010
0000
0000
0010
0000
0100
0000
0000
0000
,  // measure 14
1000
0010
1000
0000
0001
0010
0001
0000
,  // measure 15
1000
0000
0000
0000
0001
0000
0000
0001
0000
0000
1000
0000
0001
0000
1000
0000
,  // measure 16
0002
0000
0000
0000
0203
0000
0000
2300
0000
0000
0000
0000
3000
0000
0000
0000
,  // measure 17
2000
0000
0000
0000
3200
0000
0000
0302
0000
0000
0000
0000
0003
0000
0000
0000
,  // measure 18
0001
0010
0100
0000
0010
0000
0100
0000
,  // measure 19
0010
0100
1000
0000
0001
0000
1000
0001
,  // measure 20
2000
0000
0000
3000
0020
0000
0000
0032
0000
0000
0000
0000
0003
0000
0000
0000
,  // measure 21
0002
0000
0000
0000
0023
0000
0000
2030
0000
0000
0000
0000
3000
0000
0000
0000
,  // measure 22
1000
0000
0000
1000
0000
0000
1000
0000
0001
0000
0000
0001
0000
0000
0001
0000
,  // measure 23
1000
0000
0000
1000
0000
0000
1000
0000
0001
0000
0000
0001
0000
0000
0002
0000
,  // measure 24
2000
0000
0000
0000
,  // measure 25
0000
0000
0000
0000
0000
0000
0000
3003
0000
0000
0000
0000
0000
0000
0000
0000
,  // measure 26
1000
0000
0010
0000
1000
0000
0000
2010
0000
0000
0000
0000
3001
0000
0000
0000
,  // measure 27
0001
0000
0010
0000
0001
0000
0000
0012
0000
0000
0000
0000
1003
0000
0000
0000
,  // measure 28
0001
0000
0100
0000
0010
0000
0000
0120
0000
0000
0000
0000
1030
0000
0000
0000
,  // measure 29
1000
0000
0100
0000
0010
0000
0000
0200
0000
0000
0000
0000
1300
0000
0000
0000
,  // measure 30
0001
0000
0010
0000
0001
0000
0000
0012
0000
0000
0000
0000
1003
0000
0000
0000
,  // measure 31
1000
0000
0010
0000
1000
0000
0000
2010
0000
0000
0000
0000
3001
0000
0000
0000
,  // measure 32
1000
0000
0100
0000
0010
0000
0000
0120
0000
0000
0000
0000
0031
0000
0000
0000
,  // measure 33
0001
0000
0100
0000
0010
0000
0000
2000
0000
0000
0000
0000
3001
0000
0000
0000
,  // measure 34
1000
0000
0000
1000
0000
0000
0100
0000
0100
0000
0000
0000
1001
0000
0000
0000
,  // measure 35
0001
0000
0000
0001
0000
0000
0100
0000
0100
0000
0000
0000
1001
0000
0000
0000
,  // measure 36
1000
0010
1000
0020
0000
1030
0001
0010
,  // measure 37
0200
0010
0010
0310
,  // measure 38
0100
2002
0000
0000
,  // measure 39
0000
3003
1000
0010
,  // measure 40
0100
0000
0001
0000
1000
0000
0000
1000
0000
0000
0001
0000
0010
0000
0000
0000
,  // measure 41
0100
0000
1000
0000
0001
0000
0000
0001
0000
0000
1000
0000
0010
0000
0000
0000
,  // measure 42
0100
0001
1000
0100
0010
0000
0001
0000
,  // measure 43
0100
0000
0000
0000
0001
0000
0000
1000
0000
0000
0001
0000
1000
0000
0000
0000
,  // measure 44
0100
0010
0001
0000
0100
0010
1000
0000
,  // measure 45
0001
0010
0100
1000
0100
0010
0002
0000
,  // measure 46
1003
0000
0000
0000
0010
0000
0000
0000
0001
0000
0000
0000
0010
0000
0000
2000
,  // measure 47
0000
0100
3100
0000
0010
0100
1000
0000
,  // measure 48
0001
0000
0000
0000
0010
0000
0000
0000
1000
0000
0000
0000
0010
0000
0000
0002
,  // measure 49
0000
0100
0103
0000
0010
1000
0001
0000
,  // measure 50
1000
0000
1000
0000
1000
0000
0100
0010
,  // measure 51
0001
0000
0001
0000
0001
0000
0100
0010
,  // measure 52
1000
0000
0100
0010
0001
0000
0100
0010
,  // measure 53
1000
0001
1000
0001
0010
0100
0010
0100
,  // measure 54
2000
3002
1003
0000
,  // measure 55
2002
0000
0000
3000
,  // measure 56
0200
0000
0000
0300
,  // measure 57
2003
0000
0000
0200
0000
0000
0300
0000
,  // measure 58
3002
0000
0000
0020
0000
0000
0030
0000
,  // measure 59
1003
1000
0010
0010
,  // measure 60
0100
0100
0001
0001
,  // measure 61
1000
0100
0010
0000
0001
0100
0010
0000
,  // measure 62
1000
0000
0001
0000
1000
0000
0000
1001
0000
0000
0000
0000
1000
0000
0100
0000
,  // measure 63
1000
0000
0000
0012
0000
0000
0000
0000
1003
0000
0000
0000
0001
0000
0100
0000
,  // measure 64
0001
0000
0000
2010
0000
0000
0000
0000
3001
0000
0000
0000
0010
0000
0100
0000
,  // measure 65
0010
0000
0000
1002
0000
0000
0000
0000
0103
0000
0000
0000
0010
0000
1000
0000
,  // measure 66
0001
0000
0000
2000
0000
0000
0000
0000
3001
0000
0000
0000
1000
0000
0010
0000
,  // measure 67
1000
0000
0000
0102
0000
0000
0000
0000
1003
0000
0000
0000
0001
0000
0010
0000
,  // measure 68
0001
0000
0000
2100
0000
0000
0000
0000
3001
0000
0000
0000
0100
0000
0010
0000
,  // measure 69
0100
0000
0000
2001
0000
0000
0000
0000
3100
0000
0000
0000
0010
0000
0001
0000
,  // measure 70
0100
0000
0000
0220
0000
0000
0000
0000
0330
0000
0000
0000
1000
0000
0000
0010
,  // measure 71
0000
0000
1000
0000
0010
0000
0000
0000
1001
0000
0000
0000
0001
0000
0000
0010
,  // measure 72
0000
0001
0010
0000
1001
0000
1000
0100
,  // measure 73
1000
0200
0000
0310
0001
1000
0020
0000
,  // measure 74
0100
0100
0130
0001
,  // measure 75
1000
0000
0000
1000
0000
0000
1000
0000
0100
0000
0000
0000
0010
0000
0000
0000
,  // measure 76
0001
0000
0000
0001
0000
0000
0001
0000
0100
0000
0000
0000
0001
0000
1000
0000
,  // measure 77
0100
0000
0100
1000
0001
0000
1000
0010
,  // measure 78
0100
0000
0001
0010
0100
0000
1000
0000
,  // measure 79
0001
0000
0000
0001
0000
0000
0001
0000
0100
0000
0000
0000
0010
0000
0000
0000
,  // measure 80
1000
0000
0000
1000
0000
0000
1000
0000
0100
0000
0000
0000
0010
0000
0001
0000
,  // measure 81
1000
0000
0020
0000
0000
0000
1030
0000
0010
0000
0100
0000
0001
0000
0000
0001
,  // measure 82
0000
0000
1000
0000
0000
1000
0000
0000
0001
0000
1000
0000
0000
0000
0000
0000
;

//---------------dance-single - ----------------
#NOTEDATA:;
#CHARTNAME:05-07;
#STEPSTYPE:dance-single;
#DESCRIPTION:;
#CHARTSTYLE:;
#DIFFICULTY:Beginner;
#METER:5;
#RADARVALUES:0.352122,0.432504,0.128461,0.385384,0.020072,307.000000,291.000000,16.000000,48.000000,0.000000,0.000000,0.000000,0.000000,0.000000,0.352122,0.432504,0.128461,0.385384,0.020072,307.000000,291.000000,16.000000,48.000000,0.000000,0.000000,0.000000,0.000000,0.000000;
#CREDIT:;
#OFFSET:-0.024739;
#BPMS:0.000000=164.000000
;
#STOPS:;
#DELAYS:;
#WARPS:;
#TIMESIGNATURES:0.000000=4=4
;
#TICKCOUNTS:0.000000=4
;
#COMBOS:0.000000=1
;
#SPEEDS:0.000000=1.000000=0.000000=0
;
#SCROLLS:0.000000=1.000000
;
#FAKES:;
#LABELS:0.000000=Song Start
;
#NOTES:
// measure 0
0000
0000
0000
0000
,  // measure 1
0000
0000
0000
0000
,  // measure 2
0000
0000
0000
0000
,  // measure 3
0000
0000
0000
0000
,  // measure 4
2200
0000
0000
0000
0000
0300
3000
0000
,  // measure 5
0022
0000
0000
0000
0000
0030
0003
0000
,  // measure 6
0202
0000
0000
0000
0000
0300
0003
0000
,  // measure 7
2020
0000
0000
0000
0000
0030
3000
0000
,  // measure 8
0001
0010
0200
0300
,  // measure 9
0010
0001
0200
0300
,  // measure 10
0010
1000
0010
1000
,  // measure 11
0001
0010
0100
0100
,  // measure 12
1000
0010
0200
0300
,  // measure 13
0010
1000
0200
0300
,  // measure 14
0010
0001
0010
0001
,  // measure 15
0100
1000
0100
0001
,  // measure 16
1000
0000
0000
0000
1000
0000
0000
2000
0000
0000
0000
0000
3000
0000
0000
0000
,  // measure 17
0001
0000
0000
0000
0001
0000
0000
0002
0000
0000
0000
0000
0003
0000
0000
0000
,  // measure 18
0001
0010
1000
0010
,  // measure 19
0001
0100
0010
1000
,  // measure 20
0001
0000
0000
0000
0001
0000
0000
0002
0000
0000
0000
0000
0003
0000
0000
0000
,  // measure 21
1000
0000
0000
0000
1000
0000
0000
2000
0000
0000
0000
0000
3000
0000
0000
0000
,  // measure 22
2200
0000
0000
0300
0000
0000
3000
0000
0202
0000
0000
0300
0000
0000
0003
0000
,  // measure 23
2020
0000
0000
0030
0000
0000
3000
0000
0022
0000
0000
0030
0000
0000
0003
0000
,  // measure 24
2002
0000
0000
0000
,  // measure 25
0000
0000
0000
0000
0000
0000
0000
3003
0000
0000
0000
0000
0000
0000
0000
0000
,  // measure 26
1000
0010
1000
0000
0001
0000
0001
0000
,  // measure 27
1000
0100
1000
0000
0001
0000
0001
0000
,  // measure 28
1000
0010
1000
0000
0001
0000
0001
0000
,  // measure 29
0010
0100
0010
0000
0220
0000
0330
0000
,  // measure 30
0001
0010
0001
0000
1000
0000
1000
0000
,  // measure 31
0001
0100
0001
0000
1000
0000
1000
0000
,  // measure 32
0001
0010
0001
0000
1000
0000
1000
0000
,  // measure 33
0010
0100
0010
0000
2002
0000
3003
0000
,  // measure 34
1000
0100
0001
0001
,  // measure 35
1000
0010
0001
0001
,  // measure 36
0100
1000
0001
0010
,  // measure 37
2000
0100
0100
3100
,  // measure 38
0010
2002
0000
0000
,  // measure 39
0000
3003
0001
0100
,  // measure 40
0010
1000
0010
0000
1000
0000
1000
0000
,  // measure 41
0001
0010
0001
0000
0010
0000
0010
0000
,  // measure 42
0001
0100
0010
1000
,  // measure 43
0100
0000
0010
0100
0010
0000
0001
0000
,  // measure 44
1000
0010
1000
0000
0001
0010
0001
0000
,  // measure 45
1000
0100
0001
0010
,  // measure 46
1000
0100
1000
0100
,  // measure 47
1000
0000
0100
0000
1000
0100
1000
0000
,  // measure 48
0001
0100
0001
0100
,  // measure 49
0001
0000
0100
0000
0001
0100
0001
0000
,  // measure 50
1000
0100
0010
0001
,  // measure 51
1000
0010
0100
0001
,  // measure 52
0010
0010
0100
0100
,  // measure 53
1000
0001
1000
0001
1000
0001
1000
0002
,  // measure 54
2000
0000
3003
0000
,  // measure 55
2002
0000
0000
0003
,  // measure 56
0020
0000
0000
0030
,  // measure 57
0002
0000
0000
3000
,  // measure 58
0020
0000
0000
0033
,  // measure 59
0001
0001
0100
0100
,  // measure 60
0010
0010
1000
1000
,  // measure 61
0001
0010
0100
1000
,  // measure 62
0010
0000
0000
0000
0010
0000
0000
0010
0000
0000
0000
0000
0000
0000
0000
0000
,  // measure 63
1000
0010
1000
0000
0100
0000
0100
0000
,  // measure 64
0010
0001
0010
0000
0100
0000
0100
0000
,  // measure 65
1000
0010
1000
0000
0100
0000
0100
0000
,  // measure 66
1000
0001
1000
0000
2002
0000
3003
0000
,  // measure 67
0001
0010
0001
0000
0100
0000
0100
0000
,  // measure 68
0010
1000
0010
0000
0100
0000
0100
0000
,  // measure 69
0001
0010
0001
0000
0100
0000
0100
0000
,  // measure 70
0001
1000
0001
0000
0220
0000
0330
0000
,  // measure 71
0001
0100
1000
1000
,  // measure 72
0001
0010
1000
1000
,  // measure 73
0100
0001
1000
0010
,  // measure 74
0002
0100
0100
0103
,  // measure 75
0010
0000
0010
0000
1000
0010
1000
0000
,  // measure 76
0001
0000
0001
0000
1000
0100
1000
0000
,  // measure 77
0001
0000
0100
0000
0010
0100
0010
0000
,  // measure 78
1000
0001
1000
0100
,  // measure 79
0010
0000
0010
0000
0001
0010
0001
0000
,  // measure 80
1000
0000
1000
0000
0001
0100
0001
0000
,  // measure 81
1000
0000
0100
0020
0000
0130
0010
0000
,  // measure 82
2002
0000
0000
0000
0000
0000
0000
3003
;
