#TITLE:ONE SHOT, TWO SHOT;
#SUBTITLE:;
#ARTIST:BoA;
#TITLETRANSLIT:;
#SUBTITLETRANSLIT:;
#ARTISTTRANSLIT:;
#GENRE:;
#CREDIT:;
#BANNER:[Round 4] - ONE SHOT TWO SHOT.png;
#BACKGROUND:[Round 4] - ONE SHOT TWO SHOT-bg.png;
#LYRICSPATH:;
#CDTITLE:cdtitle.png;
#MUSIC:[Round 4] - ONE SHOT TWO SHOT.ogg;
#OFFSET:1.022000;
#SAMPLESTART:48.209999;
#SAMPLELENGTH:16.000000;
#LASTBEATHINT:0.044000;
#SELECTABLE:YES;
#BPMS:0.000000=120.000000
,196.000000=60.000000
,198.000000=120.000000
;
#STOPS:
;
#BGCHANGES:3.375=[Round 4] - ONE SHOT TWO SHOT.avi=1.000=0=0=0=StretchNoLoop====,
99999=-nosongbg-=1.000=0=0=0 // don't automatically add -songbackground-
;
#KEYSOUNDS:;
#ATTACKS:;

//---------------dance-single - ----------------
#NOTES:
     dance-single:
     9646_ESP:
     Hard:
     10:
     0.384712,0.464824,0.045515,0.432395,0.060687,355.000000,349.000000,6.000000,57.000000,0.000000,0.000000,0.384712,0.464824,0.045515,0.432395,0.060687,355.000000,349.000000,6.000000,57.000000,0.000000,0.000000:
0000
0000
0000
0000
,
0000
0000
0000
0000
,
0000
0000
0000
0000
,
0000
0000
0000
0000
,
0000
0000
0000
0000
,
0000
0000
0000
0000
,
0000
0000
0000
0000
,
0000
0000
0000
0000
,
0000
0000
0000
0000
,
0100
0100
0200
0000
0310
0000
0000
0100
,
1000
0000
0000
1000
0000
0000
0001
0000
0010
0000
0000
0000
0000
0000
0000
0000
,
0001
0001
0002
0000
1003
0000
0000
0001
,
0100
0000
0000
0000
0000
0000
0000
0000
0000
0100
0000
0000
0000
0000
0000
0000
0000
0000
0010
0000
0000
0000
0000
0000
1000
0000
0000
0000
0000
0000
0000
0000
0000
0000
0000
0000
0001
0000
0000
0000
0100
0000
0000
0000
0010
0000
0000
0000
,
1000
1000
2000
0000
3001
0000
0100
0001
,
0010
0000
0000
0100
0010
0000
1000
0000
0010
0000
0000
0000
0010
0000
0000
0000
,
0001
0001
0002
0000
1003
0000
0100
1000
,
0010
0000
0000
0100
0010
0000
0001
0000
0010
0000
0000
0000
0010
0000
0010
0000
,
0100
0001
1000
0010
0100
0000
0010
1000
,
0001
0010
0100
0010
0001
0000
0100
0010
,
1000
0100
0001
0000
1000
0010
0001
0000
,
1000
0100
0001
0100
1000
0000
0001
0001
,
0100
0010
0100
0001
0001
0000
0010
0010
,
0100
1000
0010
0100
0010
0000
0010
0000
,
0100
0001
0020
0000
0130
0000
0100
0001
,
0100
1000
0020
0000
0130
1000
0100
0010
,
1010
0000
2100
0000
3001
0100
0110
0000
,
0010
1000
0100
1000
0020
0000
0032
0000
,
1003
0000
1000
0100
0001
0000
0001
0010
,
1000
0000
1000
0010
0001
0010
0100
1000
,
0001
0100
0020
0000
0130
0000
1001
0000
,
0100
0001
0010
0001
0200
0000
2300
0000
,
3001
0000
0001
0010
1000
0000
1000
0100
,
0001
0000
0001
0100
2000
0000
3001
0000
,
1000
1000
0001
0001
0100
0010
2000
3000
,
0001
0001
0010
0010
0100
1000
0020
0030
,
0001
0001
0010
0010
1000
0200
0020
0330
,
0100
2000
0020
3030
0001
0020
2000
3030
,
0001
0001
1000
1000
0100
0010
0002
0003
,
1000
1000
0010
0010
0100
0001
0020
0030
,
1000
1000
0010
0010
0001
0200
0020
0330
,
0100
0002
0020
0033
1000
0010
0001
0010
,
0001
0001
0002
0000
1003
0000
0000
0001
,
0100
0000
0000
0100
0000
0000
0010
0000
1000
0000
0001
0000
0100
0000
0010
0000
,
1000
1000
2000
0000
3001
0000
0000
0010
,
0100
0000
0000
0000
0000
0000
0000
0000
0000
0100
0000
0000
0000
0000
0000
0000
0000
0000
0010
0000
0000
0000
0000
0000
0001
0000
0000
0000
0000
0000
0100
0000
0000
0000
0000
0000
0010
0000
0000
0000
1000
0000
0000
0000
0100
0000
0000
0000
,
0010
0010
0020
0000
0130
0000
0200
0000
,
2300
3002
0203
0310
,
1000
0100
1000
0010
0100
0001
0010
0100
,
0010
0001
0100
0010
1000
0100
0001
0100
0010
0002
0000
0000
,
1003
0000
0000
0101
0010
1000
0100
1000
,
0020
0000
0032
0000
1003
0000
1000
0100
,
0001
0000
0001
0010
1000
0000
1000
0010
,
0001
0010
0100
1000
0001
0100
0020
0000
,
0130
0000
1001
0000
0100
0001
0010
0001
,
0200
0000
2300
0000
3001
0000
0001
0010
,
1000
0000
1000
0100
0001
0000
0001
0100
,
2000
0000
3001
0000
1000
1000
0001
0001
,
0100
0010
2000
3000
0001
0001
0010
0010
,
0100
1000
0020
0030
0001
0001
0010
0010
,
1000
0200
0020
0330
0100
2000
0020
3030
,
0001
0020
2000
3030
0001
0001
1000
1000
,
0100
0010
0002
0003
1000
1000
0010
0010
,
0100
0001
0020
0030
1000
1000
0010
0010
,
0001
0200
0020
0330
0100
0002
0020
0033
,
1000
0020
0002
0030
0003
0000
0000
0000
;

//---------------dance-single - ----------------
#NOTES:
     dance-single:
     9646_BEG:
     Beginner:
     3:
     0.110537,0.169924,0.000000,0.098616,0.000000,102.000000,102.000000,0.000000,13.000000,0.000000,0.000000,0.110537,0.169924,0.000000,0.098616,0.000000,102.000000,102.000000,0.000000,13.000000,0.000000,0.000000:
0000
0000
0000
0000
,
0000
0000
0000
0000
,
0000
0000
0000
0000
,
0000
0000
0000
0000
,
0000
0000
0000
0000
,
0000
0000
0000
0000
,
0000
0000
0000
0000
,
0000
0000
0000
0000
,
0000
0000
0000
0000
,
0020
0000
0030
0000
,
0100
0000
0100
0000
,
2000
0000
3000
0000
,
0001
0000
0001
0000
,
0002
0000
0003
0000
,
1000
0000
1000
0000
,
0020
0000
0030
0000
,
0100
0000
0100
0000
,
0001
0000
0000
0000
,
0010
0000
0000
0000
,
0100
0000
0000
0000
,
1000
0000
0000
0000
,
0001
0000
0000
0000
,
0100
0000
0000
0000
,
0010
0000
0000
0000
,
1000
0000
0000
0000
,
0002
0000
0003
0000
,
0001
0001
0001
0000
,
1000
0000
0001
0000
,
0010
0000
0100
0000
,
2000
0000
3000
0000
,
1000
1000
1000
0000
,
0001
0000
1000
0000
,
0010
0000
0100
0000
,
0010
0010
0010
0000
,
1000
1000
1000
0000
,
0001
0001
0001
0000
,
0010
0000
0100
0000
,
0010
0010
0010
0000
,
0001
0001
0001
0000
,
1000
1000
1000
0000
,
0010
0000
0000
0000
,
0002
0000
0003
0000
,
0000
0000
0100
0000
,
0200
0000
0300
0000
,
0000
0000
1000
0000
,
2000
0000
3000
0000
,
0002
0000
0003
0000
,
0020
0000
0030
0000
,
0200
0000
0000
0000
,
0300
0000
1000
1000
,
1000
0000
0001
0000
,
1000
0000
0010
0000
,
0100
0000
0002
0000
,
0003
0000
0001
0001
,
0001
0000
1000
0000
,
0001
0000
0010
0000
,
0100
0000
0010
0010
,
0010
0000
0001
0001
,
0001
0000
1000
1000
,
1000
0000
0010
0000
,
0100
0000
0010
0010
,
0010
0000
1000
1000
,
1000
0000
0001
0001
,
0001
0000
0010
0000
,
0100
0000
0000
0000
;

//---------------dance-single - ----------------
#NOTES:
     dance-single:
     9646_DSP:
     Medium:
     8:
     0.334862,0.391431,0.212404,0.166889,0.022758,309.000000,281.000000,28.000000,22.000000,0.000000,0.000000,0.334862,0.391431,0.212404,0.166889,0.022758,309.000000,281.000000,28.000000,22.000000,0.000000,0.000000:
0000
0000
0000
0000
,
0000
0000
0000
0000
,
0000
0000
0000
0000
,
0000
0000
0000
0000
,
0000
0000
0000
0000
,
0000
0000
0000
0000
,
0000
0000
0000
0000
,
0000
0000
0000
0000
,
0000
0000
0000
0000
,
0010
0020
0000
0000
0130
0000
0000
0100
,
1000
0000
0000
1000
0000
0000
0010
0000
0100
0000
0000
0000
0000
0000
0000
0000
,
0010
0020
0000
0000
0130
0000
0000
0100
,
0001
0000
0000
0001
0000
0000
0010
0000
0100
0000
0000
0000
0100
0000
0000
0000
,
1000
2000
0000
0000
3001
0000
0000
0001
,
0100
0000
0000
0100
0000
0000
0010
0000
1000
0000
0000
0000
1000
0000
0000
0000
,
0001
0002
0000
0000
1003
0000
0000
1000
,
0100
0000
0000
0100
0000
0000
0010
0000
0001
0000
0000
0000
0001
0000
0000
0000
,
1000
0100
0010
0000
0100
0000
0100
0000
,
1000
0010
0100
0000
0010
0000
0010
0000
,
1000
0100
1000
0000
0001
0100
0001
0000
,
0010
0100
0010
0000
0001
0000
0001
0000
,
1000
0100
0001
0000
0100
0000
0100
0000
,
1000
0010
0001
0000
0010
0000
0010
0000
,
0100
0001
0020
0000
0130
0000
0100
0000
,
0010
0001
0200
0000
0310
0000
0010
0000
,
0100
0000
2001
0000
3100
0010
0001
0000
,
1000
0100
1000
0000
0010
0000
0020
0000
,
0130
0000
0001
0010
0100
0000
0100
0010
,
0001
0000
0001
0100
0010
0000
1000
0000
,
0001
0000
2100
0000
3010
0100
0001
0000
,
0010
0100
0010
0000
0001
0000
0002
0000
,
1003
0000
0100
1000
0010
0000
0010
0100
,
0001
0000
0001
0010
0100
0000
0100
0000
,
1100
0000
0101
0000
1000
0100
0001
0000
,
0101
0000
1100
0000
0001
0100
1000
0000
,
0110
0000
1001
0000
0010
0100
0010
0000
,
0001
0100
1000
0000
1000
0010
0001
0000
,
0011
0000
1010
0000
0001
0010
1000
0000
,
1010
0000
0011
0000
1000
0010
0001
0000
,
0110
0000
1001
0000
0100
0010
0100
0000
,
1000
0010
0001
0000
0001
0100
1000
0000
,
0001
0002
0000
0000
1003
0000
0000
0001
,
1000
0000
0000
1000
0000
0000
0010
0000
0100
0000
0001
0000
0010
0000
0000
0000
,
0100
0200
0000
0000
0310
0000
0000
0100
,
0010
0000
0000
0010
0000
0000
0001
0000
1000
0000
0100
0000
0001
0000
0100
0000
,
0010
0020
0000
0000
0031
0000
0002
0000
,
0023
2030
3200
0301
,
0010
0100
1000
0001
,
1000
1000
0010
0010
0100
0001
0020
0000
,
0130
0000
0000
0011
1000
0100
1000
0000
,
0010
0000
0020
0000
0130
0000
0001
0010
,
0100
0000
0100
0010
0001
0000
0001
0100
,
0010
1000
0001
2100
,
3010
0100
0001
0000
0010
0100
0010
0000
,
0001
0000
0002
0000
1003
0000
0100
1000
,
0010
0000
0010
0100
0001
0000
0001
0010
,
0100
0100
1100
0101
,
1000
0100
0001
0000
0101
0000
1100
0000
,
0001
0100
1000
0000
0110
0000
1001
0000
,
0010
0100
0010
0000
0001
0100
1000
0000
,
1000
0010
0001
0000
0011
0000
1010
0000
,
0001
0010
1000
0000
1010
0000
0011
0000
,
1000
0010
0001
0000
0110
0000
1001
0000
,
0100
0010
0100
0000
1000
0010
0001
0000
,
0001
0100
2000
0000
3000
0000
0000
0000
;

//---------------dance-single - ----------------
#NOTES:
     dance-single:
     9646_BSP:
     Easy:
     6:
     0.248166,0.318038,0.174475,0.318607,0.000000,229.000000,206.000000,23.000000,42.000000,0.000000,0.000000,0.248166,0.318038,0.174475,0.318607,0.000000,229.000000,206.000000,23.000000,42.000000,0.000000,0.000000:
0000
0000
0000
0000
,
0000
0000
0000
0000
,
0000
0000
0000
0000
,
0000
0000
0000
0000
,
0000
0000
0000
0000
,
0000
0000
0000
0000
,
0000
0000
0000
0000
,
0000
0000
0000
0000
,
0000
0000
0000
0000
,
0200
0000
0310
0000
,
0100
0100
1100
0000
,
0002
0000
1003
0000
,
0001
0001
0101
0010
,
2000
0000
3001
0000
,
1000
1000
1100
0000
,
0020
0000
0130
0000
,
0010
0010
0011
0001
,
1000
0001
1000
1000
,
0100
0010
0100
0100
,
2000
3010
0002
0103
,
1000
1000
1000
2000
,
3001
1000
0001
0001
,
0010
0100
0010
0010
,
0001
0200
0310
0010
,
1000
0200
0310
0010
,
0001
2001
3001
0001
,
1000
0001
0001
2000
,
3001
0002
0013
0020
,
1030
2000
3100
0100
,
0001
0002
1003
1000
,
0100
0010
0001
2000
,
3010
0020
0031
0002
,
0103
0200
1300
1000
,
0100
0100
0010
0011
,
0100
0100
0010
1010
,
0001
0010
0100
1100
,
0001
0101
0010
1001
,
0010
0010
0100
1100
,
0010
0010
0100
0101
,
1000
0100
0010
0011
,
0100
1001
0001
0001
,
2000
0000
3001
0000
,
1000
0001
0001
0100
,
0020
0000
1030
0000
,
0001
1000
1000
0001
,
0020
0000
0130
0020
,
0032
2003
0002
3003
,
0010
0010
0100
0100
,
2000
3020
0032
0203
,
1300
0000
0000
1001
0001
0000
1000
0000
,
1000
0002
1003
2000
,
3010
0020
0031
0002
,
0103
0100
1000
2000
,
3001
0001
0100
0010
,
1000
0002
0013
0020
,
1030
2000
3100
0200
,
0301
0001
0100
0100
,
0010
1010
0100
0100
,
0010
0011
1000
0010
,
0100
0101
1000
1100
,
0010
1001
0010
0010
,
0100
0101
0010
0010
,
0100
1100
0001
0100
,
0010
1010
0002
0013
,
2000
0002
3003
0000
;

//---------------pump-single - ----------------
#NOTES:
     pump-single:
     9646_S8:
     Hard:
     7:
     0.387963,0.464824,0.045515,0.341364,0.064480,358.000000,351.000000,6.000000,45.000000,0.000000,1.000000,0.387963,0.464824,0.045515,0.341364,0.064480,358.000000,351.000000,6.000000,45.000000,0.000000,1.000000:
00000
00000
00000
00000
,
00000
00000
00000
00000
,
00000
00000
00000
00000
,
00000
00000
00000
00000
,
00000
00000
00000
00000
,
00000
00000
00000
00000
,
00000
00000
00000
00000
,
00000
00000
00000
00000
,
00000
00000
00000
00000
,
00100
00100
00200
00000
10300
00000
00000
01000
,
00100
00000
00000
00100
00000
00000
00010
00000
01000
00000
00000
00000
00000
00000
00000
00000
,
00001
00001
00002
00000
00103
00000
00000
10000
,
01000
00000
00000
00000
00000
00000
00000
00000
00000
01000
00000
00000
00000
00000
00000
00000
00000
00000
00001
00000
00000
00000
00000
00000
00010
00000
00000
00000
00000
00000
00000
00000
00000
00000
00000
00000
00100
00000
00000
00000
00010
00000
00000
00000
00100
00000
00000
00000
,
01000
01000
02000
00000
03010
00000
00010
00100
,
01000
00000
00000
10000
00100
00000
00001
00000
00010
00000
00000
00000
00010
00000
00000
00000
,
10000
10000
20000
00000
30001
00000
00001
00100
,
10000
00000
00000
01000
00100
00000
00010
00000
00001
00000
00000
00000
00001
00000
00010
00000
,
00100
00010
00001
00100
01000
00000
10000
01000
,
00100
01000
10000
00100
00010
00000
00100
01000
,
00100
10000
01000
00000
00100
00001
00010
00000
,
00100
01000
00010
00100
01000
00000
00100
00010
,
01000
10000
00100
10000
01000
00000
00100
01000
,
00010
00001
00100
00001
00010
00000
00010
00000
,
00100
00001
02000
00000
03100
00000
00100
00010
,
00100
01000
00002
00000
00013
00100
01000
10000
,
10100
00000
00102
00000
00103
00100
01010
00000
,
00010
00100
01000
00100
00020
00000
02030
00000
,
13000
00000
10000
00100
00001
00000
00001
00010
,
00100
00000
00100
01000
10000
00100
00001
00100
,
00010
00100
02000
00000
13000
00000
11000
00000
,
00100
01000
10000
01000
00020
00000
00032
00000
,
00103
00000
00100
10000
00001
00000
00001
00010
,
00100
00000
00100
01000
20000
00000
30100
00000
,
00001
00001
10000
10000
00100
01000
00020
00030
,
00100
00100
00001
00001
00010
00100
02000
03000
,
00100
00100
00010
00010
00001
00100
00020
00030
,
10000
00100
02000
03000
00001
00100
00020
00030
,
10000
10000
00001
00001
00100
00010
02000
03000
,
00100
00100
10000
10000
01000
00100
00020
00030
,
00100
00100
01000
01000
10000
00100
02000
03000
,
00001
00100
00020
00030
01000
10000
00010
00001
,
00100
00100
00200
00000
00310
00000
00000
00001
,
00100
00000
00000
00100
00000
00000
10000
00000
00001
00000
00100
00000
10000
00000
01000
00000
,
00100
00100
00200
00000
01300
00000
00000
00010
,
00100
00000
00000
00000
00000
00000
00000
00000
00000
00100
00000
00000
00000
00000
00000
00000
00000
00000
00010
00000
00000
00000
00000
00000
01000
00000
00000
00000
00000
00000
10000
00000
00000
00000
00000
00000
01000
00000
00000
00000
00001
00000
00000
00000
00100
00000
00000
00000
,
00010
00010
00020
00000
00130
00000
00200
00000
,
00302
00000
00003
10000
00100
00000
01000
00000
00020
00000
00000
00000
00031
00000
00000
00000
,
00010
00010
00100
00100
00001
00010
00100
01000
,
10000
01000
00100
00001
00010
00100
00001
00010
00100
02000
00000
00000
,
03010
00000
00000
01110
00010
00100
01000
00100
,
00020
00000
02030
00000
13000
00000
10000
00100
,
00001
00000
00001
00010
00100
00000
00100
01000
,
10000
00100
00001
00100
00010
00100
02000
00000
,
13000
00000
11000
00000
00100
01000
10000
01000
,
00020
00000
00032
00000
00103
00000
00100
10000
,
00001
00000
00001
00010
00100
00000
00100
01000
,
20000
00000
30100
00000
00001
00001
10000
10000
,
00100
01000
00020
00030
00100
00100
00001
00001
,
00010
00100
02000
03000
00100
00100
00010
00010
,
00001
00100
00020
00030
10000
00100
02000
03000
,
00001
00100
00020
00030
10000
10000
00001
00001
,
00100
00010
02000
03000
00100
00100
10000
10000
,
01000
00100
00020
00030
00100
00100
01000
01000
,
10000
00100
02000
03000
10000
00100
00002
00003
,
00010
00100
02000
00000
03000
00000
00000
00000
;

//---------------pump-single - ----------------
#NOTES:
     pump-single:
     9646_S11:
     Challenge:
     8:
     0.458403,0.513753,0.015172,0.925476,0.314814,423.000000,421.000000,2.000000,122.000000,0.000000,1.000000,0.458403,0.513753,0.015172,0.925476,0.314814,423.000000,421.000000,2.000000,122.000000,0.000000,1.000000:
// measure 0
00000
00000
00000
00000
,  // measure 1
00000
00000
00000
00000
,  // measure 2
00000
00000
00000
00000
,  // measure 3
00000
00000
00000
00000
,  // measure 4
00000
00000
00000
00000
,  // measure 5
00000
00000
00000
00000
,  // measure 6
00000
00000
00000
00000
,  // measure 7
00000
00000
00000
00000
,  // measure 8
00000
00000
00000
00000
,  // measure 9
00100
00000
00000
00200
00000
00000
00301
00000
00100
00000
00010
00000
00001
00000
00000
00000
00000
00000
00100
00000
00001
00000
00010
00000
,  // measure 10
00100
00000
00000
00100
00000
00000
00001
00000
10000
00000
00000
00000
00000
00000
00000
00000
,  // measure 11
00100
00000
00000
00200
00000
00000
10300
00000
00100
00000
01000
00000
10000
00000
00000
00000
00000
00000
00100
00000
10000
00000
01000
00000
,  // measure 12
00100
00000
00000
00000
00000
00000
00000
00000
00000
00100
00000
00000
00000
00000
00000
00000
00000
00000
10000
00000
00000
00000
00000
00000
00001
00000
00000
00000
00000
00000
00000
00000
00000
00000
00000
00000
00100
00000
00000
00000
00100
00000
00000
00000
00100
00000
00000
00000
,  // measure 13
00010
00000
00000
00020
00000
00000
01030
00000
10000
00000
00100
00000
00001
00000
00000
00000
00000
00000
00001
00000
00010
00000
00100
00000
,  // measure 14
01000
00000
00000
01000
00001
00000
00100
00000
00010
00000
00000
00000
00010
00000
00000
00000
,  // measure 15
01000
00000
00000
02000
00000
00000
03010
00000
00001
00000
00100
00000
10000
00000
00000
00000
00000
00000
10000
00000
01000
00000
00100
00000
,  // measure 16
00010
00000
00000
00010
10000
00000
00100
00000
01000
00000
00000
00000
00100
00000
00100
00000
,  // measure 17
00010
00000
00001
00100
00010
00000
02000
00000
00100
00000
03000
00000
00010
00000
00100
00000
,  // measure 18
01000
00000
10000
00100
01000
00000
00020
00000
00100
00000
00030
00000
01000
00000
00100
00000
,  // measure 19
01000
00000
00001
00200
00010
00300
00100
00000
00010
00000
10000
00200
01000
00300
00100
00000
,  // measure 20
01000
00000
00000
00000
00000
00000
00001
00000
00000
00200
00000
00000
00010
00000
00000
00000
00000
00000
00310
00000
00000
00000
00000
00000
01000
00000
00000
00000
00000
00000
00000
00000
00000
00000
00000
00000
00010
00000
00000
00000
00100
00000
00000
00000
00010
00000
00000
00000
,  // measure 21
00001
00000
00010
00100
00001
00000
20000
00000
00100
00000
30000
00000
00001
00000
00100
00000
,  // measure 22
10000
00000
01000
00100
10000
00000
00002
00000
00100
00000
00003
00000
00100
00000
00000
00000
,  // measure 23
00100
00010
02000
00000
13000
00000
10000
01000
,  // measure 24
00100
01000
00020
00000
00031
00010
00100
10000
,  // measure 25
01000
00000
00000
00000
01020
00000
00030
00001
00100
00000
10000
00000
00100
01000
00000
00020
,  // measure 26
00000
01030
00010
00000
00100
00000
00001
00000
00200
00000
10300
00000
00200
00001
00000
00000
,  // measure 27
00310
00000
00010
02000
20000
33000
01000
00020
,  // measure 28
00002
00033
00010
02000
13000
01000
00010
00010
,  // measure 29
00100
00000
00001
00000
00020
00000
00030
00100
01000
00000
10000
00000
01000
00010
00000
00200
,  // measure 30
00000
00301
00010
00100
01000
00000
00010
00000
02000
00000
00100
00000
03020
00100
00000
00000
,  // measure 31
10030
00000
00100
02000
20000
33000
00100
00020
,  // measure 32
00002
00033
00100
02000
23000
00000
31000
00000
,  // measure 33
00020
00000
00130
00000
02000
00000
03100
00000
00020
00000
00130
00020
00000
00000
10030
00000
,  // measure 34
00002
00000
00103
00000
20000
00000
30100
00000
00002
00000
00103
00002
00000
00000
01003
00000
,  // measure 35
00020
00000
00130
00000
20000
00000
30100
00000
00010
00000
00100
00002
00020
00000
00033
00000
,  // measure 36
00001
00000
00100
00020
20000
00000
30030
00000
00010
00000
00100
00002
02000
00000
03003
00000
,  // measure 37
00002
00000
00103
00000
20000
00000
30100
00000
00002
00000
00103
00002
00000
00000
01003
00000
,  // measure 38
00020
00000
00130
00000
02000
00000
03100
00000
00020
00000
00130
00020
00000
00000
10030
00000
,  // measure 39
00002
00000
00103
00000
02000
00000
03100
00000
00001
00000
00100
00020
00000
00000
00031
00000
,  // measure 40
00010
00000
00100
00002
00000
00000
00103
00000
00001
00000
10000
00000
00010
00000
01000
00000
,  // measure 41
00100
00100
00200
20300
30001
00000
00000
00100
,  // measure 42
00010
00000
00000
00010
00000
00000
00001
00000
00010
00000
00100
00000
00001
00000
10000
00000
,  // measure 43
00100
00200
00000
02300
03010
00000
00000
00100
,  // measure 44
00001
00000
00000
00000
00000
00000
00000
00000
00000
00001
00000
00000
00000
00000
00000
00000
00000
00000
00010
00000
00000
00000
00000
00000
00001
00000
00000
00000
00000
00000
00100
00000
00000
00000
00000
00000
00010
00000
00000
00000
01000
00000
00000
00000
00100
00000
00000
00000
,  // measure 45
00010
00010
00020
00032
00103
00000
00200
00320
,  // measure 46
02030
00000
03000
00100
02000
00000
23000
00000
32000
00000
00000
00000
03010
00000
00000
00000
,  // measure 47
00100
00010
01000
00100
01000
00010
00100
00001
,  // measure 48
00100
10000
01000
10000
00100
00001
00010
00100
01000
00020
00000
00000
,  // measure 49
01030
00000
00001
00000
00200
00000
00000
00000
00000
00000
00000
00000
10301
00000
00000
00002
00000
00000
01003
00000
00010
00000
00000
00000
00100
00000
00000
00000
00001
00000
00000
00000
,  // measure 50
00200
00000
10300
00000
00200
00001
00000
00000
00310
00000
00000
00000
00010
00000
02000
00000
,  // measure 51
20000
33000
01000
00020
00002
00033
00010
02000
,  // measure 52
13000
00000
01000
00000
00010
00000
00010
00000
00100
00000
00001
00000
00020
00000
00030
00100
,  // measure 53
01000
00000
10000
00000
01000
00010
00000
00200
00000
00301
00010
00100
01000
00000
00010
00000
,  // measure 54
02000
00000
00100
00000
03020
00100
00000
00000
10030
00000
00000
00000
00100
00000
02000
00000
,  // measure 55
20000
33000
00100
00020
00002
00033
00100
02000
,  // measure 56
23000
00000
31000
00000
00020
00130
02000
03100
,  // measure 57
00020
00000
00130
00020
00000
00000
10030
00000
00002
00000
00103
00000
20000
00000
30100
00000
,  // measure 58
00002
00000
00103
00002
00000
00000
01003
00000
00020
00000
00130
00000
20000
00000
30100
00000
,  // measure 59
00010
00000
00100
00002
00020
00000
00033
00000
00001
00000
00100
00020
20000
00000
30030
00000
,  // measure 60
00010
00000
00100
00002
02000
00000
03003
00000
00002
00000
00103
00000
20000
00000
30100
00000
,  // measure 61
00002
00000
00103
00002
00000
00000
01003
00000
00020
00000
00130
00000
02000
00000
03100
00000
,  // measure 62
00020
00000
00130
00020
00000
00000
10030
00000
00002
00000
00103
00000
02000
00000
03100
00000
,  // measure 63
00001
00000
00100
00020
00000
00000
00031
00000
00010
00000
00100
20000
00000
00000
31000
00000
,  // measure 64
01000
00000
00100
00002
00000
00020
00000
00000
00033
00000
00000
00000
00000
00000
00000
00000
;
