#TITLE:LANCE;
#SUBTITLE:;
#ARTIST:Ras;
#TITLETRANSLIT:;
#SUBTITLETRANSLIT:;
#ARTISTTRANSLIT:;
#GENRE:Tech Electro;
#CREDIT:;
#BANNER:[Round 4] - LANCE.png;
#BACKGROUND:[Round 4] - LANCE-bg.png;
#LYRICSPATH:;
#CDTITLE:cdtitle.png;
#MUSIC:[Round 4] - LANCE.ogg;
#OFFSET:-0.794000;
#SAMPLESTART:99.223999;
#SAMPLELENGTH:15.000000;
#SELECTABLE:YES;
#BPMS:0.000000=156.000000
,159.000000=78.000000
,191.000000=156.000000
;
#STOPS:30.000000=0.385000,
219.000000=1.154000
;
#BGCHANGES:-2.000=[Round 4] - LANCE.avi=1.000=0=0=0=StretchNoLoop==CrossFade_Fastest==,
99999=-nosongbg-=1.000=0=0=0 // don't automatically add -songbackground-
;
#KEYSOUNDS:;
#ATTACKS:;

//---------------dance-single - ----------------
#NOTES:
     dance-single:
     :
     Beginner:
     2:
     0.169850,0.195665,0.039369,0.000000,0.000000,151.000000,146.000000,5.000000,0.000000,0.000000,0.000000,0.169850,0.195665,0.039369,0.000000,0.000000,151.000000,146.000000,5.000000,0.000000,0.000000,0.000000:
// measure 0
0000
0000
0000
0000
,  // measure 1
0000
0000
0000
0000
,  // measure 2
0000
0000
0000
0000
,  // measure 3
0000
0000
0000
0000
,  // measure 4
0010
0000
0100
0000
,  // measure 5
0010
0010
0010
0000
,  // measure 6
0100
0000
0010
0000
,  // measure 7
1001
0000
0000
0001
,  // measure 8
0000
0100
0000
1000
,  // measure 9
0000
0100
0000
0001
,  // measure 10
0000
1000
0000
0010
,  // measure 11
0000
0100
0000
0001
,  // measure 12
0000
0010
0000
1000
,  // measure 13
0000
0010
0000
0001
,  // measure 14
0000
0100
0000
0010
,  // measure 15
0010
0010
0000
1000
,  // measure 16
0000
0100
0000
0001
,  // measure 17
0000
0100
0000
1000
,  // measure 18
0000
0001
0000
0010
,  // measure 19
0000
0100
0000
1000
,  // measure 20
0000
0010
0000
0001
,  // measure 21
0000
0010
0000
1000
,  // measure 22
0000
0100
0000
0010
,  // measure 23
0010
0010
0000
0001
,  // measure 24
0001
0000
1000
0000
,  // measure 25
1000
0000
0010
0000
,  // measure 26
0010
0000
0100
0000
,  // measure 27
0100
0000
0001
0000
,  // measure 28
0001
0000
1000
0000
,  // measure 29
1000
0000
0100
0000
,  // measure 30
0100
0000
0000
1001
,  // measure 31
0000
0000
0000
1000
,  // measure 32
1000
0000
0001
0000
,  // measure 33
0001
0000
0010
0000
,  // measure 34
0010
0000
0100
0000
,  // measure 35
0100
0000
1000
0000
,  // measure 36
1000
0000
0001
0000
,  // measure 37
0001
0000
0100
0000
,  // measure 38
0100
0000
0000
1001
,  // measure 39
0000
0000
0000
0001
,  // measure 40
0000
0100
0100
0100
,  // measure 41
0000
0010
0010
0010
,  // measure 42
0000
1000
1000
1000
,  // measure 43
0000
1000
1000
1000
,  // measure 44
0000
0100
0100
0100
,  // measure 45
0000
0010
0010
0010
,  // measure 46
0000
0001
0001
0001
,  // measure 47
0000
0010
0000
0010
,  // measure 48
0000
0010
0000
0100
,  // measure 49
0000
0100
0000
0010
,  // measure 50
0000
0010
0000
0100
,  // measure 51
0000
0100
0000
0010
,  // measure 52
0000
0100
0000
0010
,  // measure 53
0000
0100
0000
0010
,  // measure 54
0010
0010
0000
1001
,  // measure 55
0000
0001
0000
0100
,  // measure 56
0000
1000
0000
0100
,  // measure 57
0000
0001
0000
0010
,  // measure 58
0000
0100
0000
1000
,  // measure 59
0000
0010
0000
0100
,  // measure 60
0000
0001
0000
1000
,  // measure 61
0000
0001
0000
0010
,  // measure 62
0000
0100
0000
1000
,  // measure 63
1000
1000
0000
0100
,  // measure 64
0000
0001
0000
0100
,  // measure 65
0000
1000
0000
0010
,  // measure 66
0000
0100
0000
0001
,  // measure 67
0000
0010
0000
0100
,  // measure 68
0000
1000
0000
0001
,  // measure 69
0001
0000
1000
0000
,  // measure 70
0010
0010
0010
0000
,  // measure 71
1001
0000
0000
0000
;

//---------------dance-single - ----------------
#NOTES:
     dance-single:
     :
     Easy:
     5:
     0.318328,0.363377,0.173224,0.543294,0.000000,283.000000,261.000000,22.000000,69.000000,0.000000,0.000000,0.318328,0.363377,0.173224,0.543294,0.000000,283.000000,261.000000,22.000000,69.000000,0.000000,0.000000:
// measure 0
0000
0000
0000
0000
,  // measure 1
0000
0000
0000
0000
,  // measure 2
0000
0000
0000
0000
,  // measure 3
0000
0000
0000
0000
,  // measure 4
1000
1000
0001
0001
,  // measure 5
0100
0100
0010
0010
,  // measure 6
2000
3002
0203
0320
,  // measure 7
1030
0001
1001
1000
,  // measure 8
0100
0002
0103
0100
,  // measure 9
1000
0002
0013
0001
,  // measure 10
0100
2000
3100
0100
,  // measure 11
0001
2000
3010
1000
,  // measure 12
0010
0002
0013
0010
,  // measure 13
1000
0002
0103
0001
,  // measure 14
0010
2000
3010
0010
,  // measure 15
0001
2002
3003
2000
,  // measure 16
3010
0200
0301
1000
,  // measure 17
0100
0020
0031
0002
,  // measure 18
0013
0200
1300
0001
,  // measure 19
0100
0010
1000
0002
,  // measure 20
0103
2000
3100
0001
,  // measure 21
0010
0200
1300
2000
,  // measure 22
3100
0002
0103
2000
,  // measure 23
3020
0230
0301
1000
,  // measure 24
2200
3300
0100
0010
,  // measure 25
0022
0033
0001
1000
,  // measure 26
2020
3030
0010
0100
,  // measure 27
0202
0303
0001
1000
,  // measure 28
2002
3003
0001
0010
,  // measure 29
0220
0330
0100
1000
,  // measure 30
2002
3003
0001
2002
,  // measure 31
0000
0000
3003
0001
,  // measure 32
0101
0001
0100
0010
,  // measure 33
1010
0010
1000
0001
,  // measure 34
0011
0001
0010
0100
,  // measure 35
1100
0100
1000
0001
,  // measure 36
1001
0001
1000
0010
,  // measure 37
0110
0010
0100
0001
,  // measure 38
1001
0001
1000
2002
,  // measure 39
0000
0000
0000
0000
3003
0000
2000
0010
,  // measure 40
0000
0010
0000
0010
0000
3010
0020
0100
,  // measure 41
0000
0100
0000
0100
0000
0130
0200
0001
,  // measure 42
0000
0001
0000
0001
0000
0301
0002
1000
,  // measure 43
0000
1000
0000
1000
0000
1003
0002
0010
,  // measure 44
0000
0010
0010
0010
0000
0013
0020
0100
,  // measure 45
0000
0100
0100
0100
0000
0130
0200
1000
,  // measure 46
0000
1000
1000
1000
0000
1300
2000
0001
,  // measure 47
0000
0001
0002
0000
3003
0000
1000
0000
,  // measure 48
0010
0100
0001
0100
,  // measure 49
0010
1000
1000
0001
,  // measure 50
0010
0100
1000
0100
,  // measure 51
0010
0001
0001
1000
,  // measure 52
0010
0100
0001
0010
,  // measure 53
0100
1000
0001
2000
,  // measure 54
3002
0023
0130
1001
,  // measure 55
1000
0200
0310
0100
,  // measure 56
1000
0020
0130
0010
,  // measure 57
1000
0200
0310
0001
,  // measure 58
0100
0010
1000
0001
,  // measure 59
1000
0100
0001
0100
,  // measure 60
1000
0010
0001
0010
,  // measure 61
1000
0100
0010
0001
,  // measure 62
0100
0010
2002
3003
,  // measure 63
0001
0200
0310
0100
,  // measure 64
0001
0020
0130
0010
,  // measure 65
0001
0200
0310
1000
,  // measure 66
0100
0010
0001
1000
,  // measure 67
0001
0100
1000
0100
,  // measure 68
0001
0010
1000
0010
,  // measure 69
0002
0203
0320
1030
,  // measure 70
2002
0000
0000
3003
,  // measure 71
0110
0000
0000
0000
;

//---------------dance-single - ----------------
#NOTES:
     dance-single:
     :
     Medium:
     7:
     0.443184,0.475186,0.149603,0.385818,0.110234,394.000000,375.000000,19.000000,49.000000,0.000000,0.000000,0.443184,0.475186,0.149603,0.385818,0.110234,394.000000,375.000000,19.000000,49.000000,0.000000,0.000000:
// measure 0
0000
0000
0000
0000
,  // measure 1
0000
0000
0000
0000
,  // measure 2
0000
0000
0000
0000
,  // measure 3
0000
0000
0000
0000
,  // measure 4
2000
0010
0100
3001
,  // measure 5
0002
0010
0100
1003
,  // measure 6
1000
0001
1000
0001
0010
0100
0010
0100
,  // measure 7
1000
0000
0000
0001
0000
0000
1001
0000
0000
0000
0000
0000
1000
0000
0000
0000
,  // measure 8
0010
0000
0000
0020
0000
0000
0000
0000
0130
0000
0001
0000
1000
0000
0000
0000
,  // measure 9
0100
0000
0000
0200
0000
0000
0000
0000
0310
0000
0001
0000
1000
0000
0000
0000
,  // measure 10
0001
0000
0000
0002
0000
0000
0000
0000
0103
0000
0010
0000
1000
0000
0000
0000
,  // measure 11
0001
0000
0000
0200
0000
0000
0000
0000
0310
0000
1000
0000
0001
0000
0000
0000
,  // measure 12
0010
0000
0000
0020
0000
0000
0000
0000
0130
0000
1000
0000
0001
0000
0000
0000
,  // measure 13
0100
0000
0000
0200
0000
0000
0000
0000
0310
0000
1000
0000
0001
0000
0000
0000
,  // measure 14
1000
0000
0000
2000
0000
0000
0000
0000
3100
0000
0010
0000
0001
0000
0000
0000
,  // measure 15
1000
0000
0000
2002
0000
0000
0000
0000
3003
0000
0000
0000
0001
0000
0100
0000
,  // measure 16
0010
0000
0000
1000
0000
0000
0100
0000
0010
0000
0000
0000
0001
0000
0100
0000
,  // measure 17
0010
0100
0001
1000
0100
0000
0010
0001
,  // measure 18
0100
0000
0000
0010
0000
0000
1000
0000
0100
0000
0000
0000
0010
0000
0001
0000
,  // measure 19
1000
0000
0000
0010
0000
0000
1000
0000
0001
0000
0000
0000
1000
0000
0100
0000
,  // measure 20
0010
0000
0000
0001
0000
0000
0100
0000
0010
0000
0000
0000
1000
0000
0100
0000
,  // measure 21
0010
0100
1000
0001
0100
0000
0010
0000
,  // measure 22
1000
0000
0000
0001
0000
0000
1000
0000
1001
0000
0000
0000
0002
0000
0000
0000
,  // measure 23
0203
0000
0320
0000
1030
0000
1000
0010
,  // measure 24
1000
0000
0000
0001
0000
0000
0001
0000
0100
0000
0000
0000
0010
0000
1000
0000
,  // measure 25
0010
0000
0000
0100
0000
0000
0100
0000
0001
0000
1000
0000
0001
0000
0010
0000
,  // measure 26
0001
0000
0000
1000
0000
0000
1000
0000
0100
0000
0000
0000
0010
0000
0001
0000
,  // measure 27
0010
0000
0000
0100
0000
0000
0100
0000
1000
0000
0001
0000
0100
0000
0010
0000
,  // measure 28
0100
0000
0000
0001
0000
0000
0001
0000
1000
0000
0000
0000
0010
0000
0100
0000
,  // measure 29
0010
0000
0000
1000
0000
0000
1000
0000
0001
0000
1000
0000
0100
0000
0010
0000
,  // measure 30
0100
0000
0000
1000
0000
0000
1000
0000
0001
0000
0000
0000
2002
0000
0000
0000
,  // measure 31
0000
0000
0000
0000
3003
0000
1000
0001
,  // measure 32
0100
0000
0000
0010
0000
0000
0010
0000
1000
0000
0000
0000
0001
0000
0100
0000
,  // measure 33
0010
0000
0000
1000
0000
0000
1000
0000
0001
0000
0010
0000
0001
0000
1000
0000
,  // measure 34
0100
0000
0000
0010
0000
0000
0010
0000
0001
0000
0000
0000
1000
0000
0100
0000
,  // measure 35
0010
0000
0000
0001
0000
0000
0001
0000
1000
0000
0010
0000
0100
0000
0001
0000
,  // measure 36
1000
0000
0000
0100
0000
0000
0100
0000
0010
0000
0000
0000
0001
0000
1000
0000
,  // measure 37
0010
0000
0000
1000
0000
0000
1000
0000
0001
0000
1000
0000
0100
0000
1000
0000
,  // measure 38
0001
0000
0000
0100
0000
0000
0100
0000
0010
0000
0000
0000
2002
0000
0000
0000
,  // measure 39
0000
0000
0000
0000
3003
0000
2000
0010
,  // measure 40
0000
3010
0020
0001
0000
0031
0002
0100
,  // measure 41
0000
0103
0200
1000
0000
1300
2000
0010
,  // measure 42
0000
3010
0020
0100
0000
0130
0200
0001
,  // measure 43
0000
0301
0002
1000
0000
1003
0002
0010
,  // measure 44
0000
0013
0020
1000
0000
1030
2000
0100
,  // measure 45
0000
3100
0200
0001
0000
0301
0002
0010
,  // measure 46
0000
0013
0020
0100
0000
0130
0200
1000
,  // measure 47
0000
1300
2002
0000
0000
3003
0002
0000
,  // measure 48
0100
1000
0010
1000
,  // measure 49
0100
0010
0100
2003
,  // measure 50
0100
0001
0010
0001
,  // measure 51
0100
0000
0010
0000
0100
0000
3001
1000
,  // measure 52
0010
0000
1000
0010
0100
0000
0010
0100
,  // measure 53
0001
0000
0100
0001
1000
0000
0002
0000
,  // measure 54
2003
3020
0130
1001
,  // measure 55
0001
0100
1000
0200
0000
0301
0010
2000
,  // measure 56
0000
3010
0001
0200
0000
0310
1000
0100
,  // measure 57
1000
0010
0100
0002
0000
1003
0100
0001
,  // measure 58
0100
1000
0000
1010
0000
0101
0000
0001
,  // measure 59
2000
0000
3100
0002
0000
0103
1000
0001
,  // measure 60
0000
0101
0000
1010
0000
1000
0001
0020
,  // measure 61
0000
0130
1000
0001
0100
0010
0000
0110
,  // measure 62
0000
1001
0000
1000
0001
0100
0010
1000
,  // measure 63
0001
0100
0010
0100
0001
1000
0100
0000
,  // measure 64
1000
0010
0100
0010
1000
0001
0100
0000
,  // measure 65
0010
1000
0100
0001
0100
1000
0010
0000
,  // measure 66
0100
0001
1000
0001
0010
0100
1000
0000
,  // measure 67
1002
0000
0103
0010
1000
0001
0000
0101
,  // measure 68
0000
1010
0000
1100
0000
0011
0000
0001
,  // measure 69
1000
0010
0100
0001
1000
0100
0010
0001
,  // measure 70
0200
0010
0000
0010
0000
0010
0310
0000
,  // measure 71
1001
0000
0000
0000
;

//---------------dance-single - ----------------
#NOTES:
     dance-single:
     :
     Hard:
     9:
     0.661402,0.754707,0.409439,0.259836,0.484241,588.000000,536.000000,52.000000,33.000000,0.000000,0.000000,0.661402,0.754707,0.409439,0.259836,0.484241,588.000000,536.000000,52.000000,33.000000,0.000000,0.000000:
// measure 0
0000
0000
0000
0000
,  // measure 1
0000
0000
0000
0000
,  // measure 2
0000
0000
0000
0000
,  // measure 3
0000
0000
0000
0000
,  // measure 4
1010
0000
1100
0000
1001
0000
0001
0010
,  // measure 5
0011
0000
0101
0000
1001
0000
1000
0100
,  // measure 6
0010
0000
0001
0000
0100
0000
0010
0000
1000
0001
1000
0001
1000
0001
1000
0000
,  // measure 7
1001
0000
0000
0110
0000
0000
2002
0000
3003
0000
0000
0000
1000
0000
0000
0000
,  // measure 8
0101
0000
0000
0200
0000
0000
0310
0000
1000
0000
0001
0000
0010
0000
0000
0000
,  // measure 9
1100
0000
0000
2000
0000
0000
3001
0000
0100
0000
0010
0000
1000
0000
0000
0000
,  // measure 10
1001
0000
0000
0002
0000
0000
0103
0000
0001
0000
0010
0000
0100
0000
0000
0000
,  // measure 11
1001
0000
0000
2000
0000
0000
3100
0000
0010
0001
0010
0000
0001
0000
0000
0000
,  // measure 12
1100
0000
0000
0200
0000
0000
0310
0000
0001
0000
1000
0000
0010
0000
0000
0000
,  // measure 13
0101
0000
0000
0002
0000
0000
1003
0000
0100
0000
0010
0000
0001
0000
0000
0000
,  // measure 14
1001
0000
0000
2000
0000
0000
3100
0000
1000
0000
0010
0000
1010
0000
0000
0000
,  // measure 15
0101
0000
0000
1001
0000
0000
1000
0000
0001
0010
0001
0000
1000
0000
0010
0000
,  // measure 16
0100
0000
0001
1000
0000
0001
0100
0000
0010
0000
1000
0000
0001
0000
0100
0000
,  // measure 17
0010
1000
0100
0001
0100
1000
0001
1000
,  // measure 18
0010
0000
0100
0010
0000
1000
0001
0000
0010
0000
1000
0000
0010
0000
0001
0000
,  // measure 19
1000
0000
0010
0100
0000
0010
1000
0000
0100
0000
0010
0000
0001
0000
0010
0000
,  // measure 20
0100
0000
1000
0001
0000
1000
0100
0000
0010
0000
0001
0000
1000
0000
0100
0000
,  // measure 21
0010
0001
0100
1000
0100
0001
1001
0000
,  // measure 22
1010
0000
0000
0101
0000
0000
1001
0000
1000
0000
0100
0000
0010
0000
0001
0000
,  // measure 23
0100
1000
0001
0010
1000
0100
0010
0001
,  // measure 24
0101
0000
0000
0010
0000
0000
1000
0000
1001
0000
0000
0000
0001
0000
1000
0000
,  // measure 25
1100
0000
0000
0010
0000
0000
0001
0000
1000
0100
1000
0000
0001
0000
1000
0000
,  // measure 26
1100
0000
0000
0010
0000
0000
0001
0000
1001
0000
0000
0000
1000
0000
0001
0000
,  // measure 27
0101
0000
0000
0010
0000
0000
1000
0000
0001
0100
0001
0100
0010
0000
1000
0000
,  // measure 28
1100
0000
0000
0010
0000
0000
0001
0000
1001
0000
0000
0000
1000
0000
0001
0000
,  // measure 29
0011
0000
0000
0100
0000
0000
1000
0000
0001
0010
0001
0000
1000
0000
0001
0000
,  // measure 30
0101
0000
0000
0010
0000
0000
1000
0000
1100
0000
0000
0000
1002
0000
0000
0000
,  // measure 31
1000
0000
0000
0010
0000
0000
0010
0000
0010
0000
0013
0000
0001
0000
1000
0000
,  // measure 32
1010
0000
0000
0100
0000
0000
0001
0000
0010
0000
1000
0000
0010
0000
0001
0000
,  // measure 33
0101
0000
0000
0010
0000
0000
1000
0000
0001
0010
0001
0000
1000
0000
0001
0000
,  // measure 34
0011
0000
0000
0100
0000
0000
1000
0000
0010
0000
0001
0000
0010
0000
1000
0000
,  // measure 35
1100
0000
0000
0010
0000
0000
0001
0000
1000
0010
1000
0010
0100
0000
0001
0000
,  // measure 36
0011
0000
0000
0100
0000
0000
1000
0000
0010
0000
0100
0000
0010
0000
1000
0000
,  // measure 37
1100
0000
0000
0010
0000
0000
0001
0000
1000
0010
1000
0000
0100
0000
1000
0000
,  // measure 38
1010
0000
0000
0100
0000
0000
0001
0000
1000
0000
0001
0000
2001
0000
0000
0000
,  // measure 39
0001
0000
0000
0100
0000
3100
1000
0100
2000
0000
0000
0000
3002
0000
0103
0020
,  // measure 40
0000
0000
1030
0200
0000
0000
0310
0002
0000
0000
2003
0000
3020
0000
0130
0002
,  // measure 41
0000
0000
0013
0100
1000
0002
0000
0103
0020
0000
2030
0000
3002
0000
0013
0200
,  // measure 42
0000
1300
0001
0100
0000
0101
0000
1010
0000
1000
0100
0002
0000
0103
2000
0000
,  // measure 43
3001
0010
0000
0011
0000
1100
0000
0110
0000
1001
0000
1000
0002
0010
0000
0010
,  // measure 44
0000
0100
0000
0100
0000
0010
0000
1000
0000
0100
0000
1000
2003
0010
0000
0010
,  // measure 45
0000
0100
0000
0100
0000
0010
0000
0001
0000
0100
0000
0100
3200
0010
0000
0010
,  // measure 46
0000
0001
0000
0001
0000
0010
0000
0001
0000
0010
0000
0010
0310
0100
1000
0002
,  // measure 47
0000
0103
0010
1000
2002
0000
3003
0000
0001
0010
0100
1000
0001
0000
0100
0000
,  // measure 48
0010
0100
0001
1000
0001
0100
0010
1000
,  // measure 49
0001
1000
0010
0100
0010
1000
0001
0010
,  // measure 50
0100
1000
0010
0100
0001
1000
0100
0010
,  // measure 51
0001
0100
0010
1000
0100
0010
0001
0001
,  // measure 52
1000
1000
0100
0100
0010
0010
0001
0001
,  // measure 53
0100
0000
0100
0000
0010
0000
0010
0000
1000
0000
1000
0000
0001
0000
0010
0001
,  // measure 54
0010
0000
0100
1000
0100
0000
1000
0001
1000
0001
1000
0000
1001
0000
0000
0000
,  // measure 55
0001
0000
0100
0010
0100
0000
0001
0000
1000
0000
0001
0000
0010
0000
0100
0000
,  // measure 56
1000
0000
0010
0100
0010
0000
1000
0000
0001
0000
1000
0000
0100
0000
0010
0000
,  // measure 57
0001
0000
0100
0010
0100
0000
0001
0000
0010
0000
1000
0000
0001
0000
0100
0000
,  // measure 58
1000
0010
0100
0001
0010
1000
0010
0001
,  // measure 59
1000
0000
0100
0010
0100
0000
1000
0000
0001
0000
1000
0000
0010
0000
0100
0000
,  // measure 60
0001
0000
0010
0100
0010
0000
0001
0000
1000
0000
0001
0000
0100
0000
0010
0000
,  // measure 61
1000
0000
0100
0010
0100
0000
1000
0000
0010
0000
0001
0000
1000
0000
0100
0000
,  // measure 62
0001
0000
0010
0000
0100
0000
1000
0000
0010
0000
0100
0010
0000
0000
1000
0000
,  // measure 63
0001
0000
0010
0100
0010
0000
0001
0000
1000
0000
0010
0000
0100
0000
0001
0000
,  // measure 64
1000
0000
0100
0010
0100
0000
1000
0000
0001
0000
0100
0000
0010
0000
1000
0000
,  // measure 65
0100
0000
0010
0001
0010
0000
0100
0000
1000
0000
0010
0100
0010
0000
1000
0000
,  // measure 66
0100
0000
0010
0000
0001
0000
0100
0000
0010
0000
1000
0001
0000
0010
0001
0000
,  // measure 67
1000
0000
0010
0100
0010
0000
1000
0000
0001
0000
0010
0000
0100
0000
1000
0000
,  // measure 68
0001
0000
0100
0010
0100
0000
0001
0000
1000
0000
0100
0000
0010
0000
0001
0000
,  // measure 69
0100
0000
0010
0000
1000
0000
0001
0000
0100
0010
0100
0010
1000
0001
1000
0001
,  // measure 70
0200
0010
0000
0010
0000
0010
0310
0000
,  // measure 71
1001
0000
0000
0000
;

//---------------dance-single - ----------------
#NOTES:
     dance-single:
     :
     Challenge:
     11:
     0.795257,0.922419,0.188972,0.212593,0.917301,707.000000,683.000000,24.000000,27.000000,0.000000,0.000000,0.795257,0.922419,0.188972,0.212593,0.917301,707.000000,683.000000,24.000000,27.000000,0.000000,0.000000:
// measure 0
0000
0000
0000
0000
,  // measure 1
0000
0000
0000
0000
,  // measure 2
0000
0000
0000
0000
,  // measure 3
0000
0000
0000
0000
,  // measure 4
1000
0000
0010
0000
0001
0000
0010
0000
1000
0000
0001
0000
0100
0000
0010
1000
,  // measure 5
0001
0000
0010
0000
1000
0000
0010
0000
0001
0000
1000
0000
0100
0000
0010
0001
,  // measure 6
1000
0000
0001
0000
0010
0000
0100
0000
1000
0010
1000
0010
0100
0001
0100
0001
,  // measure 7
1000
0000
0000
0110
0000
0000
2002
0000
3003
0000
0000
0000
0001
0000
0100
0000
,  // measure 8
0010
1000
0000
0002
0000
0000
1003
0000
0100
0000
0001
0000
0100
0000
0010
0000
,  // measure 9
0001
1000
0000
0020
0000
0000
0130
0000
0001
0010
0001
0000
1000
0000
0100
0000
,  // measure 10
0010
0001
0000
2000
0000
0000
3001
0000
0100
0000
1000
0000
0100
0000
0010
0000
,  // measure 11
1000
0001
0000
0020
0000
0000
0130
0000
1000
0010
1000
0000
0100
0000
0010
0000
,  // measure 12
0001
1000
0000
0020
0000
0000
0130
0000
0001
0000
1000
0000
0100
0000
0001
0000
,  // measure 13
0100
1000
0000
0020
0000
0000
0130
0000
0001
1000
0001
0000
0100
0000
0010
0000
,  // measure 14
1000
0001
0000
0020
0000
0000
0130
0000
1000
0000
0001
0000
0101
0000
0000
0000
,  // measure 15
1010
0000
0000
1001
0000
0000
0001
0000
0100
0010
0100
0010
1000
0000
0001
0000
,  // measure 16
0100
0000
0001
1000
0000
0010
0100
0010
1000
0000
0001
0000
0100
0000
0010
1000
,  // measure 17
0001
1000
0010
0000
0100
0000
0001
0000
1000
0100
1000
0000
0010
0000
0100
0000
,  // measure 18
0001
0000
0010
0001
0000
1000
0010
0100
0010
0000
1000
0000
0001
0000
0100
0010
,  // measure 19
0100
0000
0001
1000
0000
0010
0100
0000
0001
1000
0100
1000
0001
0000
1000
0000
,  // measure 20
0100
0000
1000
0001
0000
0010
0100
0010
0001
0000
1000
0000
0100
0000
0010
0001
,  // measure 21
1000
0001
0010
0000
0100
0000
1000
0000
0001
0100
0001
0000
1001
0000
1000
0000
,  // measure 22
1010
0000
0000
0101
0000
0000
1001
0000
1000
0000
0010
0000
0100
0000
0001
0010
,  // measure 23
0100
0000
1000
0100
0010
0000
0001
0100
0010
1000
0010
0100
0001
0000
0100
0000
,  // measure 24
0010
1000
0000
1000
0000
0001
0010
0000
0100
0000
1000
0000
0010
0000
0001
0000
,  // measure 25
0010
0100
0000
0100
0000
0001
1000
0000
0100
0010
0100
0000
1000
0000
0100
0000
,  // measure 26
0010
0001
0000
0001
0000
1000
0010
0000
0100
0000
0001
0000
0010
0000
1000
0000
,  // measure 27
0010
0100
0000
0100
0000
1000
0001
0000
0100
0010
0100
0010
1000
0000
0001
0000
,  // measure 28
0100
0010
0000
0010
0000
1000
0001
0000
0010
0000
1000
0000
0010
0000
0001
0000
,  // measure 29
1000
0100
0000
0100
0000
0010
0001
0000
1000
0100
1000
0000
0001
0000
1000
0000
,  // measure 30
0100
0010
0000
0010
0000
0001
0100
0000
0010
0000
1000
0000
1001
0000
0001
0000
,  // measure 31
1000
0100
0000
0100
0000
0100
0010
0100
0010
0001
1000
0001
1000
0010
0100
0000
,  // measure 32
0100
0001
0000
0001
0010
0000
0001
0000
1000
0010
1000
0000
0001
0000
1000
0000
,  // measure 33
0100
0010
0000
0010
0001
0000
1000
0000
0010
0100
0010
0100
0001
0000
0100
0000
,  // measure 34
1000
0100
0000
0100
0010
0000
1000
0000
0001
0010
0001
0000
1000
0000
0001
0000
,  // measure 35
0100
0010
0000
0010
1000
0000
0001
0000
0010
0100
1000
0100
0010
0000
0001
0000
,  // measure 36
0100
0010
0000
0010
1000
0000
0001
0000
1000
0100
1000
0000
0001
0000
1000
0000
,  // measure 37
0100
0001
0000
0001
0100
0000
1000
0000
0001
0100
0001
0100
0010
0000
1000
0000
,  // measure 38
0100
0010
0000
0010
0001
0000
1000
0000
0001
0100
0001
0000
1001
0000
1000
0000
,  // measure 39
0001
0010
0000
0010
0000
0010
0001
2000
0002
0000
3003
0000
0001
0100
1000
0200
,  // measure 40
0000
0301
0010
2000
0000
3010
0001
0200
0000
0310
1000
0010
0100
0001
0010
2000
,  // measure 41
0000
3010
0001
1000
0100
0001
0100
1000
0010
0100
0001
0010
0200
0000
1300
0020
,  // measure 42
0000
0130
0001
1000
0000
1100
0000
0011
0000
0001
0100
2000
0000
3100
0001
1000
,  // measure 43
0100
0010
0000
0011
0000
0101
0000
1010
0000
0101
0000
0001
1000
0100
0001
0200
,  // measure 44
0000
1300
0010
0002
0000
0013
1000
0200
0000
0310
0001
0010
0200
0000
1300
0010
,  // measure 45
0100
0001
0000
1001
0000
1000
0100
0020
0000
0031
0100
2000
0000
3100
0001
0010
,  // measure 46
0100
1000
0000
1010
0000
0101
0000
0011
0000
1100
0000
1000
0100
0010
0001
0200
,  // measure 47
0000
1300
0001
0010
1000
0200
0000
0310
0001
1000
0100
0010
0001
0000
0100
0000
,  // measure 48
1000
0100
0001
0010
1000
0010
0001
1000
,  // measure 49
0100
0001
0100
1000
0010
0001
0010
1000
,  // measure 50
0100
0001
1000
0010
0001
0100
0001
0010
,  // measure 51
1000
0000
0001
0000
0100
0000
1000
0000
0010
0000
1000
0000
0001
0100
0001
0100
,  // measure 52
0010
1000
0010
1000
0100
0010
0100
0010
0001
1000
0001
1000
0010
0100
0010
0100
,  // measure 53
0001
0010
0001
0010
0100
1000
0100
1000
0001
0010
0001
0010
0200
0000
1000
0010
,  // measure 54
0000
0000
0001
0010
0000
0000
1000
0010
0300
0000
0001
0000
1001
0000
0000
0000
,  // measure 55
1000
0000
0010
0100
0010
0000
1000
0000
0001
0000
0010
0100
0010
0000
0001
0000
,  // measure 56
1000
0000
0001
0010
0001
0000
1000
0000
0010
0000
1000
0100
1000
0000
0001
0000
,  // measure 57
1000
0000
0100
0010
0001
0000
1000
0000
0001
0000
0100
0010
1000
0000
0001
0000
,  // measure 58
1000
0000
0100
0010
0100
0000
1000
0001
1000
0000
0010
0100
0010
0000
1000
0000
,  // measure 59
0001
0000
0010
0100
0010
0000
0001
0000
1000
0000
0010
0100
0010
0000
1000
0000
,  // measure 60
0001
0000
1000
0010
1000
0000
0001
0000
0010
0000
0001
0100
0001
0000
1000
0000
,  // measure 61
0001
0000
0100
0010
1000
0000
0001
0000
1000
0000
0100
0010
0001
0000
1000
0000
,  // measure 62
0001
0000
0100
0010
0100
0000
0001
1000
0001
0000
0010
0100
0000
0010
0001
0000
,  // measure 63
1000
0000
0001
0100
0001
0000
0010
0000
0100
0000
1000
0010
1000
0000
0001
0000
,  // measure 64
0010
0000
0100
1000
0100
0000
0010
0000
0001
0000
0100
0010
0100
0000
0001
0000
,  // measure 65
1000
0000
0001
0100
0010
0000
1000
0000
0001
0000
1000
0010
0100
0000
0001
0000
,  // measure 66
1000
0000
0001
0010
0001
0000
1000
0100
1000
0000
0001
0100
0000
0010
0100
0000
,  // measure 67
0001
0000
1000
0100
1000
0000
0010
0000
0100
0000
0001
0010
0001
0000
1000
0000
,  // measure 68
0010
0000
0100
0001
0100
0000
0010
0000
1000
0000
0100
0010
0100
0000
1000
0000
,  // measure 69
0001
0010
0001
0000
1000
0010
1000
0000
0001
0100
0001
0100
0010
1000
0010
1000
,  // measure 70
0001
0010
0100
1000
0010
0100
0001
1000
,  // measure 71
1001
0000
0000
0000
;
