#TITLE:Ghost;
#SUBTITLE:;
#ARTIST:Mystery Skulls;
#TITLETRANSLIT:;
#SUBTITLETRANSLIT:;
#ARTISTTRANSLIT:;
#GENRE:;
#CREDIT:;
#BANNER:ghost_bn.png;
#BACKGROUND:ghost_bg.png;
#LYRICSPATH:;
#CDTITLE:cdtitle.png;
#MUSIC:ghost.ogg;
#OFFSET:0.000000;
#SAMPLESTART:38.000000;
#SAMPLELENGTH:16.000000;
#SELECTABLE:YES;
#BPMS:0.000000=120.000000
;
#STOPS:
;
#BGCHANGES:;
#KEYSOUNDS:;
#ATTACKS:;

//---------------dance-single - ----------------
#NOTES:
     dance-single:
     :
     Hard:
     8:
     0.437617,0.543791,0.041118,0.301535,0.161047,447.000000,441.000000,6.000000,44.000000,0.000000,0.000000,0.437617,0.543791,0.041118,0.301535,0.161047,447.000000,441.000000,6.000000,44.000000,0.000000,0.000000:
0000
0000
0000
0000
,
0000
0000
0000
0000
,
0000
0000
0000
0000
,
0000
0000
0000
0000
0000
0001
0100
0020
,
0100
0000
0130
0000
0001
1000
0000
0200
,
0000
0000
1000
0000
1300
0100
0010
0200
,
0010
0000
0000
0000
0310
0000
0000
0000
0001
0000
0000
0100
0000
0000
0020
0000
,
0000
0000
0100
0000
0130
0001
0010
0002
,
1000
0000
0000
0000
0103
0000
0000
0000
0010
0000
0000
1000
0000
0000
0100
0000
,
0000
0010
0100
1000
0100
0020
0000
0000
,
0001
0100
1000
0100
,
0001
0000
0100
0000
0130
0010
0001
2000
,
0001
0000
3001
0000
0100
0000
0010
0200
,
0000
0000
0010
0000
0310
1000
0100
0020
,
0100
0000
0130
0000
1000
0000
0001
0020
,
0000
0000
0001
0000
0031
0100
0010
0200
,
0010
0000
0000
0000
0310
0000
0000
0000
1000
0000
0000
0100
0000
0000
0010
0000
,
0000
0001
0100
0000
0101
0000
1000
0000
,
1100
1000
0100
0010
0001
0100
0001
1000
,
0010
1000
0010
1000
0001
0100
0001
0100
0001
0010
0001
0010
0002
0000
0000
0000
,
0013
0010
0011
0000
0100
0000
1000
0100
,
0000
0000
0100
0000
2000
0000
0000
0000
3100
0010
0100
0010
0002
0000
0000
0000
,
0013
0000
0001
0010
0200
0000
0301
0100
,
1000
0000
0100
0000
1000
0000
0100
0000
0010
0000
0001
0000
2000
0000
3001
1000
,
0001
0010
1000
0001
0200
0000
1300
0100
,
0001
0000
1000
0000
0020
0000
0000
0000
1030
0010
0001
0010
1000
0000
0000
0000
,
1000
0100
1000
0010
0001
0000
1000
0001
,
0000
0000
0001
0000
0010
0000
0100
0000
0010
0000
0001
0000
1000
0001
1000
0001
,
1000
1000
1010
0000
0100
0000
0001
0100
,
0000
0000
0100
0000
0002
0000
0000
0000
0103
0010
0100
0010
2000
0000
0000
0000
,
3010
0000
1000
0010
0200
0000
1300
0100
,
0001
0000
0100
0000
0001
0000
0100
0000
0010
0000
1000
0000
0002
0000
1003
0001
,
1000
0010
0001
1000
0200
0000
0301
0100
,
1000
0000
0001
0000
0020
0000
0000
0000
0031
0010
1000
0010
0001
0000
0000
0000
,
0001
0100
0001
0010
1000
0000
0001
1000
,
0000
1000
0010
0100
0010
1000
0001
1000
,
0100
0000
1000
0000
0100
0000
1000
0000
0100
0000
0000
0100
0000
0000
0100
0000
,
0010
0000
0001
0000
0010
0000
0001
0000
0010
0000
0000
0010
0000
0000
0010
0000
,
0001
0000
0100
0000
0001
0000
0100
0000
0001
0000
0000
0001
0000
0000
0001
0000
,
1000
0000
0010
0000
1000
0000
0010
0000
1000
0000
0000
1000
0000
0000
0010
0000
,
0100
1000
0100
0010
0001
0000
0010
1000
,
0100
0001
0100
0000
2000
0000
3010
0000
,
0001
0010
0100
1000
0100
0000
0020
0000
,
0030
0100
0010
1000
0010
0100
0001
0010
,
0001
0000
0010
0000
0100
0000
0010
0000
0001
0000
0000
0001
0010
0000
0001
0000
,
0100
0000
0010
0000
0100
0000
0001
0000
0100
0000
0000
0100
0001
0000
1000
0000
,
0010
0000
1000
0000
0100
0000
0010
0000
0100
0000
0000
0100
0010
0000
0100
0000
,
1000
0000
0001
0000
0100
0000
0001
0000
1000
0000
0000
1000
0002
0000
0000
0000
,
0013
1000
0001
0100
0010
0000
0001
1000
,
0010
0001
0010
0000
2000
0000
3200
0000
,
1300
0100
0001
1000
0010
0001
1000
0100
,
0010
0001
0010
0001
0100
0001
0100
0001
1000
0010
1000
0010
2000
0000
0000
0000
,
3100
0100
1100
0000
0010
0000
0001
0010
,
0000
0000
0010
0000
0002
0000
0000
0000
0013
0100
0010
0100
2000
0000
0000
0000
,
3100
0000
1000
0100
0020
0000
1030
0010
,
0001
0000
0010
0000
0001
0000
0010
0000
0100
0000
1000
0000
0002
0000
1003
0001
,
1000
0100
0001
1000
0020
0000
0031
0010
,
1000
0000
0001
0000
0200
0000
0000
0000
0301
0100
1000
0100
0001
0000
0000
0000
,
0001
0010
0001
0100
1000
0000
0001
1000
,
0000
0000
1000
0000
0100
0000
0010
0000
0100
0000
1000
0000
0001
1000
0001
1000
,
0001
0001
0101
0000
0010
0000
1000
0010
,
0000
0000
0010
0000
2000
0000
0000
0000
3010
0100
0010
0100
0002
0000
0000
0000
,
0103
0000
0001
0100
0020
0000
0031
0010
,
1000
0000
0010
0000
1000
0000
0010
0000
0100
0000
0001
0000
2000
0000
3001
1000
,
0001
0100
1000
0001
0020
0000
1030
0010
,
0001
0000
1000
0000
0200
0000
0000
0000
1300
0100
0001
0100
1000
0000
0000
0000
,
1000
0010
1000
0100
0001
0000
1000
0001
,
0000
0001
0200
0000
0310
0000
0010
0100
,
0020
0000
0000
0000
,
0030
0000
0000
0000
;

//---------------dance-single - ----------------
#NOTES:
     dance-single:
     :
     Easy:
     3:
     0.228109,0.256305,0.027412,0.246711,0.000000,233.000000,229.000000,4.000000,36.000000,0.000000,0.000000,0.228109,0.256305,0.027412,0.246711,0.000000,233.000000,229.000000,4.000000,36.000000,0.000000,0.000000:
0000
0000
0000
0000
,
0000
0000
0000
0000
,
0000
0000
0000
0000
,
0000
0000
0000
0000
,
1000
0100
1000
0100
,
1000
0000
0001
0000
,
0001
0100
0001
0100
,
0001
0000
1000
0000
,
0010
0100
0001
0100
,
0010
1000
0002
0000
,
1000
0000
1003
0000
,
1000
1000
0010
0000
,
1000
0010
1000
0010
,
1000
0000
0001
0000
,
0001
0010
0001
0010
,
0001
0000
1000
0000
,
0100
0010
0001
1000
,
0100
2000
3002
2003
,
3010
0100
0010
0100
,
0001
0000
1000
0000
0001
1000
0001
0000
,
1001
1000
0100
1000
,
0010
0200
0300
0020
,
0030
0100
0100
0100
,
0001
0010
0100
2000
,
3001
0001
0001
0001
,
0001
0001
0002
0010
,
1003
1000
1000
2000
,
3000
0000
0010
0000
0100
0010
0100
0000
,
0110
0100
0001
0010
,
0100
0020
0030
0200
,
0300
0010
0010
0010
,
0001
1000
0010
0200
,
0310
0010
0010
0010
,
0010
0010
0020
1000
,
0130
0100
0100
0200
,
0301
1000
0100
0010
,
0200
0000
0300
1000
,
2000
0000
3000
0001
,
0002
0000
0003
0100
,
0200
0000
0300
0010
,
0100
0100
0100
0100
,
0100
0100
0002
1000
,
0013
0010
0010
0020
,
0030
0100
1000
0001
,
2000
0100
0001
0010
,
3002
0100
1000
0010
,
0203
1000
0010
0001
,
0320
1000
0100
0001
,
0130
0100
0100
0100
,
0100
0100
0200
0001
,
0310
1000
0100
0010
,
0001
0000
1000
0000
0001
1000
0001
0000
,
1001
0001
0100
0001
,
0010
0200
0300
0020
,
0030
0100
0100
0100
,
1000
0010
0100
0002
,
1003
1000
1000
1000
,
1000
1000
2000
0010
,
3001
0001
0001
0002
,
0003
0000
0010
0000
0100
0010
0100
0000
,
0110
0100
1000
0010
,
0100
0020
0030
0200
,
0300
0010
0010
0010
,
1000
0001
0010
0200
,
0310
0010
0010
0010
,
0010
0010
0020
0001
,
0130
0100
0100
0200
,
1300
0001
0100
0020
,
0030
0000
0000
0000
;

//---------------dance-single - ----------------
#NOTES:
     dance-single:
     :
     Medium:
     6:
     0.369087,0.394651,0.143914,0.328947,0.010280,377.000000,356.000000,21.000000,48.000000,0.000000,0.000000,0.369087,0.394651,0.143914,0.328947,0.010280,377.000000,356.000000,21.000000,48.000000,0.000000,0.000000:
0000
0000
0000
0000
,
0000
0000
0000
0000
,
0000
0000
0000
0000
,
0000
0000
0000
0000
0000
0100
1000
0200
,
0000
0000
1300
0000
0010
0100
0000
0002
,
0000
0000
0003
0000
0000
0001
0100
0002
,
0000
0000
0000
0000
0103
0000
0000
0000
0010
0000
0000
1000
0000
0000
0200
0000
,
0000
0000
0300
0000
0000
1000
0001
2000
,
0000
0000
0000
0000
3100
0000
0000
0000
0010
0000
0000
0001
0000
0000
2000
0000
,
0000
3001
1000
0001
0010
0200
0000
0000
,
0000
0300
0000
0000
0000
0000
0000
0020
,
0030
0200
0000
0000
0000
0310
0001
0200
,
0000
0000
0310
0000
1000
0000
1000
0002
,
0000
0000
0003
0000
0000
0001
1000
0020
,
0000
0000
0130
0000
0001
0000
1000
0200
,
0000
0000
0300
0000
0000
0100
0010
0002
,
0000
0000
0000
0000
1003
0000
0000
0000
0010
0000
0000
0100
0000
0000
0001
0000
,
0000
0001
0200
0000
0320
0000
2030
0000
,
3001
1000
0001
1000
0001
0010
0100
0010
,
0100
1000
0001
0100
0010
0100
0001
1000
,
0001
0001
0100
0000
0110
0000
0010
1000
,
0000
1000
0002
0000
0010
0000
2003
0000
,
3100
1100
0110
0011
,
0001
0010
0001
1000
0010
0100
0020
0000
,
0130
0001
0100
0010
0100
0000
0001
0010
,
0100
0010
0001
0000
0002
0000
2000
3003
,
1000
0010
0100
0010
1000
0000
1000
0001
,
0000
0001
0100
0010
1000
0100
0010
0100
,
1000
1000
0100
0000
0110
0000
0010
0001
,
0000
0001
2000
0000
0010
0000
3002
0000
,
0103
0101
0110
1010
,
1000
0010
1000
0001
0010
0100
0020
0000
,
0130
1000
0100
0010
0100
0000
1000
0010
,
0100
0010
1000
0000
2000
0000
0002
3003
,
0001
0010
0100
0010
0001
0000
0001
1000
,
0000
1000
0100
0010
0001
0100
0010
0100
,
0001
0100
0001
0100
0002
0000
1000
0000
,
1003
0100
1000
0100
2000
0000
0001
0000
,
3001
0010
0001
0010
0002
0000
1000
0000
,
1003
0010
1000
0010
2000
0000
0002
3003
,
0001
0100
0010
0100
0001
0000
0001
0010
,
0100
0010
0001
0000
0002
0000
2003
0000
,
3010
0100
0010
1000
0010
0000
0010
0100
,
0000
0100
0001
0100
0010
1000
0001
1000
,
0100
1000
0100
1000
0010
0000
1010
0000
,
0001
0100
0001
0100
0010
0000
1010
0000
,
0010
1000
0010
1000
0100
0000
1100
0000
,
0010
0001
0010
0001
0100
0000
0102
0000
,
1003
0100
0010
0100
1000
0000
0010
1000
,
0100
1000
0010
0000
0200
0000
0020
0330
,
0010
0100
0010
0100
0001
1000
0001
1000
,
0001
0100
0010
0100
0001
0010
0100
1000
,
1000
1000
0100
0000
0110
0000
0010
0001
,
0000
0001
2000
0000
0010
0000
3002
0000
,
0103
0101
0110
1010
,
1000
0010
1000
0001
0010
0100
0020
0000
,
0130
1000
0100
0010
0100
0000
1000
0010
,
0100
0010
1000
0000
2000
0000
0002
3003
,
0001
0010
0100
0010
0001
0000
0001
1000
,
0000
1000
0100
0010
0001
0100
0010
0100
,
0001
0001
0100
0000
0110
0000
0010
1000
,
0000
1000
0002
0000
0010
0000
2003
0000
,
3100
1100
0110
0011
,
0001
0010
0001
1000
0010
0100
0020
0000
,
0130
0001
0100
0010
0100
0000
0001
0010
,
0100
0010
0001
0000
0002
0000
2000
3003
,
1000
0010
0100
0010
1000
0000
1000
0001
,
0000
0001
2000
0000
3001
0000
0110
0000
;

//---------------dance-double - ----------------
#NOTES:
     dance-double:
     :
     Hard:
     8:
     0.442513,0.541821,0.054825,0.239857,0.174753,452.000000,444.000000,8.000000,35.000000,0.000000,0.000000,0.442513,0.541821,0.054825,0.239857,0.174753,452.000000,444.000000,8.000000,35.000000,0.000000,0.000000:
// measure 0
00000000
00000000
00000000
00000000
,  // measure 1
00000000
00000000
00000000
00000000
,  // measure 2
00000000
00000000
00000000
00000000
,  // measure 3
00000000
00000000
00000000
00000000
00000000
00000001
00001000
00000200
,  // measure 4
00000010
00000000
00001300
00000000
00010000
00100000
00000000
00020000
,  // measure 5
00000000
00000000
10000000
00000000
10030000
00100000
01000000
00200000
,  // measure 6
10000000
00000000
00000000
00000000
01300000
00000000
00000000
00000000
00001000
00000000
00000000
00010000
00000000
00000000
00000200
00000000
,  // measure 7
00000000
00000000
00000010
00000000
00000310
00000001
00000100
00000020
,  // measure 8
00001000
00000000
00000000
00000000
00000130
00000000
00000000
00000000
00001000
00000000
00000000
00010000
00000000
00000000
00100000
00000000
,  // measure 9
00000000
10000000
01000000
00100000
00010000
00002000
00000000
00000000
,  // measure 10
00000100
00000001
00000010
00023000
,  // measure 11
01000000
00000000
10000000
00000000
00130000
00010000
01000000
00200000
,  // measure 12
01000000
00000000
10300000
00000000
01000000
00000000
00100000
00020000
,  // measure 13
00000000
00000000
00100000
00000000
00130000
00001000
00010000
00000200
,  // measure 14
00001000
00000000
00000310
00000000
00000001
00000000
00000001
00000200
,  // measure 15
00000000
00000000
00000010
00000000
00000310
00000100
00001000
00020000
,  // measure 16
00001000
00000000
00000000
00000000
00130000
00000000
00000000
00000000
10000000
00000000
00000000
00100000
00000000
00000000
01000000
00000000
,  // measure 17
00000000
00010000
00100000
00000000
00110000
00000000
00001000
00000000
,  // measure 18
00011000
00001000
00010000
00100000
00010000
00001000
00000010
00001000
,  // measure 19
00100000
00010000
00100000
00010000
00100000
00001000
00010000
00001000
00010000
00000100
00010000
00000100
00020000
00000000
00000000
00000000
,  // measure 20
00031000
00010000
00011000
00000000
00010000
00000000
00100000
10000000
,  // measure 21
00000000
00000000
10000000
00000000
02000000
00000000
00000000
00000000
03100000
00010000
00001000
00000100
00000020
00000000
00000000
00000000
,  // measure 22
00000031
00000000
00000000
00000000
00000001
00000000
00000100
00000000
00001000
00000100
00000000
00000000
00000010
00000000
00010000
00000000
,  // measure 23
00001000
00000000
00100000
00000000
00010000
00000000
10000000
00000000
01000000
00000000
00100000
00000000
00020000
00000000
10030000
01000000
,  // measure 24
10000000
00100000
00010000
00001000
00000010
00000000
00000001
00000100
,  // measure 25
00001000
00000000
00010000
00000000
00100000
00000000
00000000
00000000
10000000
01000000
00100000
01000000
10000000
00000000
00000000
00000000
,  // measure 26
10000000
01000000
00010000
00001000
00000100
00000000
00001000
00010000
,  // measure 27
00000000
00000000
00010000
00000000
00100000
00000000
01000000
00000000
00001000
00000000
00010000
00000000
00001000
00010000
00001000
00010000
,  // measure 28
00001000
00010000
00011000
00000000
00001000
00000000
00000100
00000001
,  // measure 29
00000000
00000000
00000001
00000000
00000020
00000000
00000000
00000000
00000130
00001000
00010000
00100000
02000000
00000000
00000000
00000000
,  // measure 30
13000000
00000000
00000000
00000000
10000000
00000000
00100000
00000000
00010000
00100000
00000000
00000000
01000000
00000000
00001000
00000000
,  // measure 31
00010000
00000000
00000100
00000000
00001000
00000000
00000001
00000000
00000010
00000000
00000100
00000000
00002000
00000000
00003001
00000010
,  // measure 32
00000001
00000100
00001000
00010000
01000000
00000000
10000000
00100000
,  // measure 33
00010000
00000000
00001000
00000000
00000100
00000000
00000000
00000000
00000001
00000010
00000100
00000010
00000001
00000000
00000000
00000000
,  // measure 34
00000001
00000010
00001000
00010000
00100000
00000000
00010000
00001000
,  // measure 35
00000000
00001000
00000100
00000010
00010000
00001000
00010000
00001000
,  // measure 36
00100000
00000000
00010000
00000000
00100000
00000000
01000000
00000000
00100000
00000000
00000000
00100000
00000000
00000000
00010000
00000000
,  // measure 37
00001000
00000000
00010000
00000000
00100000
00000000
00010000
00000000
00001000
00000000
00000000
00001000
00000000
00000000
00000010
00000000
,  // measure 38
00000100
00000000
00000010
00000000
00001000
00000000
00000010
00000000
00000100
00000000
00000000
00000100
00000000
00000000
00001000
00000000
,  // measure 39
00010000
00000000
00100000
00000000
00010000
00000000
00001000
00000000
00010000
00000000
00000000
00010000
00000000
00000000
00010000
00000000
,  // measure 40
00100000
10000000
00100000
00010000
00001000
00000000
00100000
10000000
,  // measure 41
00100000
00010000
00001000
00000000
00000002
00000000
00002003
00000000
,  // measure 42
00013000
00100000
10000000
00100000
01000000
00000000
20000000
00000000
,  // measure 43
30000000
01000000
00100000
00010000
00001000
00010000
00001000
00000010
,  // measure 44
00001000
00000000
00000010
00000000
00000100
00000000
00000010
00000000
00001000
00000000
00000000
00001000
00010000
00000000
01000000
00000000
,  // measure 45
00100000
00000000
01000000
00000000
10000000
00000000
01000000
00000000
00100000
00000000
00000000
00100000
00010000
00000000
00001000
00000000
,  // measure 46
00000100
00000000
00000010
00000000
00000100
00000000
00001000
00000000
00000100
00000000
00000000
00000100
00010000
00000000
00100000
00000000
,  // measure 47
00010000
00000000
00001000
00000000
00010000
00000000
00100000
00000000
00010000
00000000
00000000
00010000
00002000
00000000
00000000
00000000
,  // measure 48
00003010
00000001
00000010
00001000
00010000
00000000
00000010
00000001
,  // measure 49
00000010
00001000
00010000
00000000
20000000
00000000
30020000
00000000
,  // measure 50
00031000
00000010
00000001
00000010
00001000
00010000
01000000
00100000
,  // measure 51
01000000
10000000
01000000
10000000
01000000
00010000
01000000
00010000
00001000
00010000
00001000
00010000
00002000
00000000
00000000
00000000
,  // measure 52
00013000
00001000
00011000
00000000
00001000
00000000
00000100
00000001
,  // measure 53
00000000
00000000
00000001
00000000
00000020
00000000
00000000
00000000
00000130
00001000
00010000
00100000
02000000
00000000
00000000
00000000
,  // measure 54
13000000
00000000
00000000
00000000
10000000
00000000
00100000
00000000
00010000
00100000
00000000
00000000
01000000
00000000
00001000
00000000
,  // measure 55
00010000
00000000
00000100
00000000
00001000
00000000
00000001
00000000
00000010
00000000
00000100
00000000
00002000
00000000
00003001
00000010
,  // measure 56
00000001
00000100
00001000
00010000
01000000
00000000
10000000
00100000
,  // measure 57
00010000
00000000
00001000
00000000
00000100
00000000
00000000
00000000
00000001
00000010
00000100
00000010
00000001
00000000
00000000
00000000
,  // measure 58
00000001
00000010
00001000
00010000
00100000
00000000
00010000
00001000
,  // measure 59
00000000
00000000
00001000
00000000
00000100
00000000
00000010
00000000
00010000
00000000
00001000
00000000
00010000
00001000
00010000
00001000
,  // measure 60
00010000
00001000
00011000
00000000
00010000
00000000
00100000
10000000
,  // measure 61
00000000
00000000
10000000
00000000
02000000
00000000
00000000
00000000
03100000
00010000
00001000
00000100
00000020
00000000
00000000
00000000
,  // measure 62
00000031
00000000
00000000
00000000
00000001
00000000
00000100
00000000
00001000
00000100
00000000
00000000
00000010
00000000
00010000
00000000
,  // measure 63
00001000
00000000
00100000
00000000
00010000
00000000
10000000
00000000
01000000
00000000
00100000
00000000
00020000
00000000
10030000
01000000
,  // measure 64
10000000
00100000
00010000
00001000
00000010
00000000
00000001
00000100
,  // measure 65
00001000
00000000
00010000
00000000
00100000
00000000
00000000
00000000
10000000
01000000
00100000
01000000
10000000
00000000
00000000
00000000
,  // measure 66
10000000
01000000
00010000
00001000
00000100
00000000
00001000
00010000
,  // measure 67
00000000
00010000
00200000
00000000
00301000
00000000
00011000
00000000
,  // measure 68
00022000
00000000
00000000
00033000
;
