#TITLE:Egret and Willow;
#SUBTITLE:;
#ARTIST:Dirty Androids;
#TITLETRANSLIT:;
#SUBTITLETRANSLIT:;
#ARTISTTRANSLIT:;
#GENRE:;
#CREDIT:;
#BANNER:[Round 4] - Egret and Willow.png;
#BACKGROUND:[Round 4] - Egret and Willow-bg.png;
#LYRICSPATH:;
#CDTITLE:;
#MUSIC:[Round 4] - Egret and Willow.ogg;
#OFFSET:1.479000;
#SAMPLESTART:19.966999;
#SAMPLELENGTH:15.300000;
#LASTBEATHINT:0.782367;
#SELECTABLE:YES;
#BPMS:0.000000=98.000000
;
#STOPS:
;
#BGCHANGES:;
#KEYSOUNDS:;
#ATTACKS:;

//---------------dance-single - ----------------
#NOTES:
     dance-single:
     :
     Hard:
     8:
     0.511008,0.559685,0.336049,0.238968,0.548880,479.000000,434.000000,45.000000,32.000000,0.000000,0.000000,0.511008,0.559685,0.336049,0.238968,0.548880,479.000000,434.000000,45.000000,32.000000,0.000000,0.000000:
// measure 0
0000
0000
0000
0000
,  // measure 1
0000
0000
0000
0000
,  // measure 2
0000
0000
0000
0000
,  // measure 3
0000
0000
0000
0000
,  // measure 4
0000
0000
0000
0000
,  // measure 5
1001
0000
0000
0001
1000
0000
0010
0000
1000
0000
0100
0000
0010
0000
0100
0000
,  // measure 6
1100
0000
0000
1000
0001
0000
0010
0000
0001
0000
0100
0000
0010
0000
0100
0000
,  // measure 7
0101
0000
0000
0001
0100
0000
0001
0000
0010
0000
0100
0000
1000
0000
0010
0000
,  // measure 8
1010
0000
0000
1000
0010
0000
0100
0000
0000
0000
0000
0000
0001
0010
0200
0000
,  // measure 9
1300
0000
0010
0100
0000
0001
0100
0000
0010
1000
0100
0010
0001
0000
0010
0000
,  // measure 10
0200
0000
0000
2300
0000
0000
3002
0000
0000
0103
0010
0100
0010
1000
0001
0000
,  // measure 11
0010
0100
1000
0010
0000
0100
0001
0000
0001
0010
0100
0010
0001
1000
0001
0000
,  // measure 12
0101
0000
0100
0010
0000
0010
1000
0000
1000
0100
0000
0100
0010
0000
0110
0000
,  // measure 13
0001
0000
0010
0100
0000
1000
0100
0000
0010
0001
0100
0010
1000
0000
0001
0000
,  // measure 14
0200
0000
0000
0320
0000
0000
2030
0000
0000
3001
0010
0001
0010
0100
1000
0000
,  // measure 15
0100
0000
0011
0000
0010
0001
0000
0101
0000
0100
0010
0000
1001
0000
0001
1000
,  // measure 16
0100
0000
1100
0000
1000
0100
0000
0010
0000
0001
0100
0010
1000
0000
0001
0000
,  // measure 17
0020
0000
0000
0000
0000
0000
0000
0000
0000
0000
1000
0000
0000
0001
0000
0000
,  // measure 18
0130
1000
0100
0010
0001
0000
0100
0000
0010
0000
0100
0010
0100
0000
0001
0100
,  // measure 19
0001
0010
0100
1000
0100
0000
0010
0000
0011
0000
0101
0000
1010
0000
1100
0000
,  // measure 20
0100
1000
0010
0100
0001
0000
0010
0000
0100
0000
1000
0100
1000
0000
0001
0010
,  // measure 21
0001
0100
0010
1000
0100
0000
1000
0000
1100
0000
1010
0000
0101
0000
0011
0000
,  // measure 22
0001
0010
0100
1000
0010
0000
0100
0000
0001
0010
0100
0010
0001
0000
1000
0001
,  // measure 23
1000
0010
0100
0001
0100
0000
0010
0000
1010
0000
0011
0000
1100
0000
0101
0000
,  // measure 24
0010
1000
0100
0010
0001
0000
0100
0000
0010
1000
0100
1000
0010
0000
0100
0001
,  // measure 25
0100
0010
1000
0001
0010
0000
0001
0000
0101
0000
1100
0000
0011
0000
1010
0000
,  // measure 26
1000
0000
1000
0100
0010
0000
1000
0010
0001
0010
0100
0000
0100
0000
0010
0001
,  // measure 27
0100
0000
0001
0100
0010
0000
0001
0010
1000
0010
0100
0000
0010
0000
1000
0001
,  // measure 28
1000
0000
1000
0010
0100
0000
1000
0100
0001
0100
0010
0000
0100
0000
0100
0001
,  // measure 29
0010
0000
0001
0010
1000
0000
0001
0100
1000
0100
0010
0000
0100
0000
1000
0000
,  // measure 30
1001
0000
0000
0000
0001
0000
0100
0000
0010
0000
0000
0000
1000
0000
0000
0000
0001
0000
0000
0000
1000
0000
0100
0000
0010
0000
0001
0000
0000
0100
0000
0000
,  // measure 31
0001
0000
1000
0100
0010
0000
0001
0000
0010
0000
0010
0000
0100
0000
0100
1000
,  // measure 32
0002
0203
0320
2030
,  // measure 33
0002
0000
0000
0000
0000
0000
0000
0000
0000
0000
3003
0000
1000
0100
0020
0000
,  // measure 34
0031
0000
0100
0010
0000
1000
0010
0000
0100
0001
0010
0100
1000
0000
0100
0000
,  // measure 35
0020
0000
0000
0032
0000
0000
2003
0000
0000
3010
0100
0010
0100
0001
1000
0000
,  // measure 36
0100
0010
0001
0100
0000
0010
1000
0000
1000
0100
0010
0100
1000
0001
1000
0000
,  // measure 37
1010
0000
0010
0100
0000
0100
0001
0000
0001
0010
0000
0010
0100
0000
0110
0000
,  // measure 38
1000
0000
0100
0010
0000
0001
0010
0000
0100
1000
0010
0100
0001
0000
1000
0000
,  // measure 39
0020
0000
0000
0230
0000
0000
0302
0000
0000
1003
0100
1000
0100
0010
0001
0000
,  // measure 40
0010
0000
1100
0000
0100
1000
0000
1010
0000
0010
0100
0000
1001
0000
1000
0001
,  // measure 41
0010
0000
0011
0000
0001
0010
0000
0100
0000
1000
0010
0100
0001
0000
1000
0000
,  // measure 42
1001
0000
0001
0000
1000
0010
0000
1000
0000
0100
0000
0010
0002
0000
1000
0000
,  // measure 43
0203
0000
0000
0320
0000
0000
2030
0000
0000
3100
0010
0001
0100
0001
0100
0000
,  // measure 44
0201
0000
0310
0000
1010
0000
0101
0000
0000
0001
0001
0000
1000
0000
0100
0010
,  // measure 45
0001
0000
0010
0100
0000
0100
1000
0000
1000
0010
0000
0100
0010
0000
1000
0000
,  // measure 46
1200
0000
0310
0000
0011
0000
1100
0000
0101
0000
0100
0010
0000
0010
1000
0100
,  // measure 47
2000
0000
0000
3200
0000
0000
0320
0000
0000
0032
0000
0000
0103
0000
0010
0000
,  // measure 48
0110
0000
0010
0000
1000
0100
0000
1100
0000
0100
0010
0000
0011
0000
0001
0100
,  // measure 49
0010
0000
0100
0000
0001
1000
0000
2002
0000
0000
0000
0000
0000
0000
0000
0000
,  // measure 50
0000
0000
0000
0000
,  // measure 51
0000
0000
0000
0000
0000
0000
0000
0000
0000
0000
0000
3003
0000
0000
0000
0000
;

//---------------dance-single - ----------------
#NOTES:
     dance-single:
     :
     Easy:
     3:
     0.172825,0.231594,0.037339,0.119484,0.000000,162.000000,157.000000,5.000000,16.000000,0.000000,0.000000,0.172825,0.231594,0.037339,0.119484,0.000000,162.000000,157.000000,5.000000,16.000000,0.000000,0.000000:
// measure 0
0000
0000
0000
0000
,  // measure 1
0000
0000
0000
0000
,  // measure 2
0000
0000
0000
0000
,  // measure 3
0000
0000
0000
0000
,  // measure 4
0000
0000
0000
0000
,  // measure 5
0001
0100
0010
0010
,  // measure 6
1000
0001
0100
0100
,  // measure 7
0010
1000
0001
0001
,  // measure 8
0010
0020
0000
0230
,  // measure 9
1300
0000
0010
0000
0100
0000
0100
0001
,  // measure 10
1000
1000
2000
0000
,  // measure 11
3001
0000
0010
0000
0100
0000
0100
1000
,  // measure 12
0001
1001
1000
1001
,  // measure 13
0001
0000
0100
0000
0010
0000
0010
1000
,  // measure 14
0010
1000
0002
0000
,  // measure 15
1003
0100
0010
0001
,  // measure 16
0100
0010
1000
0001
,  // measure 17
2002
0000
0000
3003
,  // measure 18
0001
1000
0000
0000
,  // measure 19
1000
0010
1000
1000
,  // measure 20
0001
0010
0000
0000
,  // measure 21
0010
0001
0100
0100
,  // measure 22
0001
1000
0000
0000
,  // measure 23
1000
0100
0010
0010
,  // measure 24
0001
0100
0000
0000
,  // measure 25
0100
0010
1000
0001
,  // measure 26
0010
0010
0100
0100
,  // measure 27
1000
1000
0001
0001
,  // measure 28
1000
1000
0100
0100
,  // measure 29
0010
0010
0001
0001
,  // measure 30
0100
0000
0100
0000
,  // measure 31
0010
0000
0010
0000
,  // measure 32
2000
0000
0000
0000
,  // measure 33
3002
0000
0000
0023
,  // measure 34
0031
0000
0100
0000
0010
0000
0010
1000
,  // measure 35
0001
0001
0002
0000
,  // measure 36
1003
0000
0100
0000
0010
0000
0010
0001
,  // measure 37
1000
1001
0001
1001
,  // measure 38
1000
0000
0010
0000
0100
0000
0100
0001
,  // measure 39
0100
0001
2000
0000
,  // measure 40
3001
0010
0100
1000
,  // measure 41
0010
0100
0001
1000
,  // measure 42
0010
0000
0100
0000
0001
0100
0001
0000
,  // measure 43
0100
0010
2000
0000
,  // measure 44
3002
0013
0000
0010
,  // measure 45
0100
0100
1000
1000
,  // measure 46
2000
3010
0000
0010
,  // measure 47
0100
0100
0001
0001
,  // measure 48
1000
0100
0010
0001
,  // measure 49
2000
0000
0002
0000
,  // measure 50
0000
0000
0000
0000
,  // measure 51
0000
0000
0000
0000
0000
0000
0000
0000
0000
0000
0000
3003
0000
0000
0000
0000
;

//---------------dance-single - ----------------
#NOTES:
     dance-single:
     :
     Beginner:
     1:
     0.077878,0.110896,0.014936,0.014936,0.000000,73.000000,71.000000,2.000000,2.000000,0.000000,0.000000,0.077878,0.110896,0.014936,0.014936,0.000000,73.000000,71.000000,2.000000,2.000000,0.000000,0.000000:
// measure 0
0000
0000
0000
0000
,  // measure 1
0000
0000
0000
0000
,  // measure 2
0000
0000
0000
0000
,  // measure 3
0000
0000
0000
0000
,  // measure 4
0000
0000
0000
0000
,  // measure 5
1000
0000
0000
0000
,  // measure 6
1000
0000
0000
0000
,  // measure 7
0001
0000
0000
0000
,  // measure 8
0002
0000
0000
0003
,  // measure 9
1000
0000
0010
0000
,  // measure 10
1000
0000
0000
0000
,  // measure 11
0001
0000
0010
0000
,  // measure 12
0001
0000
1000
0000
,  // measure 13
0010
0000
0100
0000
,  // measure 14
0010
0000
0100
0000
,  // measure 15
0001
0000
0000
0000
,  // measure 16
1000
0000
0000
0000
,  // measure 17
1001
0000
0000
0000
,  // measure 18
0001
0000
0000
0000
,  // measure 19
0001
0000
0000
0000
,  // measure 20
1000
0000
0000
0000
,  // measure 21
1000
0000
0000
0000
,  // measure 22
0010
0000
0000
0000
,  // measure 23
0010
0000
0000
0000
,  // measure 24
0100
0000
0000
0000
,  // measure 25
0100
0000
0000
0000
,  // measure 26
0001
0000
0001
0000
,  // measure 27
1000
0000
1000
0000
,  // measure 28
0100
0000
0100
0000
,  // measure 29
0010
0000
0010
0000
,  // measure 30
0001
0000
1000
0000
,  // measure 31
0001
0000
1000
0000
,  // measure 32
1001
0000
0000
0000
,  // measure 33
0200
0000
0000
0300
,  // measure 34
0001
0000
0100
0000
,  // measure 35
0001
0000
0000
0000
,  // measure 36
1000
0000
0100
0000
,  // measure 37
1000
0000
0001
0000
,  // measure 38
0100
0000
0010
0000
,  // measure 39
0100
0000
0010
0000
,  // measure 40
1000
0000
0000
0000
,  // measure 41
0001
0000
0000
0000
,  // measure 42
1000
1000
1000
0000
,  // measure 43
0001
0001
0001
0000
,  // measure 44
0000
0100
0000
0100
,  // measure 45
0000
0010
0000
0010
,  // measure 46
0000
1000
0000
1000
,  // measure 47
0000
0001
0000
0001
,  // measure 48
0001
0000
1000
0000
,  // measure 49
0010
0000
0100
0000
;

//---------------dance-single - ----------------
#NOTES:
     dance-single:
     :
     Medium:
     6:
     0.361653,0.405289,0.186694,0.276307,0.227767,339.000000,314.000000,25.000000,37.000000,0.000000,0.000000,0.361653,0.405289,0.186694,0.276307,0.227767,339.000000,314.000000,25.000000,37.000000,0.000000,0.000000:
// measure 0
0000
0000
0000
0000
,  // measure 1
0000
0000
0000
0000
,  // measure 2
0000
0000
0000
0000
,  // measure 3
0000
0000
0000
0000
,  // measure 4
0000
0000
0000
0000
,  // measure 5
1000
0100
0010
0001
0100
0010
0100
0000
,  // measure 6
0001
0010
0100
1000
0010
0100
0010
0000
,  // measure 7
0001
0100
0010
1000
0100
0010
0100
0000
,  // measure 8
1000
0010
0100
0001
0000
0000
0020
0000
,  // measure 9
0130
0000
0000
1000
0000
0000
0001
0000
0100
0000
0010
0000
0100
0000
0010
0000
,  // measure 10
0110
0000
0000
1010
0000
0000
2100
0000
0000
0000
0100
0000
3100
0000
0010
0000
,  // measure 11
0001
0000
0000
0100
0000
0000
0010
0000
1000
0000
0001
0000
1000
0000
1000
0000
,  // measure 12
0100
0000
0100
0010
0000
0100
0010
0000
0100
0010
0000
0100
0010
0000
0001
0000
,  // measure 13
0100
0000
0000
0010
0000
0000
1000
0000
0010
0000
0100
0000
0010
0000
0100
0000
,  // measure 14
0110
0000
0000
0101
0000
0000
0021
0000
0000
0000
0100
0000
0130
0000
1000
0000
,  // measure 15
0010
0000
0100
0000
0001
1000
0000
1001
0000
0000
0001
0000
0001
0000
1000
0000
,  // measure 16
0100
0000
0010
0000
0100
0010
0000
0220
0000
0000
0000
0000
0330
0000
0000
0000
,  // measure 17
2002
0000
0000
3003
,  // measure 18
0001
0000
0000
0100
0000
0000
0010
0000
1000
0000
0100
0000
1000
0000
0100
0000
,  // measure 19
0010
0000
0000
0001
0000
0000
0100
0000
0200
0000
0320
0000
2030
0000
3200
0000
,  // measure 20
0310
0000
0000
0010
0000
0000
0001
0000
0100
0000
0010
0000
0100
0000
0010
0000
,  // measure 21
1000
0000
0000
0100
0000
0000
0010
0000
0020
0000
0032
0000
0203
0000
0320
0000
,  // measure 22
0130
0000
0000
0100
0000
0000
0010
0000
1000
0000
0100
0000
0010
0000
0001
0000
,  // measure 23
0010
0000
0000
0100
0000
0000
1000
0000
2000
0000
3020
0000
2030
0000
3200
0000
,  // measure 24
0310
0000
0000
0010
0000
0000
0001
0000
1000
0000
0001
0000
0100
0000
0010
0000
,  // measure 25
0100
0000
0000
0001
0000
0000
0010
0000
0020
0000
0032
0000
0023
0000
0230
0000
,  // measure 26
1300
0000
0100
1000
0100
0000
1000
0100
1000
0000
0100
0000
0100
0000
0010
0000
,  // measure 27
0010
0000
0001
0010
0001
0000
0010
0001
0010
0000
0100
0000
0100
0000
1000
0000
,  // measure 28
1000
0000
0001
1000
0001
0000
0100
0001
0100
0000
0010
0000
0010
0000
1000
0000
,  // measure 29
1000
0000
0100
1000
0100
0000
0010
0100
0010
0000
0001
0000
0001
0000
0100
0000
,  // measure 30
0100
0000
0100
0000
0010
0000
0010
1000
,  // measure 31
0001
0001
1000
1000
,  // measure 32
0002
0023
0230
2300
,  // measure 33
0002
0000
0003
3020
,  // measure 34
0130
0000
0000
0001
0000
0000
1000
0000
0010
0000
0100
0000
0010
0000
0100
0000
,  // measure 35
0110
0000
0000
0101
0000
0000
0012
0000
0000
0000
0010
0000
0013
0000
0100
0000
,  // measure 36
1000
0000
0000
0010
0000
0000
0100
0000
0001
0000
1000
0000
0001
0000
0001
0000
,  // measure 37
0010
0000
0010
0100
0000
0010
0100
0000
0010
0100
0000
0010
0100
0000
1000
0000
,  // measure 38
0010
0000
0000
0100
0000
0000
0001
0000
0100
0000
0010
0000
0100
0000
0010
0000
,  // measure 39
0110
0000
0000
1010
0000
0000
1200
0000
0000
0000
0010
0000
0310
0000
0001
0000
,  // measure 40
0100
0000
0010
0000
1000
0001
0000
1001
0000
0000
1000
0000
1000
0000
0001
0000
,  // measure 41
0010
0000
0100
0000
0010
0100
0000
0210
0000
0000
1300
0001
1000
0000
0001
0000
,  // measure 42
0100
0000
0100
0000
0000
0010
0000
0010
0000
1000
0000
0001
1000
0000
0100
0000
,  // measure 43
0011
0000
0000
0101
0000
0000
0210
0000
0000
0000
0010
0000
0310
0000
1000
0000
,  // measure 44
0002
0000
0013
0000
0100
0000
1000
0000
0000
0001
0100
0000
0010
0000
1000
0000
,  // measure 45
0001
0000
1000
0001
0000
1000
0001
0000
1000
0001
0000
1000
0001
0000
0100
0000
,  // measure 46
0020
0000
1030
0000
1000
0000
1000
0000
1000
0000
0010
0100
0000
0010
1000
0000
,  // measure 47
1100
0000
0000
1010
0000
0000
1001
0000
0000
0101
0000
0000
0100
0000
0010
0000
,  // measure 48
1000
0000
1000
0000
0100
0010
0000
0010
0000
0000
0001
0000
0100
0000
0010
0000
,  // measure 49
1000
0000
0001
0000
1000
0001
0000
2002
0000
0000
0000
0000
0000
0000
0000
0000
,  // measure 50
0000
0000
0000
0000
,  // measure 51
0000
0000
0000
0000
0000
0000
0000
0000
0000
0000
0000
3003
0000
0000
0000
0000
;
