#TITLE:天地ガエシ;
#SUBTITLE:;
#ARTIST:NICO Touches the Walls;
#TITLETRANSLIT:TENCHI GAESHI;
#SUBTITLETRANSLIT:;
#ARTISTTRANSLIT:;
#GENRE:Country Rock;
#CREDIT:;
#BANNER:[Round 3] - TENCHI GAESHI.png;
#BACKGROUND:[Round 3] - TENCHI GAESHI-bg.png;
#LYRICSPATH:;
#CDTITLE:cdtitle.png;
#MUSIC:[Round 3] - TENCHI GAESHI.ogg;
#OFFSET:-0.528000;
#SAMPLESTART:43.534000;
#SAMPLELENGTH:15.000000;
#SELECTABLE:YES;
#DISPLAYBPM:120.000000;
#BPMS:0.000000=120.000000
,168.000000=119.500000
,174.000000=123.750000
,176.000000=120.000000
;
#STOPS:
;
#BGCHANGES:-0.500=[Round 3] - TENCHI GAESHI.avi=1.000=0=0=0=StretchNoLoop==CrossFade_Fastest==,
99999=-nosongbg-=1.000=0=0=0 // don't automatically add -songbackground-
;
#KEYSOUNDS:;
#ATTACKS:;

//---------------dance-single - ----------------
#NOTES:
     dance-single:
     :
     Beginner:
     1:
     0.079302,0.120737,0.022204,0.022204,0.000000,50.000000,48.000000,2.000000,2.000000,0.000000,0.000000,0.079302,0.120737,0.022204,0.022204,0.000000,50.000000,48.000000,2.000000,2.000000,0.000000,0.000000:
0000
0000
0000
0000
,
0000
0000
0000
0000
,
0000
0000
0000
0000
,
0000
0000
0000
0000
,
0000
0000
0000
0000
,
1000
0000
0000
0000
,
1000
0000
0000
0000
,
0001
0000
0000
0000
,
0001
0000
0000
0000
,
0100
0000
0000
0000
,
0100
0000
0000
0000
,
0010
0000
0000
0000
,
0010
0000
0000
0000
,
1000
0000
0000
0000
,
1000
0000
0000
0000
,
0100
0000
0000
0000
,
0100
0000
0000
0000
,
0010
0000
0000
0000
,
0010
0000
0000
0000
,
0001
0000
0000
0000
,
0001
0000
0000
0000
,
1001
0000
0000
0000
,
1000
0000
1000
0000
,
1000
0000
0000
0000
,
0001
0000
0001
0000
,
0001
0000
0000
0000
,
0100
0000
0100
0000
,
0100
0000
0000
0000
,
0010
0000
0010
0000
,
0010
0000
0000
0000
,
1000
0000
1000
0000
,
1000
0000
0000
0000
,
0001
0000
0001
0000
,
0001
0000
0000
0000
,
0010
0000
0010
0000
,
0010
0000
0000
0000
,
0100
0000
0100
0000
,
0100
0000
0000
0000
,
1000
0000
0000
0000
,
0001
0000
0001
0000
,
0001
0000
0000
0000
,
1000
0000
1000
0000
,
2002
0000
0000
0000
,
0000
0000
3003
0000
;

//---------------dance-single - ----------------
#NOTES:
     dance-single:
     :
     Easy:
     2:
     0.161775,0.193179,0.022204,0.111022,0.000000,102.000000,100.000000,2.000000,10.000000,0.000000,0.000000,0.161775,0.193179,0.022204,0.111022,0.000000,102.000000,100.000000,2.000000,10.000000,0.000000,0.000000:
// measure 0
0000
0000
0000
0000
,  // measure 1
0000
0000
0000
0000
,  // measure 2
0000
0000
0000
0000
,  // measure 3
0000
0000
0000
0000
,  // measure 4
0000
0000
0000
0000
,  // measure 5
1000
0000
0010
0000
,  // measure 6
1000
0001
1000
0000
,  // measure 7
0001
0000
0010
0000
,  // measure 8
0001
1000
0001
0000
,  // measure 9
1000
0100
0010
0000
,  // measure 10
0002
0000
1003
0000
,  // measure 11
0001
0100
0010
0000
,  // measure 12
2000
0000
3001
0000
,  // measure 13
2000
0000
3000
0010
,  // measure 14
0020
0000
0030
0100
,  // measure 15
0200
0000
0300
0001
,  // measure 16
0002
0000
0003
1000
,  // measure 17
1000
0000
1000
0010
,  // measure 18
0010
0000
0010
0100
,  // measure 19
0100
0000
0100
0001
,  // measure 20
0001
0000
1000
0000
,  // measure 21
2002
0000
3003
0000
,  // measure 22
0001
0100
0001
0000
,  // measure 23
0100
0010
1000
0000
,  // measure 24
1000
0100
1000
0000
,  // measure 25
0100
0010
0001
0000
,  // measure 26
0001
1000
0001
0000
,  // measure 27
0010
0100
1000
0000
,  // measure 28
1000
0001
1000
0000
,  // measure 29
0010
0100
0001
0000
,  // measure 30
0001
0010
0001
0000
,  // measure 31
0010
0100
1000
0000
,  // measure 32
1000
0010
1000
0000
,  // measure 33
0010
0100
0001
0000
,  // measure 34
0001
1000
0001
0000
,  // measure 35
0100
0010
1000
0000
,  // measure 36
1000
0001
1000
0000
,  // measure 37
0100
0010
0001
0000
,  // measure 38
1000
0000
0001
0010
,  // measure 39
0001
0000
1000
0000
,  // measure 40
0001
0000
1000
0010
,  // measure 41
1000
0000
0001
1000
,  // measure 42
2002
0000
0000
0000
,  // measure 43
0000
0000
3003
0000
;

//---------------dance-single - ----------------
#NOTES:
     dance-single:
     :
     Medium:
     4:
     0.285486,0.293099,0.033307,0.410782,0.000000,180.000000,177.000000,3.000000,37.000000,0.000000,0.000000,0.285486,0.293099,0.033307,0.410782,0.000000,180.000000,177.000000,3.000000,37.000000,0.000000,0.000000:
// measure 0
0000
0000
0000
0000
,  // measure 1
0000
0000
0000
0000
,  // measure 2
0000
0000
0000
0000
,  // measure 3
0000
0000
0000
0000
,  // measure 4
0000
0000
0000
0000
,  // measure 5
1000
0010
0100
0010
,  // measure 6
1000
0001
1000
0000
0100
0000
0010
0000
,  // measure 7
0001
0100
0010
0100
,  // measure 8
0001
1000
0001
0000
0100
0000
0010
0000
,  // measure 9
1002
1000
0013
0100
,  // measure 10
2000
0001
0002
3003
,  // measure 11
2000
0001
3010
0100
,  // measure 12
0002
1000
2000
3003
,  // measure 13
0002
0100
0100
0103
,  // measure 14
0200
0010
0010
0310
,  // measure 15
0020
1000
1000
1030
,  // measure 16
2000
0001
0001
3001
,  // measure 17
0001
0000
0100
0000
0010
1000
0010
0000
,  // measure 18
0100
0000
0001
0000
1000
0001
1000
0000
,  // measure 19
1000
0000
0100
0000
0010
0001
0010
0000
,  // measure 20
0100
0000
1000
0000
0001
1000
0001
0000
,  // measure 21
2002
3003
1000
0001
,  // measure 22
2000
0010
3002
0010
,  // measure 23
1003
0000
0100
0010
0100
0010
0001
0000
,  // measure 24
2000
0100
3002
0100
,  // measure 25
1003
0000
0010
0100
0010
0100
0001
0000
,  // measure 26
2000
0010
3002
0100
,  // measure 27
1003
0000
0001
1000
0001
1000
0010
0000
,  // measure 28
2000
0100
3002
0010
,  // measure 29
1003
0000
0001
0100
0000
0010
1000
0000
,  // measure 30
0002
0010
2003
0010
,  // measure 31
3001
0000
0100
0010
0100
0010
1000
0000
,  // measure 32
0002
0100
2003
0100
,  // measure 33
3001
0000
0010
0100
0010
0100
1000
0000
,  // measure 34
0002
0010
2003
0100
,  // measure 35
3001
0000
1000
0001
1000
0001
0010
0000
,  // measure 36
0002
0100
2003
0010
,  // measure 37
3001
0000
1000
0100
0000
0010
0001
0000
,  // measure 38
2000
0010
3020
0100
,  // measure 39
0130
0000
0001
1000
0001
1000
0001
0000
,  // measure 40
0002
0010
0023
0100
,  // measure 41
0130
0000
1000
0001
1000
0001
1000
0000
,  // measure 42
2000
0010
3020
0100
,  // measure 43
0230
0001
0301
2002
,  // measure 44
3003
0000
0000
0000
;

//---------------dance-single - ----------------
#NOTES:
     dance-single:
     :
     Hard:
     7:
     0.382234,0.463194,0.044409,0.133227,0.055511,241.000000,237.000000,4.000000,12.000000,0.000000,0.000000,0.382234,0.463194,0.044409,0.133227,0.055511,241.000000,237.000000,4.000000,12.000000,0.000000,0.000000:
// measure 0
0000
0000
0000
0000
,  // measure 1
0000
0000
0000
0000
,  // measure 2
0000
0000
0000
0000
,  // measure 3
0000
0000
0000
0000
,  // measure 4
0000
0000
0000
0000
,  // measure 5
1000
0010
0001
0100
,  // measure 6
1000
0100
0001
0010
1000
0000
1000
0000
,  // measure 7
0001
0010
1000
0100
,  // measure 8
0001
0100
1000
0010
0001
0000
0001
0000
,  // measure 9
1000
0000
0010
0001
0100
0000
1000
0000
,  // measure 10
0002
0010
0100
1003
,  // measure 11
0001
0000
0010
1000
0100
0000
0001
0000
,  // measure 12
2000
0010
0100
3001
,  // measure 13
2000
0100
0001
3010
,  // measure 14
0020
1000
0100
0031
,  // measure 15
0002
0010
1000
0103
,  // measure 16
0200
0001
0010
1300
,  // measure 17
1000
0000
0010
0000
0001
0100
1000
0000
,  // measure 18
0001
0000
0010
0000
1000
0100
0001
0000
,  // measure 19
1000
0010
0001
0000
0001
0100
1000
0000
,  // measure 20
0001
0010
1000
0000
1000
0100
0001
0000
,  // measure 21
2002
3003
0110
1001
,  // measure 22
1000
0100
0001
0100
1000
0100
0001
0100
,  // measure 23
1000
0010
0100
0001
2000
0000
3001
0000
,  // measure 24
0001
0010
1000
0010
0001
0010
1000
0010
,  // measure 25
0001
0100
0010
1000
0002
0000
1003
0000
,  // measure 26
1000
0010
0001
0010
1000
0100
0001
0100
,  // measure 27
1000
0001
0100
0001
2000
0000
3001
0000
,  // measure 28
0001
0100
1000
0100
0001
0010
1000
0010
,  // measure 29
0001
1000
0010
1000
0002
0000
1003
0000
,  // measure 30
1000
0100
0001
0010
0001
0100
1000
0010
,  // measure 31
0100
0001
0010
0100
1000
0001
1000
0000
,  // measure 32
0001
0010
1000
0100
1000
0010
0001
0100
,  // measure 33
0010
1000
0100
0010
0001
1000
0001
0000
,  // measure 34
1000
0010
0001
0100
0001
0010
1000
0100
,  // measure 35
0001
0100
1000
0010
0100
0001
1000
0000
,  // measure 36
0001
0100
1000
0010
1000
0100
0001
0010
,  // measure 37
1000
0010
0001
0100
0010
1000
0001
0000
,  // measure 38
1000
0000
0100
0001
0010
0000
1000
0010
,  // measure 39
0001
0000
0100
1000
0010
0100
0100
0000
,  // measure 40
0001
0000
0100
1000
0010
0000
0001
0010
,  // measure 41
1000
0000
0100
0001
0010
0100
0100
0000
,  // measure 42
1001
0000
1000
0010
0000
0010
0100
0000
0100
0001
0000
0001
,  // measure 43
0010
0000
0010
0100
0000
0100
1000
0001
1000
0001
1000
0001
;

//---------------dance-single - ----------------
#NOTES:
     dance-single:
     :
     Challenge:
     9:
     0.567800,0.633845,0.066613,0.177636,0.571765,358.000000,352.000000,6.000000,16.000000,0.000000,0.000000,0.567800,0.633845,0.066613,0.177636,0.571765,358.000000,352.000000,6.000000,16.000000,0.000000,0.000000:
// measure 0
0000
0000
0000
0000
,  // measure 1
0000
0000
0000
0000
,  // measure 2
0000
0000
0000
0000
,  // measure 3
0000
0000
0000
0000
,  // measure 4
0000
0000
0000
0000
,  // measure 5
2000
0010
0000
0001
0000
0100
0000
3001
,  // measure 6
1000
0000
0010
0000
0100
0000
0001
0000
1000
0000
0100
0000
0010
0100
0010
0000
,  // measure 7
0002
0010
0000
1000
0000
0100
0000
1003
,  // measure 8
0001
0000
0010
0000
0100
0000
1000
0000
0001
0000
0100
0000
0010
0100
0010
0000
,  // measure 9
2000
0001
0000
0100
0000
3010
1000
0100
,  // measure 10
0020
0000
0001
0000
0000
0000
0130
0000
1000
0000
0001
0000
0100
0010
0100
0000
,  // measure 11
0002
1000
0000
0100
0000
0013
0001
0100
,  // measure 12
0020
0000
1000
0000
0000
0000
0130
0000
0001
0000
1000
0000
0100
0010
0100
0000
,  // measure 13
2000
0000
0010
0000
0000
0000
0100
0000
0000
0000
3001
1000
0010
0000
0100
0000
,  // measure 14
0002
0000
0010
0000
0000
0000
0100
0000
0000
0000
1003
0001
0010
0000
0100
0000
,  // measure 15
0020
0000
1000
0000
0000
0000
0001
0000
0000
0000
0130
0010
0001
0000
1000
0000
,  // measure 16
0020
0000
0001
0000
0000
0000
1000
0000
0000
0000
0130
0010
1000
0001
0100
0000
,  // measure 17
0002
0000
0010
0000
0000
0000
0100
0000
0000
0000
1003
0001
0010
0000
0100
0000
,  // measure 18
2000
0000
0010
0000
0000
0000
0100
0000
0000
0000
3001
1000
0010
0000
0100
0000
,  // measure 19
0020
0000
1000
0000
0000
0000
0130
0000
0010
0000
1000
0001
0010
0100
1000
0000
,  // measure 20
0200
0000
1000
0000
0000
0000
0310
0000
0100
0000
1000
0001
0100
0010
1000
0000
,  // measure 21
2002
3003
0110
1001
,  // measure 22
0001
0010
0000
0010
1000
0000
1000
0100
0000
0100
0001
0000
0010
0000
0100
0000
,  // measure 23
1000
0010
0000
0010
0001
0000
0001
0010
0000
0010
1000
0000
0100
0000
0010
0000
,  // measure 24
0001
0100
0000
0100
1000
0000
1000
0100
0000
0100
0010
0000
1000
0000
0001
0000
,  // measure 25
1000
0000
0001
0100
0001
0000
1000
0010
1000
0000
0001
0000
0010
0000
0100
0000
,  // measure 26
1000
0010
0000
0010
0001
0000
0001
0100
0000
0100
1000
0000
0010
0000
0100
0000
,  // measure 27
0001
0010
0000
0010
1000
0000
1000
0010
0000
0010
0001
0000
0100
0000
0010
0000
,  // measure 28
1000
0100
0000
0100
0001
0000
0001
0100
0000
0100
0010
0000
0001
0000
1000
0000
,  // measure 29
1100
0000
0100
0000
0010
0000
0011
0000
0001
0000
0100
0000
0010
1000
0010
1000
,  // measure 30
0001
1000
0000
0001
0010
0000
0001
1000
0000
0001
0100
0000
0010
0000
1000
0000
,  // measure 31
0001
0000
0100
0010
0100
0000
0001
1000
0001
0000
1000
0000
0100
0000
0010
0000
,  // measure 32
0001
0010
0000
0010
1000
0000
1000
0100
0000
0100
0001
0000
0010
0000
0100
0000
,  // measure 33
1000
0000
0100
0010
0100
0000
1000
0001
1000
0000
0001
0000
1000
0010
1000
0010
,  // measure 34
1000
0001
0000
1000
0010
0000
1000
0001
0000
1000
0100
0000
0010
0000
0001
0000
,  // measure 35
1000
0010
1000
0010
0000
0100
0000
0001
0100
0000
0010
0000
1000
0000
0001
0000
,  // measure 36
1000
0010
0000
0010
0001
0000
0001
0100
0000
0100
1000
0000
0010
0000
0100
0000
,  // measure 37
0001
0000
0001
1000
0000
1000
0010
0000
0100
0001
0100
0001
1000
0001
1000
0000
,  // measure 38
0001
0000
1000
0010
0100
0010
1000
0000
0100
0000
0010
0001
1000
0001
0010
0000
,  // measure 39
0100
0000
1000
0001
0010
0001
1000
0000
0100
0010
0000
0010
0001
0000
0001
0000
,  // measure 40
1000
0000
0001
0010
0100
0010
0001
0000
0100
0000
0010
1000
0001
1000
0010
0000
,  // measure 41
0100
0000
0001
1000
0010
1000
0001
0000
0100
0000
0010
1000
0100
0010
0001
0000
,  // measure 42
1001
0000
1000
0010
0100
0001
1000
0000
0001
0010
0100
1000
,  // measure 43
0001
0000
1000
0010
0100
0001
1000
0100
1000
0001
0010
0001
;
