#TITLE:Phone;
#SUBTITLE:;
#ARTIST:LIZZO;
#TITLETRANSLIT:;
#SUBTITLETRANSLIT:;
#ARTISTTRANSLIT:;
#GENRE:;
#CREDIT:;
#BANNER:[Round 3] - Phone.png;
#BACKGROUND:[Round 3] - Phone-bg.png;
#LYRICSPATH:;
#CDTITLE:;
#MUSIC:[Round 3] - Phone.ogg;
#OFFSET:1.558000;
#SAMPLESTART:51.584999;
#SAMPLELENGTH:13.716000;
#LASTBEATHINT:1.302000;
#SELECTABLE:YES;
#DISPLAYBPM:70.000000:140.000000;
#BPMS:0.000000=140.000000
,156.000000=70.000000
,188.000000=140.000000
;
#STOPS:
;
#BGCHANGES:;
#KEYSOUNDS:;
#ATTACKS:;

//---------------dance-single - ----------------
#NOTES:
     dance-single:
     :
     Hard:
     8:
     0.563929,0.717023,0.343665,0.260071,0.390106,425.000000,388.000000,37.000000,28.000000,2.000000,0.000000,0.563929,0.717023,0.343665,0.260071,0.390106,425.000000,388.000000,37.000000,28.000000,2.000000,0.000000:
// measure 0
0000
0000
0000
0000
,  // measure 1
0000
0000
0000
0000
,  // measure 2
0000
0000
0000
0000
0000
0000
0000
0000
0000
0000
0000
0000
0000
0000
0000
0000
0000
0000
0000
0000
0000
0000
0000
0000
0000
0000
0000
0000
0000
0000
0000
0000
0000
0000
0000
0000
0000
0000
0000
0000
0000
0000
0000
0000
0000
0000
0000
0000
0002
0003
0000
0000
0000
0000
0000
0000
0000
0000
0000
0000
0000
0000
0000
0000
,  // measure 3
1000
0000
0000
0010
0000
0000
0100
0000
0010
0000
0100
0000
0000
0000
0000
0000
,  // measure 4
0001
0000
0000
0010
0000
0000
0100
0000
0010
0000
0100
0000
0000
0000
0000
0000
,  // measure 5
1000
0000
0000
0100
0000
0000
0010
0000
0100
0000
0010
0000
0001
0000
0000
0000
,  // measure 6
2002
0000
0000
0000
0000
3000
1003
0000
,  // measure 7
0101
0000
0100
0001
0100
0000
0010
0000
1000
0000
0100
0000
0010
0000
0100
1000
,  // measure 8
0100
0000
0010
0000
0100
0000
1000
0000
0100
0000
0010
0001
0010
0000
0100
0000
,  // measure 9
1000
0000
0010
1000
0010
0000
0100
0000
0001
0000
1000
0000
0100
0000
0000
0000
,  // measure 10
2002
0000
0000
0000
0003
0100
3100
0000
,  // measure 11
0010
0001
0010
0001
0100
0100
0010
0000
,  // measure 12
2000
0000
0000
3200
0000
0000
0320
0000
0031
0000
1000
0000
0001
0000
0000
0000
,  // measure 13
0001
0100
0001
0100
0010
0000
1000
0000
0001
0000
0010
0000
0100
0000
0000
0000
,  // measure 14
1000
0000
0000
0100
0000
0000
0010
0000
0001
0000
0100
0000
0001
0000
0000
0000
,  // measure 15
1010
0000
0000
1000
0000
0000
1100
0000
1000
0000
0010
0000
0100
0000
0000
0000
,  // measure 16
0101
0000
0000
0001
0000
0000
0011
0000
0010
0000
0001
0000
0100
0000
0000
0000
,  // measure 17
1010
0000
0000
0101
0000
0000
0011
0000
0010
0000
0000
0000
1001
0000
0000
0000
,  // measure 18
1100
0000
0000
0011
0000
0000
1010
0000
0010
0000
0000
0000
1001
0000
0001
0000
,  // measure 19
1000
0000
0100
1000
0000
0100
1000
0000
0100
0000
0010
0000
0001
0000
0000
0000
,  // measure 20
0001
0000
0100
0001
0000
0100
0001
0000
0100
0000
0010
0000
1000
0000
0000
0000
,  // measure 21
0010
0000
1000
0010
0000
1000
0010
0000
0100
0010
0100
0000
0001
0000
0000
0000
,  // measure 22
0010
0000
0001
0010
0000
0001
0010
0000
0100
0010
0100
0000
1000
0000
0000
0000
,  // measure 23
0010
0000
1000
0100
0000
0010
0001
0000
0100
0000
0010
0000
0110
0000
0000
0000
,  // measure 24
0100
0000
0001
0010
0000
0100
1000
0000
0010
0000
0100
0000
0110
0000
0000
0000
,  // measure 25
0010
0000
1000
0010
0000
0100
0001
0000
0010
0100
0010
0000
0001
0000
0000
0000
,  // measure 26
0100
0000
0001
0100
0000
0010
1000
0000
0100
0010
0100
0000
1000
0000
0000
0000
,  // measure 27
1000
0000
0100
1000
0100
1000
0100
0000
0010
0001
0010
0000
0100
0000
0000
0000
,  // measure 28
0010
0000
0000
0000
0100
0000
0010
0000
0100
0000
0000
0000
1000
0000
0000
0000
0010
0000
0100
0000
0010
0000
0100
0000
0010
0000
0000
0000
2000
3000
0000
0000
,  // measure 29
0001
0000
0100
0001
0100
0000
0000
0000
1000
0000
0100
1000
0100
0000
0000
0000
,  // measure 30
2002
0000
0000
0000
0000
0000
0000
3003
,  // measure 31
0001
0000
0000
0000
0000
0000
0010
0000
0000
0000
0000
0000
0100
0000
0000
0000
0100
0000
0000
0000
0100
0000
0000
0000
2000
3000
0000
0000
0000
0000
0000
0000
,  // measure 32
1000
0000
0000
0010
0000
0000
0100
0000
0100
0000
0100
0000
0000
0000
0000
0000
,  // measure 33
1000
0000
0000
0000
0000
0000
0100
0000
0000
0000
0000
0000
0010
0000
0000
0000
0010
0000
0000
0000
0010
0000
0000
0000
0002
0003
0000
0000
0000
0000
0000
0000
,  // measure 34
2002
0000
0000
0000
0000
0003
3001
0000
,  // measure 35
1010
0000
0000
0000
1000
0000
0010
0000
1000
0000
0000
0000
0100
0000
0000
0000
0010
0000
0000
0000
0001
0000
0000
0000
0200
0300
0000
0000
0001
0000
0100
0000
,  // measure 36
0001
0000
0100
0000
0010
0000
1000
0000
0100
0000
0010
0001
0010
0000
0100
0000
,  // measure 37
1000
0000
0000
0000
0100
0000
1000
0000
0100
0000
0000
0000
0010
0000
0000
0000
0001
0000
0000
0000
0100
0000
0000
0000
0020
0030
0000
0000
0000
0000
0000
0000
,  // measure 38
2002
0000
0000
0000
3000
0010
0013
0000
,  // measure 39
110M
0000
0100
0010
0001
0000
0011
0000
0001
0100
1000
0100
0001
0000
0100
0000
,  // measure 40
0101
0000
0100
0010
1000
0000
1010
0000
1000
0100
0001
0100
1000
0000
0100
0000
,  // measure 41
0110
0000
0010
0001
0100
0000
0010
0000
1000
0010
0001
0010
1000
0000
0010
0000
,  // measure 42
0110
0000
0010
1000
0100
0000
0010
0000
0001
0010
1000
0010
0001
0000
0001
0000
,  // measure 43
0101
0000
0100
0010
1000
0000
1001
0000
1000
0100
0001
1000
0020
0000
0031
0000
,  // measure 44
0011
0000
0010
0100
1000
0000
1001
0000
0001
0100
1000
0001
0020
0000
1030
0000
,  // measure 45
1100
0000
1000
0100
0010
0000
0001
0000
1000
0010
0001
1000
0200
0000
0301
0000
,  // measure 46
1010
0000
1000
0010
0100
0000
1001
0000
0001
0010
1000
0001
0200
0000
1300
0000
,  // measure 47
00M1
0000
0000
0000
0000
0000
0100
0000
0000
0000
0000
0000
0010
0000
0000
0000
0010
0000
0000
0000
0010
0000
0000
0000
2000
3000
0000
0000
0000
0000
0000
0000
,  // measure 48
1000
0000
0000
0100
0000
0000
0010
0000
0010
0000
0010
0000
0000
0000
0000
0000
,  // measure 49
0001
0000
0000
0000
0000
0000
0010
0000
0000
0000
0000
0000
0100
0000
0000
0000
0100
0000
0000
0000
0100
0000
0000
0000
2000
3000
0000
0000
0000
0000
0000
0000
,  // measure 50
2002
0000
0000
0000
0000
3000
1003
0000
,  // measure 51
0011
0000
0001
0010
0001
0000
0010
0000
0100
0000
1000
0000
0010
0000
1000
0010
,  // measure 52
1000
0000
0010
0000
0100
0000
0001
0000
1000
0000
0100
1000
0100
0000
0010
0000
,  // measure 53
0001
0000
0010
0001
0010
0000
0100
0000
1000
0000
0001
0000
0100
0000
0000
0000
,  // measure 54
1001
0000
0000
0000
0000
0000
0000
0000
0000
0000
0000
0000
0000
0000
0000
0000
1000
0000
0000
0000
0000
0000
0001
0000
0000
0010
0000
0000
0100
0000
0000
1000
,  // measure 55
0000
0000
0000
0000
0000
0000
0000
0000
0020
0030
0000
0000
0000
0000
0000
0000
0000
0000
0000
0000
0000
0000
0000
0000
0000
0000
0000
0000
0000
0000
0000
0000
0000
0000
0000
0000
0000
0000
0000
0000
0000
0000
0000
0000
0000
0000
0000
0000
0000
0000
0000
0000
0000
0000
0000
0000
0000
0000
0000
0000
0000
0000
0000
0000
;

//---------------dance-single - ----------------
#NOTES:
     dance-single:
     :
     Beginner:
     1:
     0.104824,0.230406,0.027865,0.065018,0.000000,79.000000,76.000000,3.000000,7.000000,0.000000,0.000000,0.104824,0.230406,0.027865,0.065018,0.000000,79.000000,76.000000,3.000000,7.000000,0.000000,0.000000:
// measure 0
0000
0000
0000
0000
,  // measure 1
0000
0000
0000
0000
,  // measure 2
0000
0000
0000
0000
,  // measure 3
0000
0000
0000
0000
,  // measure 4
0000
0000
0000
0000
,  // measure 5
0000
0000
0000
0000
,  // measure 6
0000
0000
0000
0000
,  // measure 7
0001
0000
0001
0000
,  // measure 8
1000
0000
1000
0000
,  // measure 9
0010
0000
0010
0000
,  // measure 10
0110
0000
0000
0000
,  // measure 11
0001
0000
0000
0000
,  // measure 12
1000
0000
0000
0000
,  // measure 13
1000
0000
0000
0000
,  // measure 14
0001
0000
0000
0000
,  // measure 15
0010
0000
0010
0000
,  // measure 16
0010
0000
0000
0000
,  // measure 17
0100
0000
0100
0000
,  // measure 18
0100
0000
0000
0000
,  // measure 19
0001
0000
0000
0000
,  // measure 20
1000
0000
0000
0000
,  // measure 21
0001
0000
0001
0000
,  // measure 22
1000
0000
1000
0000
,  // measure 23
0010
0000
0000
0000
,  // measure 24
0100
0000
0000
0000
,  // measure 25
0010
0000
0010
0000
,  // measure 26
0100
0000
0100
0000
,  // measure 27
0001
0000
0000
0000
,  // measure 28
0001
0000
0000
0000
,  // measure 29
1000
0000
1000
0000
,  // measure 30
0002
0000
0000
0003
,  // measure 31
0100
0000
0000
0000
,  // measure 32
0100
0000
0000
0000
,  // measure 33
0010
0000
0000
0000
,  // measure 34
0020
0000
0000
0030
,  // measure 35
1000
0000
1000
0000
,  // measure 36
0001
0000
0001
0000
,  // measure 37
0100
0000
0100
0000
,  // measure 38
0020
0000
0000
0030
,  // measure 39
0010
0000
0010
0000
,  // measure 40
1000
0000
1000
0000
,  // measure 41
0001
0000
0001
0000
,  // measure 42
0100
0000
0200
0300
,  // measure 43
0010
0010
0000
1001
,  // measure 44
0001
0001
0000
1000
,  // measure 45
0100
0100
0000
1001
,  // measure 46
1000
1000
0020
0030
,  // measure 47
1000
0000
0000
0000
,  // measure 48
0001
0000
0000
0000
,  // measure 49
1000
0000
0000
0000
,  // measure 50
0020
0000
0000
0030
,  // measure 51
0100
0000
0100
0000
,  // measure 52
0001
0000
0001
0000
,  // measure 53
1000
0000
1000
0000
,  // measure 54
0020
0000
0000
0000
,  // measure 55
0000
0030
0000
0000
0000
0000
0000
0000
;

//---------------dance-single - ----------------
#NOTES:
     dance-single:
     :
     Easy:
     3:
     0.188419,0.256007,0.009288,0.148612,0.000000,142.000000,141.000000,1.000000,16.000000,0.000000,0.000000,0.188419,0.256007,0.009288,0.148612,0.000000,142.000000,141.000000,1.000000,16.000000,0.000000,0.000000:
// measure 0
0000
0000
0000
0000
,  // measure 1
0000
0000
0000
0000
,  // measure 2
0000
0000
0000
0000
,  // measure 3
0001
0000
0001
0000
,  // measure 4
1000
0000
1000
0000
,  // measure 5
0010
0000
0010
0000
,  // measure 6
0200
0000
0000
0310
,  // measure 7
0001
0001
0001
0000
,  // measure 8
0100
0100
0100
0000
,  // measure 9
1000
1000
1000
0000
,  // measure 10
0020
0000
0000
0130
,  // measure 11
0001
0001
0001
0000
,  // measure 12
2000
0000
3002
0000
,  // measure 13
0103
0100
0100
0000
,  // measure 14
0010
1000
0001
0000
,  // measure 15
1000
0100
1000
1000
,  // measure 16
0001
0100
0001
0001
,  // measure 17
0010
0010
0100
0100
,  // measure 18
1000
1000
0001
0001
,  // measure 19
1000
0100
0010
0001
,  // measure 20
0001
0100
0010
1000
,  // measure 21
0001
0000
0001
0000
,  // measure 22
1000
0000
1000
0000
,  // measure 23
0001
0010
0100
1000
,  // measure 24
1000
0010
0100
0001
,  // measure 25
0010
0000
0010
0000
,  // measure 26
0100
0000
0100
0000
,  // measure 27
1000
0010
1000
1000
,  // measure 28
0001
0010
0001
0001
,  // measure 29
1000
1000
0001
0001
,  // measure 30
1001
0000
0000
0000
,  // measure 31
0100
0000
0100
0000
,  // measure 32
0010
0000
0010
0000
,  // measure 33
1000
0000
1000
0000
,  // measure 34
0002
0000
0000
1003
,  // measure 35
0001
0001
0001
0000
,  // measure 36
0010
0010
0010
0000
,  // measure 37
1000
1000
1000
0000
,  // measure 38
0200
0000
0000
0310
,  // measure 39
0001
0000
0001
0000
,  // measure 40
1000
0000
1000
0000
,  // measure 41
0100
0000
0100
0000
,  // measure 42
0010
0000
0010
0000
,  // measure 43
0002
0103
2000
3100
,  // measure 44
0020
0130
0200
0310
,  // measure 45
2000
3010
0002
0013
,  // measure 46
0200
0310
0020
0130
,  // measure 47
1000
0000
0000
0000
,  // measure 48
1000
0000
0000
0000
,  // measure 49
0001
0000
0000
0000
,  // measure 50
0002
0000
0000
0003
,  // measure 51
1000
1000
1000
0000
,  // measure 52
0001
0001
0001
0000
,  // measure 53
0100
0100
0100
0000
,  // measure 54
0020
0000
0000
0000
,  // measure 55
0000
0130
0000
0000
0000
0000
0000
0000
;

//---------------dance-single - ----------------
#NOTES:
     dance-single:
     :
     Medium:
     6:
     0.413990,0.512014,0.092882,0.185765,0.139324,312.000000,302.000000,10.000000,20.000000,2.000000,0.000000,0.413990,0.512014,0.092882,0.185765,0.139324,312.000000,302.000000,10.000000,20.000000,2.000000,0.000000:
// measure 0
0000
0000
0000
0000
,  // measure 1
0000
0000
0000
0000
,  // measure 2
0000
0000
0000
0000
,  // measure 3
1000
0010
0100
0001
,  // measure 4
0010
0100
0010
0001
,  // measure 5
1000
0010
0100
0010
,  // measure 6
2002
0000
0000
3003
,  // measure 7
0001
0100
0010
1000
0100
0010
0100
1000
,  // measure 8
0010
0100
0001
0010
0100
0010
0001
1000
,  // measure 9
0001
0010
0100
1000
0010
0100
0001
0000
,  // measure 10
0220
0000
0000
0000
0300
0100
0130
0000
,  // measure 11
1000
0010
1000
0000
0001
0010
0001
0000
,  // measure 12
0001
0000
0000
0010
0000
0000
0100
0000
1000
0000
0010
0000
0100
0000
0000
0000
,  // measure 13
0001
0000
0000
0100
0000
0000
1000
0000
0010
0000
0001
0000
0100
0000
0000
0000
,  // measure 14
1000
0000
0000
0100
0000
0000
0001
0000
0010
0000
1000
0000
0100
0000
0000
0000
,  // measure 15
0010
0000
0000
0010
0000
0000
0010
0000
0001
0000
1000
0000
0001
0000
0000
0000
,  // measure 16
0010
0000
0000
0010
0000
0000
0010
0000
1000
0000
0001
0000
1000
0000
0000
0000
,  // measure 17
0100
0000
0000
0100
0000
0000
0100
0000
1000
0000
0000
0000
0001
0000
0000
0000
,  // measure 18
0100
0000
0000
0100
0000
0000
0100
0000
0001
0000
0000
0000
1000
0000
1000
0000
,  // measure 19
0100
0000
0000
0010
0000
0000
0001
0000
0100
0000
0001
0000
0100
0000
0000
0000
,  // measure 20
0001
0000
0000
0100
0000
0000
0010
0000
1000
0000
0010
0000
1000
0000
0000
0000
,  // measure 21
0100
0000
0000
0100
0000
0000
0100
0000
1000
0000
0010
0000
0100
0000
0000
0000
,  // measure 22
0001
0000
0000
0001
0000
0000
0001
0000
0010
0000
0100
0000
1000
0000
0000
0000
,  // measure 23
0010
0000
0000
0100
0000
0000
0001
0000
1000
0000
0100
0000
0010
0000
0000
0000
,  // measure 24
0010
0000
0000
0100
0000
0000
1000
0000
0001
0000
0100
0000
0010
0000
0000
0000
,  // measure 25
1000
0000
0000
0100
0000
0000
0010
0000
0001
0000
0100
0000
0001
0000
0000
0000
,  // measure 26
0100
0000
0000
0010
0000
0000
1000
0000
0100
0000
0010
0000
0100
0000
0000
0000
,  // measure 27
0010
0001
0010
0001
0100
0010
1000
0000
,  // measure 28
0010
1000
0010
1000
0100
0010
0001
1000
,  // measure 29
0010
1000
0100
0000
0010
0001
0100
0000
,  // measure 30
0220
0000
0000
0330
,  // measure 31
1000
0000
0000
1000
0000
0000
1000
0000
0100
0000
0010
0000
0000
0000
0000
0000
,  // measure 32
0001
0000
0000
0001
0000
0000
0001
0000
0100
0000
0010
0000
0000
0000
0000
0000
,  // measure 33
0001
0000
0000
0001
0000
0000
0001
0000
0010
0000
0100
0000
1000
0000
0000
0000
,  // measure 34
2002
0000
0000
3003
,  // measure 35
1000
0100
0010
0100
1000
0010
0100
0001
,  // measure 36
0010
0100
0010
0001
1000
0001
1000
0100
,  // measure 37
0010
0001
0100
0010
1000
0100
0010
0000
,  // measure 38
2002
0000
0000
0000
3000
1000
1003
0000
,  // measure 39
200M
0010
3010
0100
0002
0010
0013
0100
,  // measure 40
2100
0010
3001
0100
0001
0010
0100
1000
,  // measure 41
1002
0010
1003
0100
0010
1000
0100
0010
,  // measure 42
0012
0100
1003
0010
0200
0000
0000
0300
,  // measure 43
0001
0000
1000
0100
1000
0000
0000
0000
0010
1000
0010
1000
0010
0000
0000
0000
,  // measure 44
1000
0000
0001
0010
0001
0000
0000
0000
0100
0001
0100
0001
0100
0000
0000
0000
,  // measure 45
0001
0000
1000
0010
1000
0000
0000
0000
0100
1000
0100
1000
0100
0000
0000
0000
,  // measure 46
1000
0000
0001
0100
0001
0000
0000
0000
0010
0001
0010
0001
0010
0000
0000
0000
,  // measure 47
M100
1000
0010
0100
,  // measure 48
0001
0010
0100
0010
,  // measure 49
0001
1000
0010
0100
,  // measure 50
0220
0000
0000
0330
,  // measure 51
1000
0100
0010
0001
0010
0100
1000
0010
,  // measure 52
0100
0001
0100
0010
1000
0100
0010
0100
,  // measure 53
1000
0001
0100
0010
0100
0001
1000
0000
,  // measure 54
2002
0000
3003
0000
,  // measure 55
0000
0010
0000
0000
0000
0000
0000
0000
;
