#TITLE:ENCHANTÉ (CARINE);
#SUBTITLE:FEAT AXL JACK;
#ARTIST:FERGIE;
#TITLETRANSLIT:;
#SUBTITLETRANSLIT:;
#ARTISTTRANSLIT:;
#GENRE:;
#CREDIT:;
#BANNER:[Round 3] - ENCHANTE (CARINE) FEAT AXL JACK.png;
#BACKGROUND:[Round 3] - ENCHANTE (CARINE) FEAT AXL JACK-bg.png;
#LYRICSPATH:;
#CDTITLE:cdtitle.png;
#MUSIC:[Round 3] - ENCHANTE (CARINE) FEAT AXL JACK.ogg;
#OFFSET:-0.208000;
#SAMPLESTART:70.452896;
#SAMPLELENGTH:13.000000;
#SELECTABLE:YES;
#DISPLAYBPM:114.000000;
#BPMS:0.000000=90.734001
,1.000000=86.455002
,2.000000=77.898003
,3.000000=89.087997
,4.000000=84.500000
,16.000000=114.000000
;
#STOPS:
;
#BGCHANGES:;
#KEYSOUNDS:;
#ATTACKS:;

//---------------dance-single - ----------------
#NOTES:
     dance-single:
     :
     Beginner:
     1:
     0.089324,0.133122,0.040340,0.070595,0.000000,62.000000,58.000000,4.000000,7.000000,0.000000,0.000000,0.089324,0.133122,0.040340,0.070595,0.000000,62.000000,58.000000,4.000000,7.000000,0.000000,0.000000:
0000
0000
0000
0000
,
0000
0000
0000
0000
,
0000
0000
0000
0000
,
0000
0000
0000
0000
,
1000
0000
0000
0000
,
0001
0000
0000
0000
,
1000
0000
0000
0000
,
0001
0000
0000
0000
,
0010
0000
0010
0000
,
0010
0000
0010
0000
,
0010
0000
0010
0000
,
0010
0000
0010
0000
,
0100
0000
0100
0000
,
0100
0000
0100
0000
,
0100
0000
0100
0000
,
0100
0000
0100
0000
,
2000
0000
0000
0000
,
0000
0000
3000
0000
,
0002
0000
0000
0000
,
0000
0000
0003
0000
,
0200
0000
0000
0000
,
0000
0000
0300
0000
,
0020
0000
0000
0000
,
0000
0000
0030
0000
,
1001
0000
0001
0000
,
1000
0000
0100
0000
,
1000
0000
0010
0000
,
0100
0000
0100
0000
,
0010
0000
0100
0000
,
0001
0000
0100
0000
,
0010
0000
1000
0000
,
0010
0000
0010
0000
,
1001
0000
0000
0000
,
0110
0000
0000
0000
,
0000
0010
0000
0010
,
0000
0010
0010
0010
,
0010
0000
0000
0000
,
1001
0000
0000
0000
,
0000
0100
0000
0100
,
0000
0100
0100
0100
,
0100
0000
0000
0000
,
0020
0000
0030
0000
,
0002
0000
0003
0000
,
2000
0000
0000
0000
,
3000
0000
0000
0000
;

//---------------dance-single - ----------------
#NOTES:
     dance-single:
     :
     Easy:
     3:
     0.181530,0.287612,0.110935,0.121020,0.000000,126.000000,115.000000,11.000000,12.000000,0.000000,0.000000,0.181530,0.287612,0.110935,0.121020,0.000000,126.000000,115.000000,11.000000,12.000000,0.000000,0.000000:
0000
0000
0000
0000
,
0000
0000
0000
0000
,
0000
0000
0000
0000
,
0000
0000
0000
0000
,
2000
0000
3000
0001
,
0200
0000
0300
0010
,
2000
0000
0000
3000
,
0002
0000
0000
0000
,
1003
0000
0010
0000
,
0100
0000
0001
0000
,
0010
0000
0001
0000
,
1000
0000
0100
0000
,
1000
0000
0001
0000
,
0100
0000
0010
0000
,
1000
0000
0100
0000
,
0010
0000
0001
0000
,
1100
1000
0100
1000
,
0101
0001
0100
0000
,
0101
0001
0100
0001
,
1100
1000
0100
0000
,
0011
0001
0010
0001
,
1010
1000
0010
0000
,
1010
1000
0010
1000
,
0001
0010
0001
0000
,
1000
0100
0001
0100
,
1000
0010
0001
0010
,
1000
0100
0001
1000
,
0010
0001
0000
0001
,
1000
0010
0100
0010
,
1000
0100
0001
0100
,
1000
0001
0100
0010
,
0100
0000
0100
0000
,
2001
3100
0010
0001
,
0210
1300
0010
0100
,
0000
0100
0000
0100
,
0000
0000
0100
0010
0100
0010
0100
0000
,
0102
1003
0010
0100
,
0102
0013
0100
1000
,
0000
1000
0000
1000
,
0000
0000
1000
0100
1000
0100
1000
0000
,
0020
0000
0000
1030
,
2000
0000
0000
3100
,
0200
0000
0000
0300
,
0020
0000
0000
0000
0000
0000
0000
0030
;

//---------------dance-single - ----------------
#NOTES:
     dance-single:
     :
     Medium:
     5:
     0.293906,0.309736,0.050425,0.171445,0.000000,204.000000,199.000000,5.000000,17.000000,0.000000,0.000000,0.293906,0.309736,0.050425,0.171445,0.000000,204.000000,199.000000,5.000000,17.000000,0.000000,0.000000:
0000
0000
0000
0000
,
0000
0000
0000
0000
,
0000
0000
0000
0000
,
0000
0000
0000
0000
,
1000
0100
1000
0100
,
0010
0001
0010
0001
,
0100
0001
0100
0001
,
1000
0010
1000
0000
,
0002
0000
0103
0000
0010
1000
0010
0000
,
0200
0000
0301
0000
1000
0010
1000
0000
,
0002
0000
0013
0000
1000
0100
1000
0000
,
0020
0000
1030
0000
0001
0100
0001
0000
,
2000
0000
3100
0000
0010
0001
0000
0000
,
0002
0000
0103
0000
0010
1000
0000
0000
,
2000
0000
3001
0000
0010
0100
0000
0000
,
0200
0000
0310
0000
1000
0001
0000
0000
,
1000
0010
0001
0010
1000
0010
0001
0010
,
1000
0000
0100
0010
0001
0000
0000
0000
,
0001
0100
1000
0100
0001
0100
1000
0100
,
0001
0000
0010
0100
1000
0000
0000
0000
,
0010
1000
0100
1000
0010
1000
0100
1000
,
0010
0000
1000
0001
0100
0000
0000
0000
,
0010
0001
0100
0001
0010
0001
0100
0001
,
0010
0000
0100
1000
0001
0000
0000
0000
,
2001
0000
3100
0000
0010
0001
0100
0001
,
0010
0000
0100
0000
1000
0010
0100
0001
,
0100
0000
0010
0000
1000
0100
1000
0000
,
0001
0010
0100
0000
0001
0010
0100
0000
,
1000
0010
0100
0010
1000
0000
0001
0000
,
0010
0100
1000
0000
0100
0010
0001
0010
,
0100
0000
1000
0000
0001
0100
0010
0000
,
0100
0001
0010
0000
0100
0001
0010
0000
,
2100
0000
3001
0000
0010
0001
0100
0000
,
0102
0000
1003
0000
0010
1000
0100
0000
,
0000
1000
0100
0000
0000
1000
0100
0000
,
0000
1000
0100
1000
0100
1000
0100
0000
,
2100
0000
3010
0000
0100
0001
0010
0000
,
0012
0000
0103
0000
0010
1000
0100
0000
,
0000
1000
0100
0000
0000
1000
0100
0000
,
0000
1000
0100
1000
0100
1000
0100
0000
,
0020
0000
0000
0000
0030
0001
0010
0100
,
2000
0000
0000
0000
3000
0010
1000
0001
,
0200
0000
0000
0000
0300
0001
0010
0001
,
0200
0000
0000
0000
0000
0000
0000
0300
;

//---------------dance-single - ----------------
#NOTES:
     dance-single:
     :
     Hard:
     9:
     0.404841,0.464604,0.000000,0.010085,0.322721,281.000000,281.000000,0.000000,1.000000,0.000000,0.000000,0.404841,0.464604,0.000000,0.010085,0.322721,281.000000,281.000000,0.000000,1.000000,0.000000,0.000000:
// measure 0
0000
0000
0000
0000
,  // measure 1
0000
0000
0000
0000
,  // measure 2
0000
0000
0000
0000
,  // measure 3
0000
0000
0000
0000
,  // measure 4
1000
0000
0000
0010
0000
0000
1000
0000
0000
0000
0001
0000
0010
0000
0001
0000
,  // measure 5
1000
0000
0000
0001
0000
0000
1000
0000
0000
0000
0010
0000
0100
0000
0010
0000
,  // measure 6
1000
0000
0000
0100
0000
0000
1000
0000
0000
0000
0001
0000
0010
0000
0001
0000
,  // measure 7
0010
0000
0000
0100
0000
0000
0010
0000
0000
0000
0001
0000
1000
0000
0010
0000
,  // measure 8
1000
0100
0000
0010
0001
0100
0000
0001
,  // measure 9
1000
0100
0000
1000
0001
0010
0000
0100
,  // measure 10
1000
0010
0000
0100
0001
0010
0000
0001
,  // measure 11
1000
0010
0000
1000
0001
0010
0000
0100
,  // measure 12
1000
0010
0000
1000
0010
0001
0000
0010
,  // measure 13
1000
0100
0000
1000
0100
0001
0000
0100
,  // measure 14
0010
0001
0000
0100
0001
1000
0000
0010
,  // measure 15
1000
0001
0000
0010
0100
1000
0000
0000
,  // measure 16
0010
0000
0000
1000
0001
0000
0010
0000
0100
0000
1000
0000
0100
0000
0010
0000
,  // measure 17
0001
0000
0000
1000
0010
0000
0100
0000
0001
0000
0100
0000
0010
0000
1000
0000
,  // measure 18
0001
0000
0000
0010
0100
0000
1000
0000
0010
0000
0100
0000
0001
0000
0100
0000
,  // measure 19
0010
0000
0000
1000
0100
0000
1000
0000
0000
0000
0010
0000
0100
0000
0001
0000
,  // measure 20
1000
0000
0000
0100
0010
0000
0001
0000
0100
0000
0001
0000
1000
0000
0010
0000
,  // measure 21
0100
0000
0000
0001
1000
0000
0100
0000
0010
0000
0100
0000
1000
0000
0010
0000
,  // measure 22
0100
0000
0000
0010
1000
0000
0001
0000
0010
0000
0100
0000
1000
0000
0010
0000
,  // measure 23
0200
0000
0000
0000
0000
0000
0300
0000
0000
0001
0010
0100
1000
0100
0010
0001
,  // measure 24
0000
0000
1000
0010
0100
0001
1000
0000
0001
0010
0000
0100
0000
1000
0000
0001
,  // measure 25
0000
0000
0100
0000
0010
0000
0000
0100
0000
0001
0000
0010
0000
0100
0010
0001
,  // measure 26
0000
0000
1000
0000
0000
0001
0000
0000
0100
0010
0000
1000
0000
0001
0000
0000
,  // measure 27
0000
0010
0100
0000
0100
1000
0000
0000
0000
0010
0100
0000
0100
1000
0010
0100
,  // measure 28
0000
0000
0001
0010
0100
1000
0001
0000
0010
0100
0000
1000
0000
0001
0000
0100
,  // measure 29
0000
0000
0010
0000
1000
0000
0000
0001
0000
0010
0000
0001
0000
1000
0100
1000
,  // measure 30
0000
0000
0010
0000
0000
0100
0000
0000
0001
0100
0000
0010
0000
1000
0000
0000
,  // measure 31
0000
1000
0010
0000
0010
0100
0000
0000
0000
1000
0010
0000
0010
0100
0001
0000
,  // measure 32
0010
0000
0001
0000
0100
0000
0000
0000
0010
1000
0100
1000
0010
0000
0000
0000
,  // measure 33
1000
0000
0010
0100
0000
0000
0001
0000
0100
0000
0010
0000
1000
0000
0000
0000
,  // measure 34
0100
1000
0010
0000
0100
1000
0010
0000
,  // measure 35
0100
1000
0010
1000
0010
1000
0010
0000
,  // measure 36
0100
0000
0001
0000
0010
0000
0000
0000
0100
1000
0010
1000
0100
0000
0000
0000
,  // measure 37
0010
0000
0001
1000
0000
0000
0010
0000
1000
0000
0001
0000
0010
0000
0000
0000
,  // measure 38
0100
0010
0001
0000
0100
0010
0001
0000
,  // measure 39
0100
0010
0001
0010
0001
0010
0001
0000
,  // measure 40
1000
0000
0000
0001
0000
0000
0100
0000
0000
0000
0010
0000
1000
0000
0001
0000
,  // measure 41
0010
0000
0000
0100
0000
0000
1000
0000
0000
0000
0001
0000
0010
0000
0100
0000
,  // measure 42
1000
0000
0000
0001
0000
0000
0010
0000
0000
0000
0001
0000
0100
0000
0010
0000
,  // measure 43
1000
0000
0000
0010
0000
0000
0100
0000
0000
0000
0001
0000
0100
0000
0010
0000
;
