#TITLE:BroGamer;
#SUBTITLE:;
#ARTIST:USAO;
#TITLETRANSLIT:;
#SUBTITLETRANSLIT:;
#ARTISTTRANSLIT:;
#GENRE:;
#CREDIT:;
#BANNER:BroGamer.png;
#BACKGROUND:BroGamer-bg.png;
#LYRICSPATH:;
#CDTITLE:;
#MUSIC:BroGamer.mp3;
#OFFSET:-6.895997;
#SAMPLESTART:30.066837;
#SAMPLELENGTH:17.391304;
#SELECTABLE:YES;
#BPMS:0.000000=207.000000
;
#STOPS:12.000000=0.870000,
153.000000=0.870000,
278.000000=0.870000,
403.000000=0.870000
;
#BGCHANGES:;
#KEYSOUNDS:;
#ATTACKS:;

//---------------dance-single - ----------------
#NOTES:
     dance-single:
     :
     Hard:
     9:
     0.544720,0.621156,0.222940,0.069188,0.138376,496.000000,467.000000,29.000000,9.000000,0.000000,0.000000,0.544720,0.621156,0.222940,0.069188,0.138376,496.000000,467.000000,29.000000,9.000000,0.000000,0.000000:
// measure 0
0000
0000
0000
0000
,  // measure 1
0000
0000
0000
0000
,  // measure 2
0000
0000
0000
0000
,  // measure 3
0000
1001
0001
0010
,  // measure 4
0001
1000
0001
1000
,  // measure 5
0100
1000
0010
1000
,  // measure 6
0100
1000
0001
1000
,  // measure 7
1000
0000
1100
0000
1000
0001
0100
0000
,  // measure 8
0010
0100
0000
0001
0010
0000
0001
1000
,  // measure 9
0100
1000
0001
0100
,  // measure 10
0010
0000
0100
0010
1000
0100
0010
0001
,  // measure 11
1000
0000
0001
1000
0010
1000
0100
0000
,  // measure 12
1000
0001
0100
0001
,  // measure 13
1000
0001
0000
0100
0010
1000
0000
0100
,  // measure 14
0010
0000
0100
1000
0001
0010
0001
0100
,  // measure 15
0010
0000
1000
0001
0100
0001
0010
0000
,  // measure 16
0001
1000
0100
1000
,  // measure 17
0001
0100
0000
0010
1000
0100
0000
0010
,  // measure 18
0100
0000
0010
0000
0001
0000
1000
0010
,  // measure 19
1000
0001
1000
0000
0010
0000
1000
0000
,  // measure 20
0100
1000
0001
0010
,  // measure 21
0001
0100
0010
1000
,  // measure 22
0001
0000
0010
0000
0001
0100
0010
1000
,  // measure 23
0001
0000
1000
0000
0001
0000
0100
0001
,  // measure 24
0010
0000
0100
0000
1000
0000
0010
0100
,  // measure 25
0001
1000
0001
1000
0000
0000
0000
0000
0000
0001
0000
0000
,  // measure 26
0000
0001
0000
0000
,  // measure 27
0000
1000
0100
1100
,  // measure 28
1100
1000
0001
0011
,  // measure 29
0010
0001
1001
0001
,  // measure 30
0100
0101
0001
1001
,  // measure 31
0110
0000
0100
0000
0001
1000
0000
1000
,  // measure 32
0001
0000
0010
0001
0100
0000
0010
1000
,  // measure 33
0100
0000
1000
0000
0001
0000
1000
0000
0000
0000
0100
0000
0000
0000
0010
0000
0000
0000
0001
0000
0000
0010
0000
0000
,  // measure 34
0100
0010
0001
0000
1000
0010
0100
0000
,  // measure 35
0000
0000
0000
0000
1000
0001
0100
0000
,  // measure 36
0000
0000
0000
0000
0000
0100
0010
0000
,  // measure 37
0000
0000
0000
0000
1000
0001
0100
0001
,  // measure 38
0000
0000
0000
0000
1001
0000
0000
0000
0001
0000
0000
0100
0000
0000
0001
0000
,  // measure 39
0000
0100
0000
0000
0101
0000
0000
0000
1000
0000
0000
0010
0000
0000
1000
0000
,  // measure 40
0000
0010
0000
0000
1010
0000
0000
0000
1000
0000
0000
0001
0000
0000
1000
0000
,  // measure 41
0000
0001
0000
0000
1001
0000
0000
0000
0001
0000
0000
0010
0000
0000
0001
0000
,  // measure 42
0010
0001
0000
1000
0100
0000
1000
0000
0010
0000
0000
1000
0000
0000
0100
0000
,  // measure 43
0000
0010
0000
0000
0011
0000
0000
0000
0001
0000
0000
0010
0000
0000
0100
0000
,  // measure 44
0000
1000
0000
0000
1001
0000
0000
0000
0001
0000
0000
0100
0000
0000
0010
0000
,  // measure 45
0000
1000
0000
0000
1010
0000
0000
0000
1000
0000
0000
0000
0001
0000
1000
0000
,  // measure 46
0000
0100
0000
0010
0001
1000
0100
1000
,  // measure 47
0001
0000
0000
0000
,  // measure 48
0000
0000
0000
0000
2000
3020
0030
0000
,  // measure 49
0200
0000
0302
0000
1003
0000
0001
0100
,  // measure 50
0001
0010
0001
1000
0001
0000
1000
0001
,  // measure 51
0100
0000
0000
0000
0000
0000
0000
1000
,  // measure 52
0010
0000
0000
0000
0000
0000
0100
0001
,  // measure 53
0010
0001
0000
0000
1002
0000
1000
0000
,  // measure 54
0013
0000
0000
0001
0010
0100
1000
0010
,  // measure 55
0100
0000
0000
0000
,  // measure 56
0000
0000
0010
0100
0000
0010
1000
0001
,  // measure 57
0000
0010
0000
0000
0000
0000
0000
0000
,  // measure 58
0000
0000
0000
0100
1000
0001
0100
0001
,  // measure 59
0010
0000
0000
0000
,  // measure 60
0000
0000
0000
0000
1002
0000
0000
0100
,  // measure 61
0000
0103
0000
0000
0001
0010
0100
1000
,  // measure 62
0020
0000
0000
1030
0001
1000
0010
1000
,  // measure 63
0100
1000
0010
0100
,  // measure 64
0001
0010
1001
0001
,  // measure 65
0100
0001
0010
0001
,  // measure 66
1000
0100
1001
0001
,  // measure 67
0100
0010
1001
1000
,  // measure 68
0010
0000
0100
0000
0001
0100
0010
1000
,  // measure 69
0001
0100
0010
1000
0001
0000
1001
0000
,  // measure 70
0001
0010
0100
0000
0010
0001
1000
0010
,  // measure 71
0000
0100
0000
0010
0000
0100
0001
0000
,  // measure 72
1000
0000
0001
0010
0001
0100
0001
1000
,  // measure 73
0100
1000
0001
0100
0010
1000
0100
0000
,  // measure 74
0010
0001
0100
0000
0010
1000
0100
0010
,  // measure 75
0000
0100
0000
0010
0000
0001
1000
0000
,  // measure 76
0001
0000
0100
0001
0010
0000
0100
0010
,  // measure 77
0001
1000
0010
0100
0001
0000
1000
0100
,  // measure 78
0001
0100
0010
0000
0001
0000
0100
0000
,  // measure 79
0010
0000
1000
0000
0001
1000
0000
0001
,  // measure 80
0100
0010
0000
0100
0001
0000
1000
0000
,  // measure 81
0001
0000
0010
0001
0010
0100
1000
0100
,  // measure 82
0001
0100
1000
0000
0001
0000
0010
0000
,  // measure 83
0001
0000
1000
0000
0001
1000
0000
0010
,  // measure 84
0100
0001
0000
0010
0000
0000
0200
0000
,  // measure 85
1300
0020
0031
1000
,  // measure 86
0001
1000
0010
0000
1000
0000
0100
0000
,  // measure 87
1000
0010
0100
0000
0001
0000
0010
0000
,  // measure 88
0100
0010
0001
0000
0010
0000
0100
0000
,  // measure 89
1000
0001
0100
0000
0010
0000
1000
0000
,  // measure 90
0001
0010
0001
0000
0010
0000
0100
0000
,  // measure 91
1000
0100
1000
0000
0010
0000
0100
0000
,  // measure 92
0001
1000
0001
0000
1000
0000
0010
0000
,  // measure 93
0100
0000
0010
0000
0100
0000
0000
0000
0000
0000
0000
0000
1000
0000
0000
0010
,  // measure 94
0000
0000
1000
0000
0000
0010
0000
0000
1010
0000
0000
0000
0001
0000
0000
0100
,  // measure 95
0000
0000
0001
0000
0000
0100
0000
0000
0101
0000
0000
0000
0001
0000
0000
1000
,  // measure 96
0000
0000
0001
0000
0000
1000
0000
0000
1001
0000
0000
0000
1000
0000
0000
0100
,  // measure 97
0000
0000
1000
0000
0100
1000
0000
0001
0010
0000
0001
0000
0100
0000
0000
0001
,  // measure 98
0000
0000
0010
0000
0000
0100
0000
0000
1100
0000
0000
0000
1000
0000
0000
0100
,  // measure 99
0000
0000
0010
0000
0000
0001
0000
0000
1001
0000
0000
0000
1000
0000
0000
0010
,  // measure 100
0000
0000
0100
0000
0000
0001
0000
0000
0101
0000
0000
0000
0000
0000
0000
0000
,  // measure 101
0110
0000
0000
0000
;

//---------------dance-single - ----------------
#NOTES:
     dance-single:
     :
     Medium:
     7:
     0.437094,0.465867,0.161439,0.069188,0.076876,398.000000,377.000000,21.000000,9.000000,0.000000,0.000000,0.437094,0.465867,0.161439,0.069188,0.076876,398.000000,377.000000,21.000000,9.000000,0.000000,0.000000:
// measure 0
0000
0000
0000
0000
,  // measure 1
0000
0000
0000
0000
,  // measure 2
0000
0000
0000
0000
,  // measure 3
0000
1001
0001
0100
,  // measure 4
0001
1000
0010
1000
,  // measure 5
0001
1000
0100
1000
,  // measure 6
0100
0010
0001
1000
,  // measure 7
1000
0000
1001
0000
0001
0100
0001
0000
,  // measure 8
0100
0010
1000
0100
,  // measure 9
0010
0000
0100
0000
1000
0001
1000
0000
,  // measure 10
0001
0000
0100
0000
0010
1000
0100
0010
,  // measure 11
0100
1000
0010
0110
,  // measure 12
0100
0001
0010
0001
,  // measure 13
1000
0002
0013
0200
,  // measure 14
1300
0000
1000
0000
0010
0000
0100
0001
,  // measure 15
0100
0001
1000
1100
,  // measure 16
1000
0001
0010
0001
,  // measure 17
0100
0020
1030
0200
,  // measure 18
0310
0000
0001
0000
0010
0000
0100
1000
,  // measure 19
0001
0100
0010
0000
1000
0000
0100
0000
,  // measure 20
1000
0001
0100
0001
,  // measure 21
0001
1000
0001
0010
,  // measure 22
0001
1000
0010
0100
,  // measure 23
0001
1000
0001
0100
,  // measure 24
0001
0010
0100
0010
,  // measure 25
0001
1001
0000
0110
,  // measure 26
0000
1001
0000
0000
,  // measure 27
0000
1000
0010
0001
,  // measure 28
0001
0010
1000
0100
,  // measure 29
0001
0100
1000
0010
,  // measure 30
0001
0010
0100
0010
,  // measure 31
1000
0000
0001
0000
1000
0001
0000
1000
,  // measure 32
0000
0000
0010
0000
1000
0000
0100
1000
,  // measure 33
0001
0100
0010
1000
,  // measure 34
0100
0000
0010
0000
0100
1000
0100
0000
,  // measure 35
0000
0000
1000
0010
,  // measure 36
0000
0000
0000
0000
0000
0100
0001
0000
,  // measure 37
0000
0000
0010
0100
,  // measure 38
0000
0000
0000
0000
1001
0000
0000
0000
1000
0000
0000
0010
0000
0000
1000
0000
,  // measure 39
0000
0010
0000
0000
0100
0000
0000
0000
0010
0000
0000
0100
0000
0000
0010
0000
,  // measure 40
0000
0100
0000
0000
0001
0000
0000
0000
0010
0000
0000
0100
0000
0000
0010
0000
,  // measure 41
0000
0100
0000
0000
1000
0000
0000
0000
0010
0000
0000
0100
0000
0000
0010
0000
,  // measure 42
0100
0000
1001
0000
0001
0000
1000
0001
,  // measure 43
0100
0000
0001
0000
0010
0000
0100
0010
,  // measure 44
0001
0000
0100
0000
0010
0000
1000
0010
,  // measure 45
0100
0000
0010
0000
1000
0000
0000
0010
,  // measure 46
0000
0100
0000
0010
1000
0001
1000
0001
,  // measure 47
0100
0000
0000
0000
,  // measure 48
0000
0000
0000
0000
0010
0100
0000
0000
,  // measure 49
0010
0000
1000
0000
0001
0000
1000
0100
,  // measure 50
1000
0100
1000
0100
1000
0000
0100
0000
,  // measure 51
1000
0000
0000
0000
0000
0000
0000
0010
,  // measure 52
0100
0000
0000
0010
,  // measure 53
1000
0000
0000
0000
,  // measure 54
1001
0000
0001
0010
,  // measure 55
0001
1000
0000
0001
,  // measure 56
0000
0100
0000
0010
,  // measure 57
0000
1000
0000
0010
,  // measure 58
0000
0100
0010
0100
,  // measure 59
0001
1000
0000
0100
,  // measure 60
0000
0000
1000
0000
0101
0000
0000
1010
,  // measure 61
0000
1100
0000
0000
1000
0100
0010
0001
,  // measure 62
0020
0000
0031
0100
,  // measure 63
0010
0000
1000
0010
,  // measure 64
0100
0000
1001
0001
,  // measure 65
0010
0000
0001
0100
,  // measure 66
0010
0000
1010
0000
,  // measure 67
0101
0000
0011
0000
,  // measure 68
1100
0000
1000
0100
,  // measure 69
0010
0001
1000
0001
,  // measure 70
1000
0010
1000
0100
,  // measure 71
0001
0100
0010
0100
,  // measure 72
1000
0010
0001
0010
,  // measure 73
0100
0000
0001
0100
0001
0000
0100
0000
,  // measure 74
0010
1000
0100
0001
,  // measure 75
0100
0010
0100
1000
,  // measure 76
0010
0001
0010
0100
,  // measure 77
0001
0000
1000
0010
0100
0001
0010
0000
,  // measure 78
0001
1000
0100
1000
,  // measure 79
0001
0000
1000
0010
1000
0000
0200
0000
,  // measure 80
1300
0020
0130
0001
,  // measure 81
1000
0000
0010
0100
0001
0000
1000
0010
,  // measure 82
1000
0010
0100
0000
0001
0000
0010
0000
,  // measure 83
0100
0000
0010
0001
0200
0000
0310
0000
,  // measure 84
2000
3001
0100
0010
,  // measure 85
1000
0000
0001
1000
0100
0000
1000
0000
,  // measure 86
0010
1000
0010
0000
0000
0000
0000
0000
,  // measure 87
0000
0100
0001
0000
0000
0000
0000
0000
,  // measure 88
0010
0100
1000
0100
0000
0000
0000
0000
,  // measure 89
0000
0100
0010
0000
0000
0000
0000
0000
,  // measure 90
0001
0010
0100
0000
0000
0000
0000
0000
,  // measure 91
0000
0010
0001
0000
0000
0000
0000
0000
,  // measure 92
0001
0100
0010
0000
0000
0000
0000
0000
,  // measure 93
0000
0000
0000
0000
1001
0000
0000
0000
0000
0000
0000
0000
1000
0000
0000
0001
,  // measure 94
0000
0000
1000
0000
0000
0001
0000
0000
0010
0000
0000
0000
0001
0000
0000
1000
,  // measure 95
0000
0000
0001
0000
0000
1000
0000
0000
0100
0000
0000
0000
1000
0000
0000
0001
,  // measure 96
0000
0000
1000
0000
0000
0001
0000
0000
0010
0000
0000
0000
0001
0000
0000
1000
,  // measure 97
0000
0000
0001
0000
0100
0000
0000
0000
1001
0000
0000
0000
1000
0000
0000
0010
,  // measure 98
0000
0000
0100
0000
0000
0001
0000
0000
0010
0000
0000
0000
0100
0000
0000
0010
,  // measure 99
0000
0000
0001
0000
0000
1000
0000
0000
0010
0000
0000
0000
0100
0000
0000
0010
,  // measure 100
0000
0000
1000
0000
0000
0001
0000
0000
0010
0000
0000
0000
0100
0000
0000
0000
,  // measure 101
1001
0000
0000
0000
;

//---------------dance-single - ----------------
#NOTES:
     dance-single:
     :
     Easy:
     4:
     0.280047,0.349400,0.046125,0.138376,0.000000,255.000000,249.000000,6.000000,18.000000,0.000000,0.000000,0.280047,0.349400,0.046125,0.138376,0.000000,255.000000,249.000000,6.000000,18.000000,0.000000,0.000000:
// measure 0
0000
0000
0000
0000
,  // measure 1
0000
0000
0000
0000
,  // measure 2
0000
0000
0000
0000
,  // measure 3
0000
1000
0010
1000
,  // measure 4
0000
0001
0100
0001
,  // measure 5
0000
0010
0001
0010
,  // measure 6
0000
0100
1000
0100
,  // measure 7
0100
1000
0010
0100
,  // measure 8
0000
0010
1000
0001
,  // measure 9
0000
1000
0001
0100
,  // measure 10
0000
0001
0010
0100
,  // measure 11
1000
0001
1000
0010
,  // measure 12
0000
0100
0000
0010
,  // measure 13
0000
1000
0001
1000
,  // measure 14
0000
0100
0000
1000
,  // measure 15
0000
0010
0100
0010
,  // measure 16
0000
0100
0000
0001
,  // measure 17
0000
0010
0100
0010
,  // measure 18
0000
0100
0000
1000
,  // measure 19
0000
0001
1000
0010
,  // measure 20
0000
1000
0001
0100
,  // measure 21
0000
0001
1000
0100
,  // measure 22
1000
0001
0100
0001
,  // measure 23
1000
0010
0000
1000
,  // measure 24
0000
0010
0000
0100
,  // measure 25
0001
0010
0000
0010
,  // measure 26
0000
0010
0000
0000
,  // measure 27
0000
0100
0010
0001
,  // measure 28
0001
0010
0001
0100
,  // measure 29
0010
1000
0001
0010
,  // measure 30
0001
1000
0100
1000
,  // measure 31
0010
1000
0000
0001
,  // measure 32
0000
0100
0000
0001
,  // measure 33
0010
0001
0000
1000
,  // measure 34
0000
0010
0100
0010
,  // measure 35
0000
0000
1000
0001
,  // measure 36
0000
0000
0000
1000
,  // measure 37
0000
0000
0001
0010
,  // measure 38
0000
1001
2000
0000
,  // measure 39
0000
3000
0002
0000
,  // measure 40
0000
0003
0200
0000
,  // measure 41
0000
0300
0020
0000
,  // measure 42
0130
1001
2000
0000
,  // measure 43
0000
3000
0002
0000
,  // measure 44
0000
0003
0020
0000
,  // measure 45
0000
0030
0100
0000
,  // measure 46
0010
0000
0001
1000
,  // measure 47
0010
0000
0000
0000
,  // measure 48
0000
0000
0200
0000
,  // measure 49
0000
0000
0310
1000
,  // measure 50
0001
0010
0100
0010
,  // measure 51
0001
0000
0000
0000
,  // measure 52
1000
0000
0000
0010
,  // measure 53
0100
0000
0000
0000
,  // measure 54
1001
0000
0001
1000
,  // measure 55
0010
1000
0000
1000
,  // measure 56
0000
1000
0100
0010
,  // measure 57
0100
1000
0000
0010
,  // measure 58
0000
0010
0100
0001
,  // measure 59
1000
0001
0000
1000
,  // measure 60
0000
0000
0010
0000
2002
0000
0000
3000
,  // measure 61
0000
0003
0000
0000
0001
0000
1000
0000
,  // measure 62
0020
0000
0130
0001
,  // measure 63
0010
0001
0000
1000
,  // measure 64
0000
0010
1000
0001
,  // measure 65
0000
0100
0000
0010
,  // measure 66
0000
0100
0010
0000
,  // measure 67
1000
0000
0001
0000
,  // measure 68
0010
0000
0100
0010
,  // measure 69
0001
1000
0010
0100
,  // measure 70
0000
0001
0000
0010
,  // measure 71
0001
1000
0100
1000
,  // measure 72
0000
0010
0000
0100
,  // measure 73
0010
1000
0001
0010
,  // measure 74
0000
0001
0000
1000
,  // measure 75
0100
1000
0001
0100
,  // measure 76
0000
0010
0000
0100
,  // measure 77
0010
1000
0001
1000
,  // measure 78
0010
0100
0000
0001
,  // measure 79
0000
0010
0000
0100
,  // measure 80
0010
0001
1000
0001
,  // measure 81
0000
0100
0000
0010
,  // measure 82
0100
0001
0000
1000
,  // measure 83
0000
0001
0000
0100
,  // measure 84
0010
1000
0001
0010
,  // measure 85
0100
1000
0000
0100
,  // measure 86
1000
0010
0000
0100
,  // measure 87
0001
1000
0000
0001
,  // measure 88
0010
0100
0000
0010
,  // measure 89
0001
1000
0000
0100
,  // measure 90
1000
0010
0000
0100
,  // measure 91
0010
1000
0000
0001
,  // measure 92
1000
0100
0000
1000
,  // measure 93
0001
0100
0000
0020
,  // measure 94
0000
0000
0030
2000
,  // measure 95
0000
0000
3000
0002
,  // measure 96
0000
0000
0003
0020
,  // measure 97
0000
0130
1001
2000
,  // measure 98
0000
0000
3000
0002
,  // measure 99
0000
0000
0003
0020
,  // measure 100
0000
0000
0030
0000
,  // measure 101
1001
0000
0000
0000
;

//---------------dance-single - ----------------
#NOTES:
     dance-single:
     :
     Beginner:
     2:
     0.117510,0.194111,0.007688,0.000000,0.000000,107.000000,106.000000,1.000000,0.000000,0.000000,0.000000,0.117510,0.194111,0.007688,0.000000,0.000000,107.000000,106.000000,1.000000,0.000000,0.000000,0.000000:
// measure 0
0000
0000
0000
0000
,  // measure 1
0000
0000
0000
0000
,  // measure 2
0000
0000
0000
0000
,  // measure 3
0000
0010
0000
0000
,  // measure 4
0000
1000
0000
0000
,  // measure 5
0000
0001
0000
0000
,  // measure 6
0000
1000
0000
0010
,  // measure 7
0010
0010
0000
0000
,  // measure 8
0000
0100
0000
0000
,  // measure 9
0000
0010
0000
0000
,  // measure 10
0000
1000
0000
0000
,  // measure 11
0000
0001
0001
0001
,  // measure 12
0000
0000
0000
0000
,  // measure 13
0000
1000
0000
1000
,  // measure 14
0000
0000
0000
0000
,  // measure 15
0000
0010
0010
0010
,  // measure 16
0000
0000
0000
0000
,  // measure 17
0000
0100
0000
0100
,  // measure 18
0000
0000
0000
0000
,  // measure 19
0000
0010
0000
0000
,  // measure 20
0000
1000
0000
0000
,  // measure 21
0000
0001
0000
0000
,  // measure 22
0000
0010
0000
0000
,  // measure 23
0000
0001
0000
0000
,  // measure 24
0000
1000
0000
0000
,  // measure 25
0000
0010
0000
0010
,  // measure 26
0000
0010
0000
0000
,  // measure 27
0000
0100
0000
0000
,  // measure 28
0000
0010
0000
0000
,  // measure 29
0000
1000
0000
0000
,  // measure 30
0000
0001
0000
0000
,  // measure 31
0000
1000
0000
0000
,  // measure 32
0000
0000
0000
0000
,  // measure 33
0000
1000
0000
0000
,  // measure 34
0000
0010
0000
0000
,  // measure 35
0000
0100
0000
0000
,  // measure 36
0000
0000
0000
0010
,  // measure 37
0000
0000
0000
1000
,  // measure 38
0000
0000
0001
0000
,  // measure 39
0000
0000
0001
0000
,  // measure 40
0000
0000
0001
0000
,  // measure 41
0000
0000
0001
0000
,  // measure 42
0000
0000
1000
0000
,  // measure 43
0000
0000
1000
0000
,  // measure 44
0000
0000
1000
0000
,  // measure 45
0000
0000
1000
0000
,  // measure 46
0000
0000
0010
0000
,  // measure 47
0000
0000
0000
0000
,  // measure 48
0000
0000
0000
0000
,  // measure 49
0000
0000
1000
0000
,  // measure 50
0000
0000
0001
0000
,  // measure 51
0000
0000
0000
0000
,  // measure 52
0000
0000
0000
0000
,  // measure 53
0000
0000
1000
0000
,  // measure 54
0000
0000
0010
0000
,  // measure 55
0000
0000
0000
0000
,  // measure 56
0000
0000
0100
0000
,  // measure 57
0000
0000
0000
0000
,  // measure 58
0000
0000
0001
0000
,  // measure 59
0000
0000
0000
0000
,  // measure 60
0000
0000
1000
0000
,  // measure 61
0000
0000
0010
0000
,  // measure 62
0100
0000
0001
0001
,  // measure 63
0001
0000
0000
0000
,  // measure 64
0000
0000
1000
0000
,  // measure 65
0000
0000
0000
0000
,  // measure 66
0000
0000
0010
0000
,  // measure 67
0100
0000
0010
0000
,  // measure 68
0000
0000
1000
0000
,  // measure 69
0000
0000
0000
0001
,  // measure 70
0000
0000
0000
1000
,  // measure 71
0000
0000
0000
0010
,  // measure 72
0000
0000
0000
1000
,  // measure 73
0000
0001
0000
1000
,  // measure 74
0000
0000
0000
0100
,  // measure 75
0000
0000
0000
1000
,  // measure 76
0000
0000
0000
0010
,  // measure 77
0000
0100
0000
0010
,  // measure 78
0010
0010
0000
0000
,  // measure 79
0000
0000
0000
1000
,  // measure 80
0000
0001
0000
0000
,  // measure 81
0000
0000
0000
0100
,  // measure 82
0100
0100
0000
0000
,  // measure 83
0000
0000
0000
0010
,  // measure 84
0000
1000
0000
0001
,  // measure 85
0000
0000
0000
0000
,  // measure 86
0100
0100
0000
0000
,  // measure 87
0000
0001
0000
0000
,  // measure 88
1000
1000
0000
0000
,  // measure 89
0000
0010
0000
0000
,  // measure 90
1000
1000
0000
0000
,  // measure 91
0000
0100
0000
0000
,  // measure 92
0010
0010
0000
0000
,  // measure 93
0000
0001
0000
1000
,  // measure 94
0000
0000
0000
1000
,  // measure 95
0000
0000
0000
1000
,  // measure 96
0000
0000
0000
1000
,  // measure 97
0000
0000
0000
0001
,  // measure 98
0000
0000
0000
0001
,  // measure 99
0000
0000
0000
0001
,  // measure 100
0000
0000
0000
0000
,  // measure 101
0110
0000
0000
0000
;
