#TITLE:Afraid of the Dark;
#SUBTITLE:;
#ARTIST:KUURO ft. Sophiya;
#TITLETRANSLIT:;
#SUBTITLETRANSLIT:;
#ARTISTTRANSLIT:;
#GENRE:;
#CREDIT:;
#BANNER:afraidofthedark_bn.png;
#BACKGROUND:afraidofthedark_bg.png;
#LYRICSPATH:;
#CDTITLE:cdtitle.png;
#MUSIC:afraidofthedark.ogg;
#OFFSET:0.000000;
#SAMPLESTART:47.980000;
#SAMPLELENGTH:18.000000;
#SELECTABLE:YES;
#BPMS:0.000000=160.000000
;
#STOPS:
;
#BGCHANGES:;
#KEYSOUNDS:;
#ATTACKS:;

//---------------dance-single - ----------------
#NOTES:
     dance-single:
     :
     Hard:
     8:
     0.455442,0.551959,0.134235,0.268471,0.006712,475.000000,455.000000,20.000000,40.000000,0.000000,0.000000,0.455442,0.551959,0.134235,0.268471,0.006712,475.000000,455.000000,20.000000,40.000000,0.000000,0.000000:
// measure 0
0000
0000
0000
0000
,  // measure 1
0000
0000
0000
0000
,  // measure 2
0000
0000
0000
0000
,  // measure 3
0000
0000
0000
0000
,  // measure 4
0000
0000
0000
0000
,  // measure 5
0000
0000
0000
0000
,  // measure 6
0000
0000
0000
0000
,  // measure 7
0000
0000
0000
0000
,  // measure 8
1002
0000
0103
0000
0010
0100
0000
0010
,  // measure 9
0000
1000
0000
1000
0100
0000
0010
0002
,  // measure 10
1000
0000
0000
0000
1003
0000
0010
0100
,  // measure 11
0000
0010
0000
1000
0010
0000
0100
0000
,  // measure 12
0002
0000
0000
0000
1003
0000
0010
0100
,  // measure 13
0000
0001
0000
1000
0100
0000
1000
0000
,  // measure 14
0020
0000
0000
1000
1030
0000
0001
0010
,  // measure 15
0001
0010
0100
1000
0100
0100
0100
0000
,  // measure 16
2001
0000
3010
0000
0010
0100
0000
1000
,  // measure 17
0000
0100
0000
0010
1000
0000
1000
0200
,  // measure 18
0010
0000
0000
0000
0310
0100
0000
0001
,  // measure 19
0000
0100
0000
0010
0001
0000
0001
0000
,  // measure 20
0200
0000
0300
0000
0010
0100
0000
0001
,  // measure 21
0000
1000
0000
0100
0010
0000
0001
0000
,  // measure 22
2000
0000
0000
0001
3001
0000
0100
0010
,  // measure 23
0100
0001
0100
0001
0010
0010
0010
0000
,  // measure 24
0110
0000
0100
1000
0000
0001
0100
0000
,  // measure 25
0010
1000
0100
0001
0100
0000
0110
0000
,  // measure 26
1001
0000
0010
0001
0000
1000
0010
0000
,  // measure 27
0100
1000
0100
0010
0100
0000
0101
0000
,  // measure 28
0001
0100
0010
0100
0001
0100
0010
0100
,  // measure 29
0010
1000
0100
1000
0001
1000
0100
1000
,  // measure 30
0100
0100
0010
0010
0001
0001
1000
1000
,  // measure 31
0010
0100
0001
1000
0010
0000
0010
0000
,  // measure 32
0210
0000
0301
0000
0001
0100
1000
0100
,  // measure 33
0010
1000
0100
0010
0100
0000
2000
0000
,  // measure 34
3001
0000
0000
0000
0001
0000
0010
0100
,  // measure 35
1000
0010
0100
0000
0010
0000
0100
0000
,  // measure 36
0120
0000
1030
0000
1000
0100
0001
0100
,  // measure 37
0010
0001
0100
0010
0100
0000
0002
0000
,  // measure 38
1003
0000
0000
0000
1000
0000
0010
0100
,  // measure 39
0001
0010
0100
0000
0100
0000
0001
0001
,  // measure 40
1000
0000
0010
1000
0000
0010
1000
0100
,  // measure 41
0010
0000
0001
0100
1000
0000
0000
0000
,  // measure 42
0110
0000
0001
0010
0000
0001
0010
0100
,  // measure 43
1000
0000
1000
0100
0001
0000
0101
0000
,  // measure 44
1200
0000
0310
0000
0001
0100
1000
0100
,  // measure 45
0010
1000
0100
0001
0100
0000
0020
0000
,  // measure 46
0130
0000
0000
0000
0010
0000
0001
0100
,  // measure 47
0010
0100
0010
0000
0010
0000
0001
0000
,  // measure 48
2000
0000
3200
0000
0301
0100
0001
0100
,  // measure 49
0001
0100
1000
0100
1000
0010
0200
0000
,  // measure 50
0302
0000
0103
0000
1000
0100
1000
0100
,  // measure 51
0001
0100
0001
1000
0010
0100
0001
0000
,  // measure 52
0102
0000
0023
0000
1030
0010
1000
0010
,  // measure 53
0001
0010
0001
0010
0100
1000
0001
0000
,  // measure 54
2100
0000
3010
0000
0001
0010
0001
0010
,  // measure 55
1000
0010
1000
0001
0100
0010
0100
0000
,  // measure 56
0020
0000
0000
0000
,  // measure 57
0000
0000
2030
0000
,  // measure 58
3200
0000
0000
0000
,  // measure 59
0300
0100
1000
0010
0000
0100
0001
0010
,  // measure 60
0200
0000
0000
0000
,  // measure 61
0000
0000
2300
0000
,  // measure 62
3020
0000
0000
0000
,  // measure 63
0230
0000
0000
0000
,  // measure 64
0310
0000
0000
0010
0000
0000
0010
0000
,  // measure 65
0000
0010
1000
0000
0100
0000
0000
0000
,  // measure 66
0010
0000
0000
0010
0000
0000
0010
0000
,  // measure 67
0000
0000
0001
0000
0100
0000
0000
0000
0001
0000
0000
0000
0001
1000
0001
1000
,  // measure 68
0000
0000
0000
0000
1000
0100
0001
0100
,  // measure 69
0010
0001
0100
0010
0100
0000
0001
0001
,  // measure 70
1001
0000
0000
0000
1000
0000
0010
0100
,  // measure 71
0001
0010
0100
0000
0010
0000
0100
0000
,  // measure 72
0120
0000
0031
0000
0001
0100
1000
0100
,  // measure 73
0010
1000
0100
0010
0100
0000
2000
0000
,  // measure 74
3001
0000
0000
0000
0001
0000
0010
0100
,  // measure 75
1000
0010
0100
0000
0100
0000
1000
1000
,  // measure 76
0001
0000
0010
0001
0000
0010
0001
0100
,  // measure 77
0010
0000
1000
0100
0001
0000
0000
0000
,  // measure 78
0110
0000
1000
0010
0000
1000
0010
0100
,  // measure 79
0001
0000
0001
0100
1000
0000
1100
0000
,  // measure 80
0201
0000
0310
0000
1000
0100
0001
0100
,  // measure 81
0010
0001
0100
1000
0100
0000
0020
0000
,  // measure 82
0130
0000
0000
0000
0010
0000
1000
0100
,  // measure 83
0010
0100
0010
0000
0010
0000
1000
0000
,  // measure 84
0002
0000
0203
0000
1300
0100
1000
0100
,  // measure 85
1000
0100
0001
0100
0001
0010
0200
0000
,  // measure 86
2300
0000
3100
0000
0001
0100
0001
0100
,  // measure 87
1000
0100
1000
0001
0010
0100
1000
0000
,  // measure 88
2100
0000
3020
0000
0031
0010
0001
0010
,  // measure 89
1000
0010
1000
0010
0100
0001
1000
0000
,  // measure 90
0102
0000
0013
0000
1000
0010
1000
0010
,  // measure 91
0001
0010
0001
1000
0100
0010
0100
0000
,  // measure 92
0010
0000
0010
0000
0001
0100
0001
0100
,  // measure 93
0001
0100
0001
0100
0001
0100
0001
0000
,  // measure 94
1000
0000
0000
0000
1000
0100
1000
0100
,  // measure 95
1000
0100
0010
0001
0100
1000
0200
0000
,  // measure 96
0000
0000
0000
0300
;

//---------------dance-single - ----------------
#NOTES:
     dance-single:
     :
     Easy:
     4:
     0.263677,0.353459,0.073829,0.228200,0.000000,275.000000,264.000000,11.000000,34.000000,0.000000,0.000000,0.263677,0.353459,0.073829,0.228200,0.000000,275.000000,264.000000,11.000000,34.000000,0.000000,0.000000:
0000
0000
0000
0000
,
0000
0000
0000
0000
,
0000
0000
0000
0000
,
0000
0000
0000
0000
,
0000
0000
0000
0000
,
0000
0000
0000
0000
,
0000
0000
0000
0000
,
0000
0000
0000
0000
,
0220
0330
1000
0010
,
0000
0010
0000
0000
0100
0000
0000
0000
,
0001
0000
1000
0100
,
0000
0100
0000
0000
0010
0000
0001
0000
,
1000
0000
0010
0100
,
0000
0100
0000
0000
0001
0000
1000
0000
,
0100
0000
0000
0100
0000
0000
0010
0000
,
0001
1000
0001
1000
,
2002
3003
0001
0100
,
0000
0100
0000
0000
0010
0000
1000
0000
,
0001
0000
0001
0010
,
0000
0010
0000
0000
0100
0000
1000
0000
,
0010
0000
0100
0010
,
0000
0010
0000
0000
1000
0000
0001
0000
,
0010
0000
0000
0010
0000
0000
0001
0000
,
1000
0010
0100
0001
,
1000
0100
0001
0100
,
1000
0100
0010
0110
,
0001
0100
1000
0100
,
0001
0100
0010
0110
,
1000
1000
0001
0001
,
0010
0010
0100
0100
,
1000
0001
1000
0001
,
2000
0000
3001
0000
,
0220
0330
0010
0010
,
1000
0100
0010
0010
,
0100
0000
0100
1000
,
0010
0100
0010
0010
,
0220
0330
0010
0010
,
0100
0001
0010
0100
,
0100
0000
0100
0010
,
0001
0100
0100
0010
,
0220
0330
0010
0010
,
0200
0001
0301
0000
,
0010
0010
0010
0010
,
0200
1000
1300
0000
,
0220
0330
0010
0010
,
0001
0100
0010
0100
,
0100
0000
0010
1000
,
0100
0010
0010
0100
,
0020
0000
0031
0001
,
0001
0001
0001
0001
,
0001
0000
1000
1000
,
1000
0100
0010
0001
,
0020
0000
0130
0100
,
0100
0100
0100
0100
,
0100
0000
0010
0010
,
0010
0001
1000
0010
,
0200
0000
0000
0000
,
0000
0000
0000
0000
,
0320
0000
0000
0000
,
0030
0000
0000
0000
,
0020
0000
0000
0000
,
0000
0000
0000
0000
,
0230
0000
0000
0000
,
0320
0000
0000
0000
,
1030
0000
0000
0001
0000
0000
1000
0000
,
0000
0010
0000
0000
0010
0000
0000
0000
,
0001
0000
0000
1000
0000
0000
0001
0000
,
0000
0010
0000
0000
0010
0000
1000
0000
,
0001
0000
0000
0000
,
0000
0000
0000
0000
0000
0000
0010
0100
,
0010
0000
0100
1000
,
0010
0100
0010
0010
,
0220
0330
0010
0010
,
0100
0001
0010
0100
,
0100
0000
0100
0010
,
0001
0100
0100
0010
,
0220
0330
0010
0010
,
0200
0001
0301
0000
,
0010
0010
0010
0010
,
0200
1000
1300
0000
,
0220
0330
0010
0010
,
0001
0100
0010
0100
,
0100
0000
0010
1000
,
0100
0010
0010
0100
,
0020
0000
0031
0001
,
0001
0001
0001
0001
,
0001
0000
1000
1000
,
1000
0100
0010
0001
,
0020
0000
0130
0100
,
0100
0100
0100
0100
,
0100
0000
0010
0010
,
0010
0001
1000
1000
,
0020
0000
0000
0000
,
0000
0000
0000
0130
,
0200
0000
0000
0000
,
0310
0010
0100
0010
;

//---------------dance-single - ----------------
#NOTES:
     dance-single:
     :
     Medium:
     6:
     0.396953,0.449856,0.033559,0.228200,0.000000,414.000000,409.000000,5.000000,34.000000,0.000000,0.000000,0.396953,0.449856,0.033559,0.228200,0.000000,414.000000,409.000000,5.000000,34.000000,0.000000,0.000000:
0000
0000
0000
0000
,
0000
0000
0000
0000
,
0000
0000
0000
0000
,
0000
0000
0000
0000
,
0000
0000
0000
0000
,
0000
0000
0000
0000
,
0000
0000
0000
0000
,
0000
0000
0000
0000
,
2000
0000
3010
0000
0000
0100
0100
0000
,
0000
0010
0100
0000
0010
0000
0000
0000
,
1000
0000
0100
0010
,
0000
0100
0010
0000
0010
0000
0001
0000
,
0100
0000
0010
1000
,
0000
1000
0001
0000
0001
0000
0100
0000
,
0010
0000
0000
0100
0010
0000
0010
0100
,
0010
0100
0001
1000
0001
0001
1000
0000
,
0002
0013
0001
1000
,
0000
1000
0010
0000
0010
0000
0100
0000
,
0010
0000
1000
0001
,
0000
0010
0001
0000
0010
0000
0100
0000
,
1000
0000
1000
0010
,
0000
0100
0010
0000
0100
0000
0001
0000
,
0010
0000
0000
0010
0001
0000
0001
1000
,
0001
0010
0100
0010
0100
0100
0010
0000
,
0100
0000
0100
1000
0000
0100
1000
0000
,
1000
0100
1000
0100
0010
0000
0001
0000
,
0000
0000
0100
0001
0000
0100
0001
0000
,
0001
0100
0001
0100
0010
0000
1000
0000
,
1000
0100
1000
0001
0010
0000
0001
0000
,
0100
0001
0100
0010
1000
0000
0001
0000
,
1000
0000
0100
1000
0001
0000
0100
0000
,
0010
0100
0010
0100
0010
0000
0100
0000
,
0210
0310
0010
1000
,
0100
1000
0100
0010
0001
0000
0020
0000
,
0030
0000
0000
0000
0010
0000
0001
0100
,
0010
0100
0010
0000
0100
0000
0001
0000
,
2001
3001
0010
0001
,
0100
0010
0100
0010
1000
0000
0002
0000
,
0003
0000
0000
0000
1000
0000
0100
0010
,
0100
1000
0100
0000
0100
0000
1000
0000
,
0010
0000
1000
0010
0000
1000
0010
1000
,
0010
0000
0100
0001
0200
0000
0000
0000
,
0301
0000
0001
0010
0000
0001
0010
0001
,
0010
0000
0100
1000
0100
0000
0100
0000
,
0120
0130
1000
0010
,
0100
0010
0100
0010
1000
0000
0200
0000
,
0300
0000
0010
0001
,
0100
0010
0100
0000
0100
0000
0010
0000
,
2000
0000
3200
0000
1300
0100
1000
0100
,
1000
0100
1000
0100
1000
0100
0020
0000
,
0130
0000
0000
0000
0010
0001
0010
0001
,
0010
0001
0010
0001
0010
0001
0100
0000
,
0002
0000
0203
0000
0301
0100
0001
0100
,
0001
0100
0001
0100
0001
0100
0010
0000
,
0100
0000
0010
0000
1000
0010
1000
0010
,
1000
0010
1000
0010
1000
0010
1000
0000
,
0002
0000
0000
0000
,
0000
0000
0023
0000
,
0230
0000
0000
0000
,
0300
0000
0000
0000
,
2000
0000
0000
0000
,
0000
0000
3020
0000
,
0230
0000
0000
0000
,
0302
0000
0000
0000
,
1003
0000
0000
0010
0000
0000
1000
0000
,
0000
0010
0100
0000
0001
0000
0000
0000
,
0010
0000
0000
0001
0000
0000
0010
0000
,
0000
0001
0010
0000
0100
0000
1000
0001
,
1000
0000
0000
0000
0010
0100
0010
0100
,
0001
1000
0001
0010
0100
0000
0010
0010
,
0100
0000
0000
0000
0010
0000
0001
0100
,
0010
0100
0010
0000
0100
0000
0001
0000
,
2001
3001
0010
0001
,
0100
0010
0100
0010
1000
0000
0002
0000
,
0003
0000
0000
0000
1000
0000
0100
0010
,
0100
1000
0100
0000
0100
0000
1000
0000
,
0010
0000
1000
0010
0000
1000
0010
1000
,
0010
0000
0100
0001
0200
0000
0000
0000
,
0301
0000
0001
0010
0000
0001
0010
0001
,
0010
0000
0100
1000
0100
0000
0100
0000
,
0120
0130
1000
0010
,
0100
0010
0100
0010
1000
0000
0200
0000
,
0300
0000
0010
0001
,
0100
0010
0100
0000
0100
0000
0010
0000
,
2000
0000
3200
0000
1300
0100
1000
0100
,
1000
0100
1000
0100
1000
0100
0020
0000
,
0130
0000
0000
0000
0010
0001
0010
0001
,
0010
0001
0010
0001
0010
0001
0100
0000
,
0002
0000
0203
0000
0301
0100
0001
0100
,
0001
0100
0001
0100
0001
0100
0010
0000
,
0100
0000
0010
0000
1000
0010
1000
0010
,
1000
0010
1000
0010
1000
0010
1000
0000
,
0020
0000
0000
0000
1030
0100
1000
0100
,
1000
0100
1000
0100
1000
0100
0020
0000
,
0032
0000
0003
0000
0001
0100
0001
0100
,
0001
0100
0010
0100
0001
1000
0010
0000
;
