#TITLE:ABXY;
#SUBTITLE:;
#ARTIST:Popskyy feat AdhesiveWombat;
#TITLETRANSLIT:;
#SUBTITLETRANSLIT:;
#ARTISTTRANSLIT:;
#GENRE:Chiptune;
#CREDIT:CuzcoBlocko (steps), warpdr!ve (song);
#BANNER:;
#BACKGROUND:;
#LYRICSPATH:;
#CDTITLE:cdtitle.png;
#MUSIC:[Round 3] - ABXY.ogg;
#OFFSET:-0.047000;
#SAMPLESTART:45.455002;
#SAMPLELENGTH:12.000000;
#SELECTABLE:YES;
#BPMS:0.000=132.000,28.000=66.000,30.000=132.000,60.000=66.000,61.000=132.000,169.000=66.000,171.000=132.000,219.000=66.000;
#STOPS:;
#BGCHANGES:;
#KEYSOUNDS:;
#ATTACKS:;

//---------------dance-single - Simplicity as usual.----------------
#NOTES:
     dance-single:
     ITG 01 X 02:
     Beginner:
     1:
     0.143659,0.198587,0.092956,0.000000,0.000000,119.000000,108.000000,11.000000,0.000000,0.000000,0.000000,0.143659,0.198587,0.092956,0.000000,0.000000,119.000000,108.000000,11.000000,0.000000,0.000000,0.000000:
// measure 0
0000
0000
0000
0000
,  // measure 1
0000
0000
0000
0000
,  // measure 2
0000
0000
0000
0000
,  // measure 3
0000
0000
0000
0000
,  // measure 4
1000
0000
0000
0000
,  // measure 5
0100
0000
0000
0000
,  // measure 6
0010
0000
0000
0000
,  // measure 7
0001
0000
0001
0000
,  // measure 8
0000
0000
0100
0000
,  // measure 9
0000
0000
0010
0000
,  // measure 10
0000
0000
1000
0000
,  // measure 11
0001
0000
1000
0000
,  // measure 12
0000
0000
0100
0000
,  // measure 13
0000
0000
0010
0000
,  // measure 14
0000
0000
0001
0000
,  // measure 15
1000
1001
0000
0000
,  // measure 16
0000
1000
0000
0000
,  // measure 17
0000
0010
0000
0000
,  // measure 18
0000
0001
0000
0100
,  // measure 19
0000
1000
0000
0000
,  // measure 20
0000
0001
0000
0000
,  // measure 21
0000
0010
0000
0000
,  // measure 22
0000
1000
0000
0100
,  // measure 23
0000
0001
0000
1001
,  // measure 24
0000
1000
0000
1001
,  // measure 25
0000
0010
0000
0110
,  // measure 26
0000
0100
0000
0110
,  // measure 27
0000
0001
0000
0110
,  // measure 28
0000
1000
0000
0110
,  // measure 29
0000
0010
0000
1001
,  // measure 30
0000
0100
0000
1001
,  // measure 31
0000
0001
0000
0001
,  // measure 32
0000
0100
0000
0010
,  // measure 33
0000
1000
0000
1000
,  // measure 34
0000
0100
0100
0100
,  // measure 35
0000
0010
0000
0010
,  // measure 36
0000
0001
0000
1000
,  // measure 37
0000
0010
0000
0010
,  // measure 38
0000
0100
0100
0100
,  // measure 39
0000
1001
0000
0010
,  // measure 40
0000
0001
0000
0010
,  // measure 41
0000
1000
0000
0010
,  // measure 42
0000
1001
0000
0001
,  // measure 43
0001
0001
0000
1000
,  // measure 44
1000
1000
0000
0010
,  // measure 45
0000
0100
0000
1000
,  // measure 46
0000
0010
0000
0001
,  // measure 47
0001
0001
0000
0100
,  // measure 48
0100
0100
0000
0010
,  // measure 49
0010
0010
0000
1000
,  // measure 50
1000
1000
0000
1000
,  // measure 51
1000
1000
0000
0100
,  // measure 52
0100
0100
0000
0010
,  // measure 53
0010
0010
0000
0001
,  // measure 54
0001
0001
0000
0000
,  // measure 55
0000
1000
0000
0100
,  // measure 56
0000
0010
0000
0001
,  // measure 57
0001
0001
0000
0100
,  // measure 58
0000
0010
0000
1000
;

//---------------dance-single - It's mostly fourths but I still tried to make it interesting.----------------
#NOTES:
     dance-single:
     ITG 04 X 06:
     Easy:
     4:
     0.312669,0.375520,0.388724,0.397174,0.016901,259.000000,213.000000,46.000000,47.000000,0.000000,0.000000,0.312669,0.375520,0.388724,0.397174,0.016901,259.000000,213.000000,46.000000,47.000000,0.000000,0.000000:
// measure 0
0000
0000
0000
0000
,  // measure 1
0000
0000
0000
0000
,  // measure 2
0000
0000
0000
0000
,  // measure 3
0000
0000
0000
0000
,  // measure 4
0001
0010
0000
0010
,  // measure 5
0100
1000
0000
0010
,  // measure 6
0100
0001
0000
0002
,  // measure 7
2000
0000
0000
0000
0000
0000
3000
0003
0100
0000
0000
0000
0001
0000
0000
0000
,  // measure 8
1000
0100
0001
1000
,  // measure 9
0100
0001
0010
0100
,  // measure 10
1000
0010
0001
0100
,  // measure 11
2000
0000
0000
3000
0100
0000
0010
0000
,  // measure 12
0001
0100
1000
0001
,  // measure 13
0100
1000
0010
0100
,  // measure 14
0001
0010
1000
0200
,  // measure 15
0002
0000
0000
0000
0000
0300
0003
0000
0000
0000
0000
0000
2001
0000
0000
0000
0000
0000
0000
0000
0000
0000
0000
0000
0100
0000
0000
0000
0000
0000
0000
0000
0000
0000
0000
0000
0010
0000
0000
0000
0000
0000
0000
0000
0000
0000
0000
0000
,  // measure 16
3001
0021
1000
0001
,  // measure 17
0130
2100
0010
0001
,  // measure 18
3100
0000
0000
0000
0011
0000
0000
0000
1001
0000
0000
0000
0202
0000
0000
0300
,  // measure 19
0000
0003
1002
0000
0010
0000
0100
0000
,  // measure 20
0013
1020
0001
1000
,  // measure 21
0130
0102
0010
1000
,  // measure 22
0103
0000
0000
0000
0000
0000
0000
0000
2020
0030
3000
0000
0000
0000
0000
0000
2002
0003
3000
0000
0000
0000
0000
0000
2200
0300
3000
0000
0000
0000
0000
0000
,  // measure 23
0220
0300
0030
0000
0000
0000
0000
0000
0001
0000
0000
0000
0000
0000
0000
0000
0001
0000
0000
0000
0000
0000
0000
0000
1001
0000
0000
0000
0000
0000
0000
0000
,  // measure 24
0001
0100
0010
0000
0010
0000
1010
0000
,  // measure 25
0010
1000
0100
0000
0100
0000
0110
0010
,  // measure 26
0100
1000
1000
1010
,  // measure 27
1000
0001
0100
0000
0100
0000
0110
0000
,  // measure 28
0100
0001
0010
0000
0010
0000
0110
0100
,  // measure 29
0010
0000
0000
0000
0000
0000
0000
0000
0000
0000
0000
0000
0000
0000
0000
0000
0001
0000
0000
0000
0000
0000
0000
0000
0000
0000
0000
0000
0000
0000
0000
0000
0001
0000
0000
0000
0000
0000
0000
0000
0000
0000
0000
0000
0000
0000
0000
0000
0202
0003
0000
0300
0000
0000
0000
0000
0000
0000
0000
0000
0000
0000
0000
0000
,  // measure 30
0001
1000
1000
0000
1000
0000
1100
0000
,  // measure 31
1000
0020
0100
1030
,  // measure 32
0010
0100
0001
0010
,  // measure 33
1000
0001
0010
1000
,  // measure 34
0100
0101
0110
1100
,  // measure 35
0000
0100
1000
0000
1000
0000
0010
0000
,  // measure 36
0010
0001
1000
0020
,  // measure 37
0001
0130
1000
0001
,  // measure 38
0100
1100
0110
0101
,  // measure 39
0100
0001
1000
0000
1200
0000
0001
0000
,  // measure 40
1300
0001
0102
0010
,  // measure 41
1003
0001
0201
1000
,  // measure 42
0301
0000
2000
0000
0000
3000
0100
0000
,  // measure 43
0011
0000
1001
0100
,  // measure 44
1010
0000
1001
2000
,  // measure 45
0000
3100
0001
0020
,  // measure 46
2030
3100
0010
0001
,  // measure 47
0101
0001
0101
1000
,  // measure 48
1100
1000
1100
0020
,  // measure 49
1000
0031
1000
0020
,  // measure 50
0032
1003
0100
0001
,  // measure 51
0011
1000
1010
1000
,  // measure 52
1100
0001
0101
0010
,  // measure 53
1010
0100
0101
0010
,  // measure 54
0011
0100
1100
0000
,  // measure 55
0000
0000
0000
0000
2000
0000
0000
0000
0000
0000
0000
0000
3020
0000
0000
0230
,  // measure 56
0000
0000
0000
0000
0302
0000
0000
0000
0000
0000
0000
0000
2003
0000
0000
3200
,  // measure 57
0000
0000
0000
0000
0320
0000
0000
0000
0000
0000
0000
0000
2030
0000
0000
3002
,  // measure 58
0000
0000
0000
0000
0203
0000
0000
0000
0000
0000
0000
0000
2300
0000
0000
0002
,  // measure 59
0000
3003
0000
0000
;

//---------------dance-single - Hi.----------------
#NOTES:
     dance-single:
     ITG 08 X 12:
     Hard:
     7:
     0.480472,0.500693,0.354922,0.819700,0.169010,398.000000,356.000000,42.000000,97.000000,0.000000,0.000000,0.480472,0.500693,0.354922,0.819700,0.169010,398.000000,356.000000,42.000000,97.000000,0.000000,0.000000:
// measure 0
0000
0000
0000
0000
,  // measure 1
0000
0000
0000
0000
,  // measure 2
0000
0000
0000
0000
,  // measure 3
0000
0000
0000
0000
,  // measure 4
2000
3000
0100
0020
0001
0000
0230
0300
,  // measure 5
1000
0010
0100
0001
1000
0100
0010
0001
,  // measure 6
2000
3000
0001
0100
2000
0000
3100
0010
,  // measure 7
0110
0000
0000
0000
0000
0000
1001
1001
0201
0000
0300
0000
0100
0000
0010
0000
,  // measure 8
1000
0100
0010
0000
0012
0003
0001
0010
,  // measure 9
0100
1000
0002
0003
0201
0300
0100
1000
,  // measure 10
0100
0001
0020
0030
2020
3030
2200
3300
,  // measure 11
0202
0000
0000
0303
0000
0000
1001
0000
1200
0000
0300
0000
0100
0000
0001
0000
,  // measure 12
0100
1000
0002
0003
0201
0300
0100
0010
,  // measure 13
1000
0100
0020
0030
0012
0003
0001
0100
,  // measure 14
1000
0100
0002
0003
0022
0033
2020
3030
,  // measure 15
1200
0301
0012
0003
0100
0010
1000
0001
,  // measure 16
0010
0000
0120
0030
1000
0010
0001
0100
,  // measure 17
0010
0000
0000
0000
1020
0000
0030
0000
0001
0000
1000
0000
0100
0010
0100
0000
,  // measure 18
0001
0000
1000
0000
2200
0000
3300
0000
0202
0000
0303
0000
0022
0000
0000
0033
,  // measure 19
0000
1000
2100
3000
0010
0001
0010
1000
,  // measure 20
0100
0000
0102
0003
1000
0010
0100
1000
,  // measure 21
0001
0000
0000
0000
2001
0000
3000
0000
0010
0000
0100
0000
0001
0010
0001
0000
,  // measure 22
1000
0000
0100
0000
1000
0000
0000
0000
2020
3000
0030
0000
0000
0000
0000
0000
0022
0030
0003
0000
0000
0000
0000
0000
0202
0003
0300
0000
0000
0000
0000
0000
,  // measure 23
2200
0300
3000
0000
0000
0000
0000
0000
1000
0000
0000
0000
0010
0000
0000
0000
0100
0000
0000
0000
0010
0000
0000
0000
1010
0000
0000
0000
0000
0000
0000
0000
,  // measure 24
1000
0000
0002
0000
0010
0000
0000
0000
1003
0000
0001
0000
0011
0000
0000
0001
,  // measure 25
0000
0200
0010
0000
0001
0300
0110
0010
,  // measure 26
1000
0000
0001
0010
0000
0000
0020
0000
0100
0000
0000
0000
0001
0000
0000
0000
,  // measure 27
0130
1000
1000
0010
0100
0001
1000
0001
,  // measure 28
0100
0001
0002
0000
0013
0002
1000
0100
,  // measure 29
0000
0003
0000
0001
0010
0000
0100
0000
1000
0000
0001
0000
0100
0010
0000
0000
,  // measure 30
0100
0000
0001
0000
0001
0000
0010
0000
1000
0000
0000
0010
1000
0000
0001
0000
,  // measure 31
0100
1000
0020
0000
0130
0001
0010
1000
,  // measure 32
0020
0000
0000
0031
0000
0000
0100
0000
0020
0000
0000
0031
0000
1000
0000
0000
,  // measure 33
0002
0000
0000
0013
1000
0000
0010
0000
0100
0000
0001
0000
0010
0000
0100
0000
,  // measure 34
1000
0000
0001
0000
0200
0000
1300
0000
2000
0000
3010
0000
0020
0000
0000
0030
,  // measure 35
0001
1001
1000
0010
0100
0010
1000
1000
,  // measure 36
0100
0000
0100
0000
0001
0000
0001
0000
0010
0000
0010
2000
0001
0000
0000
0000
,  // measure 37
0100
0000
3001
0010
0100
1000
0010
0001
,  // measure 38
0010
1000
0200
0301
0002
0013
0020
1030
,  // measure 39
0001
0000
0010
0000
0220
0030
0300
0100
1000
0000
0010
0000
0001
0000
0010
0000
,  // measure 40
1000
0000
1000
0000
2200
0300
3000
1000
0001
0000
0010
0000
1000
0000
0010
0000
,  // measure 41
0001
0000
0100
0000
0220
0030
0300
0100
0001
0000
0010
0000
1000
0000
0010
0000
,  // measure 42
0001
0100
0020
0001
0100
1000
0130
0001
,  // measure 43
1001
0000
0000
1000
0000
0100
0000
1000
0002
0000
0003
0000
0100
0000
0010
0000
,  // measure 44
1010
0000
0000
0001
0010
0000
1000
0000
0010
0000
0100
0000
2000
0000
0000
0000
,  // measure 45
0010
0000
0000
0000
3100
0000
1000
0000
0001
0100
0000
0100
2000
0000
0000
0000
,  // measure 46
3200
0000
0301
1000
0001
0010
0100
1000
,  // measure 47
1010
0000
0000
0010
0000
0100
0000
0001
2000
0000
3000
0000
0100
0000
0010
0000
,  // measure 48
0011
0000
0000
1000
0010
0000
0001
0000
0010
0000
1000
0000
0002
0000
0000
0000
,  // measure 49
0010
0000
0000
0000
0103
0000
0010
0000
1000
0100
0000
0000
0002
0000
0000
0000
,  // measure 50
0203
0000
1300
0010
0100
0001
0010
0100
,  // measure 51
1000
0000
0010
0000
0001
0000
0010
0000
2020
0030
3000
0000
0001
0000
1000
0000
,  // measure 52
0100
0020
0000
0000
0031
0000
0100
0000
0220
0030
0300
0000
0100
0000
0001
0000
,  // measure 53
1000
0100
0000
0010
0000
0100
0000
1000
0002
0000
0003
0000
0010
0000
0100
1000
,  // measure 54
0000
0001
0000
1000
0010
0000
0001
0000
0010
0000
2000
0000
3001
0000
0000
0000
,  // measure 55
0000
0000
0000
0000
0002
0000
0000
0000
0000
0000
0000
0000
0023
0000
0000
0230
,  // measure 56
0000
0000
0000
0000
2300
0000
0000
0000
0000
0000
0000
0000
3002
0000
0000
0203
,  // measure 57
0000
0000
0000
0000
0320
0000
0000
0000
0000
0000
0000
0000
2030
0000
0000
3200
,  // measure 58
0000
0000
0000
0000
0320
0000
0000
0000
0000
0000
0000
0000
0032
0000
0000
0203
,  // measure 59
0000
0300
0000
0000
;
