#TITLE:tummy treasures;
#SUBTITLE:;
#ARTIST:2Tone Disco feat. Ducky;
#TITLETRANSLIT:;
#SUBTITLETRANSLIT:;
#ARTISTTRANSLIT:;
#GENRE:;
#CREDIT:;
#BANNER:[Round 2] - tummy treasures.png;
#BACKGROUND:[Round 2] - Tummy Treasures-bg.png;
#LYRICSPATH:;
#CDTITLE:;
#MUSIC:[Round 2] - Tummy Treasures.ogg;
#OFFSET:1.714000;
#SAMPLESTART:42.886002;
#SAMPLELENGTH:15.420000;
#LASTBEATHINT:1.666000;
#SELECTABLE:YES;
#DISPLAYBPM:140.000000;
#BPMS:0.000000=140.000000
;
#STOPS:
;
#BGCHANGES:;
#KEYSOUNDS:;
#ATTACKS:;

//---------------dance-single - ----------------
#NOTES:
     dance-single:
     :
     Hard:
     7:
     0.422616,0.525891,0.150550,0.474233,0.041401,393.000000,373.000000,20.000000,63.000000,1.000000,0.000000,0.422616,0.525891,0.150550,0.474233,0.041401,393.000000,373.000000,20.000000,63.000000,1.000000,0.000000:
0000
0000
0000
0000
,
0000
0000
0000
0000
,
0000
0000
0000
0000
,
0000
0000
0000
0000
,
0000
0000
0000
0000
,
0000
0000
0000
0000
,
0001
0000
0000
0000
0000
0100
0000
0100
,
0000
0000
0000
0000
0000
0010
0000
0010
,
0000
0000
0000
0000
0000
0000
0000
0000
1000
0000
0000
1000
0000
0000
0000
0000
,
2000
3200
0320
0032
,
1003
0000
0000
0000
0000
0010
0000
0010
,
0000
0000
0110
0000
0000
0100
0000
0100
,
0000
0000
0000
0000
0101
0000
0000
0000
0001
0000
0000
0001
0000
0000
0000
0000
,
0002
0023
0230
2300
,
3010
0000
0000
0000
0000
0100
0000
0100
,
0000
0000
0000
0001
0100
0010
1000
0100
,
0000
0000
0000
0000
1100
0000
0000
0000
1000
0000
0000
1000
0000
0000
0000
0000
,
2000
3020
0230
030M
,
1001
0000
0000
0000
0000
0110
0000
0110
,
0000
0010
0000
1000
0000
0100
0000
0010
,
0000
0001
0000
0100
0000
0010
0200
0000
,
0302
0023
0230
2300
,
3100
1000
0000
0001
0000
1001
0000
1001
,
0000
1000
0000
0010
0000
0100
0000
0001
,
0000
0010
0000
0100
0000
0100
0020
0000
,
0032
0203
0320
2030
,
3100
0010
0100
1000
0000
0001
0010
0100
,
0000
0100
1000
0010
0100
0001
0010
0100
,
0000
0000
0010
0000
0001
0000
0100
0000
0010
0000
0000
0010
0000
0000
0000
0000
,
2000
3200
0320
0032
,
0103
0010
1000
0001
0000
0010
0001
1000
,
0000
0100
1000
0010
0100
0001
0010
0100
,
0000
0000
1000
0000
0010
0000
0100
0000
0010
0000
0000
0010
0000
0000
0000
0000
,
0200
0302
2003
3200
,
0310
0000
0010
0000
0001
0100
0001
0000
,
0100
0010
1000
0010
0100
0001
0010
0000
,
0001
0001
1000
1000
0010
0010
0100
0100
,
0001
0010
0100
1000
0010
1000
1001
0000
,
0002
0000
0203
0000
0310
0010
1000
0000
,
0100
0100
0010
0001
1000
0010
0100
0000
,
0001
0001
1000
1000
0010
0010
0100
0100
,
0010
1000
0100
0010
0100
1000
1001
0000
,
0002
0000
0023
0000
0130
0100
1000
0000
,
0010
0100
0001
0010
0100
1000
0100
0000
,
1000
1000
0001
0001
0100
0100
0010
0010
,
2000
3200
0320
0032
,
0103
0000
0100
0000
0010
1000
0100
0000
,
0010
0010
0100
1000
0001
0100
0110
0000
,
0010
0010
1000
1000
0001
0001
0010
0010
,
0200
2300
3002
0103
,
2002
0000
0000
0000
0000
0000
3003
0000
1000
0000
0000
0001
0000
0000
1000
0100
,
0010
0000
0011
0000
0001
0100
0010
0000
,
1000
0100
0010
0100
1000
0010
0100
0001
,
0000
0000
1000
0000
0100
0000
0010
0000
0001
0000
0000
0001
0000
0000
0000
0000
,
0002
0203
0320
2030
,
3100
0000
1100
0000
1000
0010
0100
0000
,
0001
0010
0100
0010
0001
0100
0010
1000
,
0000
0000
0001
0000
0010
0000
0100
0000
1000
0000
0000
1000
0000
0000
0000
0000
,
2000
3020
0230
0302
,
0103
0000
0101
0000
0001
0010
0100
0000
,
1000
0010
0100
0010
1000
0100
0010
0001
,
0000
0000
1000
0000
0010
0000
0100
0000
0001
0000
0000
0001
0000
0000
0000
0000
,
0002
0023
0230
2300
,
3010
0000
1010
0000
1000
0100
0010
0000
,
0001
0100
0010
0100
0001
0010
0100
1000
,
0000
0000
0001
0000
0100
0000
0010
0000
1000
0000
0000
1000
0000
0000
0000
0000
,
2000
3200
0320
0032
,
0103
0010
1000
0100
0010
0100
1000
0010
,
0100
0001
0010
0100
1000
0001
1001
0000
,
0001
0010
0100
1000
0010
0100
0001
0010
,
0002
1000
1000
1000
,
1003
0100
0010
0001
0100
0010
0100
0001
,
0010
0100
1000
0010
0100
0001
1001
0000
,
0001
0100
0010
1000
0100
0010
0001
0010
,
0100
1000
0010
0100
0001
1000
1001
0000
,
1001
0000
0000
0000
0000
2000
0000
0002
,
0000
0000
0000
3000
0000
0023
0000
0200
,
0000
0000
0000
0000
0000
0330
0000
0000
;

//---------------dance-single - ----------------
#NOTES:
     dance-single:
     :
     Medium:
     5:
     0.362396,0.525891,0.331211,0.323683,0.011291,337.000000,293.000000,44.000000,43.000000,0.000000,0.000000,0.362396,0.525891,0.331211,0.323683,0.011291,337.000000,293.000000,44.000000,43.000000,0.000000,0.000000:
0000
0000
0000
0000
,
0000
0000
0000
0000
,
0000
0000
0000
0000
,
0000
0000
0000
0000
,
0000
0000
0000
0000
,
0000
0000
0000
0000
,
1000
0000
0000
0000
0000
1000
0000
0001
,
0000
0000
0000
0000
0000
0001
0000
1000
,
0000
0000
0000
0000
0000
0000
0000
0000
1000
0000
0000
0001
0000
0000
0000
0000
,
0002
0003
0020
0030
0200
0300
2000
3000
,
0001
0000
0000
0000
0000
0001
0000
1000
,
0000
0000
0000
0000
0000
1000
0000
0001
,
0000
0000
0000
0000
0000
0000
0000
0000
0001
0000
0000
1000
0000
0000
0000
0000
,
2000
3000
0200
0300
0020
0030
0002
0003
,
0100
0000
0000
0000
0000
0100
0000
0010
,
0000
0000
0000
0000
0000
0010
0000
0100
,
0000
0000
0000
0000
0000
0000
0000
0000
0100
0000
0000
0010
0000
0000
0000
0000
,
0200
0300
0020
0030
2000
3000
0001
0000
,
1001
0000
0000
0000
0000
1001
0000
1001
,
0000
0001
0000
1000
0000
0001
0000
1000
,
0000
0010
0000
0100
0000
0020
0000
0030
,
0000
1000
0000
0100
0000
1000
0000
0100
,
0000
0010
0000
0001
0000
0011
0000
0011
,
0000
0001
0000
0100
0000
0010
0000
1000
,
0000
0100
0000
0010
0000
0200
0000
0300
,
0000
1000
0000
0100
0000
0010
0000
0001
,
0100
0000
0010
0000
1000
0100
1000
0000
,
0010
0000
0100
0000
0001
0100
0001
0000
,
1000
0000
0001
0000
1000
0001
1000
0000
,
0200
0300
0020
0030
0002
0003
2000
3000
,
0001
0000
0100
0000
0010
1000
0010
0000
,
1000
0000
0100
0000
0010
0001
0010
0000
,
0100
0000
0010
0000
0100
0010
0100
0000
,
0020
0030
0200
0300
2000
3000
0002
0003
,
0100
0000
0100
0000
0010
0100
0010
0000
,
0100
0000
0100
0000
0010
0100
0010
0000
,
2002
0000
0000
3003
,
0200
0000
0000
0310
,
1000
0000
1000
0000
0001
1000
0001
0000
,
0001
0000
0001
0000
1000
0001
1000
0000
,
0001
0010
0001
0000
0010
0100
0010
0000
,
0100
1000
0100
0000
1000
0001
1000
0000
,
0001
0000
0001
0000
1000
0001
1000
0000
,
1000
0000
1000
0000
0001
1000
0001
0000
,
1000
0100
1000
0000
0100
0010
0100
0000
,
0010
0001
0010
0000
0001
1000
0001
0000
,
0010
0000
0010
0000
0100
0010
0100
0000
,
0100
0000
0100
0000
0010
0100
0010
0000
,
0001
0100
0001
0000
0100
0010
0100
0000
,
0010
1000
0010
0000
1000
0001
1000
0000
,
2002
0000
0000
0000
0000
0000
0000
3003
,
1001
0000
1001
0000
1000
0001
1000
0000
,
0001
0010
0100
1000
,
0010
0100
0010
0000
1000
0001
1000
0000
,
0002
0003
0020
0030
0200
0300
2000
3000
,
0110
0000
0110
0000
0100
0010
0100
0000
,
0010
1000
0100
0010
,
0001
0010
0001
0000
1000
0010
1000
0000
,
0020
0030
0200
0300
0002
0003
2000
3000
,
1001
0000
1001
0000
0001
1000
0001
0000
,
1000
0100
0010
0001
,
0100
0010
0100
0000
0001
1000
0001
0000
,
2000
3000
0200
0300
0020
0030
0002
0003
,
0110
0000
0110
0000
0010
0100
0010
0000
,
0100
0001
1000
0100
,
0010
0001
0010
0000
0100
1000
0100
0000
,
0010
0010
0010
0010
,
0011
0011
0011
0011
,
0101
0101
0101
0101
,
1010
1010
1010
1010
,
2000
0001
0001
3001
,
1100
1100
0101
0101
,
0110
0110
1001
1001
,
1010
1010
0011
0011
,
0110
0110
1001
1001
,
0110
0000
0000
0000
0000
0200
0000
0020
,
0000
0000
0000
0300
0000
2030
0000
0002
,
0000
0000
0000
0000
0000
3003
0000
0000
;

//---------------dance-single - ----------------
#NOTES:
     dance-single:
     :
     Easy:
     3:
     0.206469,0.289339,0.037638,0.090330,0.000000,192.000000,187.000000,5.000000,12.000000,0.000000,0.000000,0.206469,0.289339,0.037638,0.090330,0.000000,192.000000,187.000000,5.000000,12.000000,0.000000,0.000000:
// measure 0
0000
0000
0000
0000
,  // measure 1
0000
0000
0000
0000
,  // measure 2
0000
0000
0000
0000
,  // measure 3
0000
0000
0000
0000
,  // measure 4
0000
0000
0000
0000
,  // measure 5
0000
0000
0000
0000
,  // measure 6
1000
0000
0000
0000
,  // measure 7
0000
0010
0000
0000
,  // measure 8
0000
0100
0000
0000
,  // measure 9
0001
0001
1000
1000
,  // measure 10
0001
0000
0000
0000
,  // measure 11
0000
0010
0000
0000
,  // measure 12
0000
0100
0000
0000
,  // measure 13
1000
1000
0001
0001
,  // measure 14
0100
0000
0000
0000
,  // measure 15
0000
0010
0000
0000
,  // measure 16
0000
0100
0000
0000
,  // measure 17
0001
1000
0001
2002
,  // measure 18
3003
0000
0000
0000
,  // measure 19
1000
1000
1000
1000
,  // measure 20
0010
0010
0010
0020
,  // measure 21
0130
0100
0100
0100
,  // measure 22
0001
0001
0001
0000
,  // measure 23
0001
0010
0001
0010
,  // measure 24
0100
0010
0100
2000
,  // measure 25
3100
1000
0001
1000
,  // measure 26
0010
0000
0010
0000
,  // measure 27
0100
0100
0100
0000
,  // measure 28
0001
0000
0001
0000
,  // measure 29
1000
1000
1000
1000
,  // measure 30
0100
0000
0100
0000
,  // measure 31
1000
0000
1000
0000
,  // measure 32
0010
0000
0010
0000
,  // measure 33
0001
0001
0001
0001
,  // measure 34
1000
0000
0000
0000
,  // measure 35
0001
0000
0000
0000
,  // measure 36
2002
0000
0000
0000
,  // measure 37
0000
0000
0000
3003
,  // measure 38
0001
0000
0001
0000
,  // measure 39
1000
0000
1000
0000
,  // measure 40
0010
0010
0100
0100
,  // measure 41
0010
0100
0010
0100
,  // measure 42
0001
0000
0001
0000
,  // measure 43
1000
0000
1000
0000
,  // measure 44
1000
0100
0010
0001
,  // measure 45
1000
0010
0100
0001
,  // measure 46
1000
0000
1000
0000
,  // measure 47
0001
0000
0001
0000
,  // measure 48
0001
0010
0100
1000
,  // measure 49
0001
0100
0010
1000
,  // measure 50
2002
0000
0000
3003
,  // measure 51
0001
0001
1000
1000
,  // measure 52
0010
0000
0010
0000
,  // measure 53
0100
0000
0100
0000
,  // measure 54
0001
1000
0001
1000
,  // measure 55
0010
0010
0100
0100
,  // measure 56
0001
0000
0001
0000
,  // measure 57
1000
0000
1000
0000
,  // measure 58
0010
0100
0010
0100
,  // measure 59
0010
0010
0010
0010
,  // measure 60
1000
0000
1000
0000
,  // measure 61
0100
0000
0100
0000
,  // measure 62
0010
0001
0010
0001
,  // measure 63
1000
1000
1000
1000
,  // measure 64
0001
0000
0001
0000
,  // measure 65
0100
0000
0100
0000
,  // measure 66
0010
1000
0010
1000
,  // measure 67
0001
1000
0001
1000
,  // measure 68
0010
0100
0010
0100
,  // measure 69
0001
1000
0001
1000
,  // measure 70
2002
0000
0000
3003
,  // measure 71
1000
0001
1000
0001
,  // measure 72
0100
0010
0100
0010
,  // measure 73
1000
0001
1000
0001
,  // measure 74
0100
0010
0100
0010
,  // measure 75
2002
0000
0000
0000
,  // measure 76
0000
0000
0000
0000
0000
0000
0000
3003
;

//---------------dance-single - ----------------
#NOTES:
     dance-single:
     :
     Beginner:
     1:
     0.131194,0.231471,0.045165,0.112913,0.000000,122.000000,116.000000,6.000000,15.000000,0.000000,0.000000,0.131194,0.231471,0.045165,0.112913,0.000000,122.000000,116.000000,6.000000,15.000000,0.000000,0.000000:
0000
0000
0000
0000
,
0000
0000
0000
0000
,
0000
0000
0000
0000
,
0000
0000
0000
0000
,
0000
0000
0000
0000
,
0000
0000
0000
0000
,
1000
0000
0000
0000
,
0000
0001
0000
0000
,
0000
1000
0000
0000
,
0002
0000
0000
0003
,
0010
0000
0000
0000
,
0000
0100
0000
0000
,
0000
0010
0000
0000
,
0200
0000
0000
0300
,
1000
0000
0000
0000
,
0000
0010
0000
0000
,
0000
1000
0000
0000
,
0020
0000
0000
0030
,
1001
0000
0000
0000
,
0001
0000
0001
0000
,
0001
0000
0000
0000
,
1000
0000
1000
0000
,
1000
0000
0000
0000
,
0010
0000
0010
0000
,
0010
0000
0000
0000
,
0100
0000
0100
0000
,
0100
0000
0001
0000
,
1000
0000
1000
0000
,
0010
0000
1000
0000
,
0001
0000
0001
0000
,
0010
0000
0100
0000
,
1000
0000
1000
0000
,
0010
0000
0100
0000
,
0001
0000
0001
0000
,
2000
0000
0000
3000
,
0200
0000
0000
0300
,
0020
0000
0000
0030
,
0002
0000
0000
0003
,
1000
0000
0000
0000
,
0001
0000
0000
0000
,
1000
0000
1000
0000
,
0001
0000
0001
0000
,
0100
0000
0000
0000
,
0010
0000
0000
0000
,
0100
0000
0100
0000
,
0010
0000
0010
0000
,
1001
0000
0000
0000
,
1001
0000
0000
0000
,
0110
0000
0000
0000
,
0110
0000
0000
0000
,
2000
0000
0000
3000
,
0001
0000
0001
0000
,
2000
0000
0000
3000
,
0002
0000
0000
0003
,
1000
1000
1000
0000
,
0010
0000
0010
0000
,
0200
0000
0000
0300
,
0020
0000
0000
0030
,
0100
0100
0100
0000
,
0010
0000
0010
0000
,
1000
0000
0001
0000
,
1000
0000
0001
0000
,
0010
0010
0010
0000
,
1000
0000
0001
0000
,
1000
0000
0001
0000
,
0100
0000
0010
0000
,
0100
0100
0100
0000
,
0001
0001
0001
0000
,
1000
1000
1000
0000
,
0010
0010
0010
0000
,
0200
0000
0000
0300
,
0100
0100
0100
0000
,
0010
0010
0010
0000
,
1000
1000
1000
0000
,
0001
0001
0001
0000
,
2002
0000
0000
0000
,
0000
0000
0000
0000
0000
0000
0000
3003
;
