#VERSION:0.83;
#TITLE:UK Power;
#SUBTITLE:;
#ARTIST:ETIA.;
#TITLETRANSLIT:;
#SUBTITLETRANSLIT:;
#ARTISTTRANSLIT:;
#GENRE:UK Hardcore;
#ORIGIN:;
#CREDIT:;
#BANNER:UK Power.png;
#BACKGROUND:UK Power-bg.png;
#PREVIEWVID:;
#JACKET:UK Power-jacket.png;
#CDIMAGE:;
#DISCIMAGE:;
#LYRICSPATH:;
#CDTITLE:;
#MUSIC:UK Power.ogg;
#OFFSET:-0.137149;
#SAMPLESTART:21.407000;
#SAMPLELENGTH:15.000000;
#SELECTABLE:YES;
#DISPLAYBPM:175.000000;
#BPMS:0.000=175.000,
62.000=174.500,
96.000=175.000;
#STOPS:;
#DELAYS:;
#WARPS:;
#TIMESIGNATURES:0.000=4=4;
#TICKCOUNTS:0.000=4;
#COMBOS:0.000=1;
#SPEEDS:0.000=1.000=0.000=0;
#SCROLLS:0.000=1.000;
#FAKES:;
#LABELS:0.000=Song Start;
#BGCHANGES:;
#KEYSOUNDS:;
#ATTACKS:
;

//---------------dance-single - ----------------
#NOTEDATA:;
#CHARTNAME:;
#STEPSTYPE:dance-single;
#DESCRIPTION:;
#CHARTSTYLE:;
#DIFFICULTY:Hard;
#METER:9;
#RADARVALUES:0.631361,0.671169,0.326736,0.318137,0.580386,514.000000,476.000000,38.000000,37.000000,0.000000,0.000000,0.000000,0.000000,0.000000,0.631361,0.671169,0.326736,0.318137,0.580386,514.000000,476.000000,38.000000,37.000000,0.000000,0.000000,0.000000,0.000000,0.000000;
#CREDIT:;
#DISPLAYBPM:175.000000;
#NOTES:
// measure 0
0000
0000
0000
0000
0000
0000
0100
0000
0001
0000
0000
0001
0000
0000
0100
0000
,  // measure 1
0000
0000
0000
0000
0000
0000
0010
0000
0100
0000
0000
0100
0000
0000
0010
0100
,  // measure 2
0000
0000
0000
0000
0000
0000
0010
0000
1000
0000
0000
1000
0000
0000
0010
0000
,  // measure 3
0000
0000
0000
0000
0000
0000
1000
0000
0001
0000
0000
0001
0000
0000
1000
0001
,  // measure 4
0000
0000
0000
0000
0000
0000
0100
0000
0001
0000
0000
0100
0000
0000
0010
0000
,  // measure 5
0000
0000
0000
0000
0000
0000
1000
0000
0010
0000
0000
0100
0000
0000
0010
1000
,  // measure 6
0000
0000
0000
0000
0000
0000
0001
0000
0010
0000
0000
0010
0000
0000
0100
0000
,  // measure 7
1000
1000
0010
0010
0100
0010
0210
0000
,  // measure 8
0301
0100
0001
0010
0100
1000
0010
1000
,  // measure 9
0001
0001
1000
1000
0010
1000
1001
0000
,  // measure 10
0010
0001
0100
0001
1000
0010
0100
0010
,  // measure 11
0100
0100
0001
0001
0100
0010
1020
0000
,  // measure 12
1030
0001
1000
0001
0100
0010
0100
0010
,  // measure 13
1000
0100
1000
0100
0010
0001
0010
0001
,  // measure 14
0010
0100
1000
0001
0100
0010
0100
0100
,  // measure 15
2002
3003
2002
3003
0010
0010
0100
0010
,  // measure 16
0110
0000
0001
1000
0100
0010
0100
0000
,  // measure 17
1000
0100
0010
0001
0010
0100
0010
0000
,  // measure 18
0001
1000
0000
1000
0010
0100
0010
0000
,  // measure 19
1010
1010
0011
0011
,  // measure 20
0201
0000
0310
1000
0010
0100
0001
0000
,  // measure 21
0100
0010
0100
0010
1000
0000
0001
0010
,  // measure 22
0100
0010
0000
0010
0001
0100
0001
0000
,  // measure 23
0100
0000
0010
0000
1000
0000
0000
0000
0100
0000
0000
0010
0000
0000
0001
0000
,  // measure 24
0101
0000
1000
0100
1000
0010
0010
1000
,  // measure 25
0001
0000
1000
0001
0100
0010
0100
0000
,  // measure 26
0010
1000
0000
1000
0010
0100
0001
0000
,  // measure 27
0101
0101
0110
0110
,  // measure 28
2010
0000
0000
3100
0020
0000
0200
0000
,  // measure 29
0030
0000
0000
1000
0000
0000
1000
0000
0000
0300
0000
0000
0002
0000
0000
0000
1000
0000
0000
0000
1003
0000
0000
0000
,  // measure 30
1200
0000
0000
1300
0020
0000
0130
0000
,  // measure 31
0001
0000
0001
0000
0010
0000
0010
0000
0100
0000
1000
0000
0010
0100
0010
0200
,  // measure 32
0002
0000
0000
0000
,  // measure 33
0000
0000
0303
0000
,  // measure 34
0020
0000
0000
0030
0000
0020
0000
0000
0000
0030
0000
0000
,  // measure 35
2000
0000
0000
3000
0000
1000
0001
1000
0001
0100
0000
0100
,  // measure 36
0002
0003
0000
0000
,  // measure 37
0000
0000
0000
0000
0000
0000
0000
0000
0000
0010
0001
0010
,  // measure 38
0002
0000
0000
0003
0000
0002
0000
0000
0000
0003
0000
0000
,  // measure 39
0200
0000
0000
0300
0000
0100
0010
0000
2020
0000
3030
0000
,  // measure 40
1000
0000
0001
1000
0000
0010
1000
0000
0010
0100
0000
0010
,  // measure 41
0100
0000
0100
0001
0000
0001
0010
0000
0001
0011
0000
0000
,  // measure 42
0010
0000
0001
1000
0000
0001
0010
0000
0100
0010
0000
0001
,  // measure 43
1000
0000
1000
0100
0000
0100
1000
0000
0010
0120
0000
0000
,  // measure 44
1030
0000
0010
0100
0000
0010
0100
0000
0001
0010
0001
0010
,  // measure 45
0100
0000
1000
0010
0000
1000
0100
0000
0010
0001
0000
0010
,  // measure 46
0001
0000
0001
1000
0000
1000
0010
0100
0010
1000
0001
0100
,  // measure 47
0010
0100
0220
0330
,  // measure 48
0001
0100
0001
0100
0000
0100
0010
0000
1000
0010
0000
1000
,  // measure 49
0001
0000
0100
0001
0000
0100
0010
1000
0010
0100
0000
0000
,  // measure 50
0001
0000
1000
0000
0000
1000
0010
1000
0001
0100
0000
0000
,  // measure 51
0110
0110
1010
1010
,  // measure 52
1002
0000
0000
0013
0000
0010
0001
0000
0010
0100
0000
0000
,  // measure 53
1000
0000
0001
1000
0000
0001
0100
0000
0000
0010
0000
0100
,  // measure 54
0001
0000
0000
1000
0000
0010
1000
0000
0100
0010
0000
0100
,  // measure 55
1000
0000
1000
0001
0000
0001
0010
0000
0001
0101
0000
0000
,  // measure 56
0100
0000
0000
0010
1000
0010
1000
0000
1000
0100
0000
0100
,  // measure 57
1000
0000
0001
0010
0000
0001
0100
0000
0010
1000
0000
0000
,  // measure 58
0001
0000
0100
0000
0000
0100
0010
1000
0010
0100
0000
0000
,  // measure 59
1100
1100
0101
0101
,  // measure 60
0021
0000
0000
0000
0000
0031
0200
0000
0000
0002
0000
0000
,  // measure 61
0300
0000
0010
0010
0000
0000
0203
0000
0010
0000
0310
0000
,  // measure 62
2010
0000
0000
0000
0000
3001
0200
0000
0000
0301
0000
0000
,  // measure 63
1000
0000
1000
0010
0000
0010
0100
0000
0001
0100
0010
0100
,  // measure 64
0010
1000
0001
1000
,  // measure 65
0010
0100
0001
0010
,  // measure 66
0100
1000
0001
0100
,  // measure 67
0010
0100
0001
1001
,  // measure 68
1000
0100
0010
0100
,  // measure 69
1000
0001
0100
0001
,  // measure 70
0100
0010
1000
0100
,  // measure 71
0010
0000
0010
0100
0000
0100
0010
0000
0001
1000
0001
0100
,  // measure 72
0010
0000
0100
0010
0000
0100
0001
0000
0010
0001
0000
1000
,  // measure 73
0100
0000
0100
1000
0000
1000
0010
0000
0100
0110
0000
0000
,  // measure 74
1000
0000
0010
0100
0000
0001
0100
0000
0010
1000
0000
0001
,  // measure 75
1000
0000
1000
0010
0000
0010
0100
0000
0001
0201
0000
0000
,  // measure 76
0310
0000
1000
0010
0000
1000
0001
0000
1000
0001
0000
1000
,  // measure 77
0001
0000
0010
0001
0000
0010
0100
0000
0010
0100
0000
0010
,  // measure 78
0001
0000
1000
0100
0000
0010
0100
0000
1000
0001
0000
0010
,  // measure 79
0001
0000
0001
1000
0000
1000
0010
0000
1000
0100
1000
0001
,  // measure 80
0022
0000
0000
0000
,  // measure 81
0000
0000
0000
0000
,  // measure 82
0000
0000
0033
0000
0000
0000
0000
0000
0000
0000
0000
0000
;

//---------------dance-single - ----------------
#NOTEDATA:;
#CHARTNAME:;
#STEPSTYPE:dance-single;
#DESCRIPTION:;
#CHARTSTYLE:;
#DIFFICULTY:Medium;
#METER:6;
#RADARVALUES:0.399207,0.456892,0.154769,0.223556,0.073086,325.000000,307.000000,18.000000,26.000000,0.000000,0.000000,0.000000,0.000000,0.000000,0.399207,0.456892,0.154769,0.223556,0.073086,325.000000,307.000000,18.000000,26.000000,0.000000,0.000000,0.000000,0.000000,0.000000;
#CREDIT:;
#DISPLAYBPM:175.000000;
#NOTES:
0000
0000
0000
0000
0100
0000
0010
0100
,
0000
0000
0000
0000
0001
0000
0100
0001
,
0000
0000
0000
0000
1000
0000
0001
1000
,
0000
0000
0000
0000
0010
0000
1000
0010
,
0000
0000
0000
0000
0100
0000
0001
0010
,
0000
0000
0000
0000
0001
0000
1000
0100
,
0000
0000
0000
0000
0010
0000
0001
0100
,
0010
1000
0001
0002
,
0103
0000
0010
1000
0010
0000
1000
0001
,
1000
1000
0010
1010
,
0100
0000
0001
0100
0001
0000
0010
0001
,
0010
0010
0100
0110
,
0001
0000
0100
0001
0100
0000
1000
0100
,
1000
0000
0010
1000
0010
0000
0100
0010
,
0100
0001
1000
0010
,
2000
3002
0013
0110
,
0001
0000
0010
0000
0100
0010
0100
0000
,
1000
0000
0010
0000
0001
1000
0001
0000
,
1000
0000
0010
0000
0100
0001
0100
0000
,
0010
0010
0100
0100
,
2200
0000
3300
0000
1000
0010
0100
0000
,
0010
1000
0010
1000
0100
0000
0010
0000
,
0001
0000
1000
0010
1000
0001
0100
0000
,
0001
0000
0001
0000
0100
0000
0010
0100
,
0020
1000
1030
1010
,
0100
0000
0001
0000
0010
1000
0100
0000
,
0100
0000
0010
0000
1000
0001
1000
0000
,
0001
0001
0100
0100
,
0202
0003
0020
0300
,
2000
0030
0001
0001
,
0002
3000
0200
0303
,
1000
1000
0010
0100
,
0110
0000
0000
0000
,
0000
0000
0000
0000
,
0100
0000
0100
0000
,
0001
0000
1000
0010
,
1010
0000
0000
0000
,
0000
0000
0000
0010
,
0010
0000
0100
0000
,
0001
0000
1000
1001
,
0010
0010
0100
0100
,
0001
1000
0100
1100
,
1000
1000
0001
0001
,
0010
0100
0001
0101
,
0001
1000
0010
0010
,
0100
0001
1000
1000
,
0010
0100
0001
1000
,
0020
0230
0002
0303
,
1000
0000
0100
1000
0000
0000
0010
0000
0000
0100
0000
0000
,
0010
0000
0000
0100
0000
0000
0001
0000
0100
0001
0000
0000
,
1000
0000
0000
0001
0000
0000
0100
0000
0010
0100
0000
0000
,
1000
1000
0010
0001
,
0022
0000
0000
0033
0000
0000
0001
0000
1000
0100
0000
0000
,
0010
0000
0010
0100
0000
0100
0010
0000
0000
1000
0000
0000
,
0001
0000
0000
1000
0000
0000
0010
0000
1000
0100
0000
0000
,
0010
0000
0000
0010
0000
0000
0100
0000
1000
0100
0000
1000
,
0001
0000
0000
1000
0000
1000
0010
0000
0010
0100
0000
0000
,
0001
0000
0000
1000
0000
0000
0010
0000
0000
1000
0000
0100
,
1000
0000
0000
0001
0000
0000
0010
0000
0010
0100
0000
0000
,
0001
0001
1000
1000
,
0022
0030
2000
0003
,
0200
3000
0010
0010
,
0020
0300
0002
0033
,
0100
0100
0001
1001
,
1000
0000
0010
0000
,
0100
1000
0100
0000
,
0001
0000
0010
0000
,
1000
1000
0200
0300
,
1000
0000
0001
0000
,
0010
1000
0010
0000
,
0100
0000
0001
0000
,
0100
0010
0001
0011
,
1000
1000
0100
0100
,
0010
0000
0010
1000
0000
1000
0001
0000
0000
1001
0000
0000
,
0010
0010
0100
0100
,
0001
0000
0001
0100
0000
0100
0010
0000
0000
0110
0000
0000
,
0100
0010
1000
0010
,
0100
0001
1000
0001
,
0100
0100
0001
0001
,
1000
0100
0001
0010
,
0220
0000
0000
0000
,
0000
0000
0000
0330
;

//---------------dance-single - ----------------
#NOTEDATA:;
#CHARTNAME:;
#STEPSTYPE:dance-single;
#DESCRIPTION:;
#CHARTSTYLE:;
#DIFFICULTY:Easy;
#METER:3;
#RADARVALUES:0.253036,0.309539,0.085983,0.094581,0.000000,206.000000,196.000000,10.000000,11.000000,0.000000,0.000000,0.000000,0.000000,0.000000,0.253036,0.309539,0.085983,0.094581,0.000000,206.000000,196.000000,10.000000,11.000000,0.000000,0.000000,0.000000,0.000000,0.000000;
#CREDIT:;
#DISPLAYBPM:175.000000;
#NOTES:
0000
0000
1000
0001
,
0000
0000
1000
1000
,
0000
0000
0100
0010
,
0000
0000
0100
0100
,
0000
0000
0010
1000
,
0000
0000
0010
0010
,
0000
0000
0001
0100
,
0001
1000
0002
0003
,
0100
0100
0001
0001
,
0010
0001
0010
0000
,
1000
1000
0010
0010
,
1000
0001
1000
0000
,
0001
0010
0001
0000
,
1000
0100
1000
0000
,
0010
0010
0100
0100
,
0220
0000
0330
0000
,
1000
0010
1000
0000
,
0010
0100
0010
0000
,
1000
0000
0001
0010
,
0001
0000
1000
0000
,
0110
0000
0100
0000
,
0010
0010
0001
0000
,
1000
0000
0001
0000
,
0100
0010
0100
0000
,
2002
0000
3003
0000
,
0010
0000
0100
1000
,
0010
0000
0001
1000
,
0001
0000
1000
0000
,
0200
0000
0300
0000
,
0010
0010
1000
1000
,
0020
0000
0030
0000
,
0100
0100
0010
0010
,
1001
0000
0000
0000
,
0000
0000
0000
0000
,
0000
0000
0000
0000
,
0000
0000
0000
0000
,
0110
0000
0000
0000
,
0000
0000
0000
0000
,
0100
0000
0100
0000
,
1000
0000
1001
0000
,
0010
0010
0001
0001
,
1000
0010
1000
0000
,
0001
0001
0100
0100
,
0001
1000
0001
0000
,
0100
1000
0100
0000
,
0010
0100
0010
0000
,
0001
0001
1000
1000
,
0200
0000
0020
0330
,
0100
0010
0100
0000
,
0001
0010
0001
0000
,
0100
0000
1000
1000
,
0010
0000
0100
0000
,
1001
0000
0010
0000
,
0001
0001
0010
0000
,
0100
0000
0010
0000
,
1000
1000
0010
0100
,
0010
0000
0001
1000
,
0001
0000
0010
0100
,
0010
0000
0100
1000
,
0100
0000
0001
0000
,
2000
0000
3000
0000
,
0001
0001
0100
0100
,
0002
0000
0003
0000
,
1000
0000
0110
0000
,
0100
0000
0010
0000
,
0100
0000
0100
0000
,
0001
0000
0100
0000
,
0001
0000
0001
0000
,
1000
0000
0001
0000
,
1000
0000
1000
0000
,
0010
0000
1000
0000
,
0010
0010
0100
0100
,
0001
0000
0100
0000
,
0001
1000
0001
0000
,
0010
0000
0100
0000
,
0010
1000
0010
0000
,
0100
0010
0100
0000
,
0001
1000
0001
0000
,
0100
0100
0010
0010
,
0100
0000
0110
0000
,
1001
0000
0000
0000
;

//---------------dance-single - ----------------
#NOTEDATA:;
#CHARTNAME:;
#STEPSTYPE:dance-single;
#DESCRIPTION:;
#CHARTSTYLE:;
#DIFFICULTY:Beginner;
#METER:2;
#RADARVALUES:0.157226,0.275146,0.060188,0.068786,0.000000,128.000000,121.000000,7.000000,8.000000,0.000000,0.000000,0.000000,0.000000,0.000000,0.157226,0.275146,0.060188,0.068786,0.000000,128.000000,121.000000,7.000000,8.000000,0.000000,0.000000,0.000000,0.000000,0.000000;
#CREDIT:;
#DISPLAYBPM:175.000000;
#NOTES:
0000
0000
0000
0000
,
0000
0000
0000
0000
,
0000
0000
0000
0000
,
0000
0000
0000
0000
,
0000
0000
0000
0000
,
0000
0000
0000
0000
,
0000
0000
0000
0000
,
1000
1000
1000
0000
,
0001
0000
1000
0000
,
0001
0000
0001
0000
,
0010
0000
0100
0000
,
0010
0000
0010
0000
,
0100
0100
0100
0000
,
0010
0010
0010
0000
,
1000
0000
0001
0000
,
0010
0010
0000
0000
,
0110
0000
0000
0000
,
0010
0000
0010
0000
,
0100
0000
0100
0000
,
1000
0000
0001
0000
,
1001
0000
0000
0000
,
0001
0000
0001
0000
,
0010
0000
0010
0000
,
0100
0000
0100
0000
,
0110
0000
0000
0000
,
1000
0000
1000
0000
,
0010
0000
0010
0000
,
1000
0000
0001
0000
,
0200
0000
0300
0000
,
0200
0000
0300
0000
,
0020
0000
0030
0000
,
0020
0000
0030
0000
,
1001
0000
0000
0000
,
0000
0000
0000
0000
,
0000
0000
0000
0000
,
0000
0000
0000
0000
,
0000
0000
0000
0000
,
0000
0000
0000
0000
,
0000
0000
0000
0000
,
0000
0000
0000
0000
,
0100
0000
0001
0000
,
0100
0000
0100
0000
,
1000
0000
0010
0000
,
1000
0000
1000
0000
,
0001
0001
0001
0000
,
1000
1000
1000
0000
,
0010
0010
0010
0010
,
0000
0000
0000
0000
,
0100
0000
1000
0000
,
0100
0000
0010
0000
,
0100
0000
0001
0000
,
0010
0000
0010
0000
,
0110
0000
0000
0000
,
0001
0000
0001
0000
,
1000
0000
0010
0000
,
1000
0000
1001
0000
,
0001
0000
0010
0000
,
0001
0000
0100
0000
,
1000
0000
0010
0000
,
1000
0000
0100
0000
,
0002
0000
0003
0000
,
0002
0000
0003
0000
,
2000
0000
3000
0000
,
2000
0000
3000
0000
,
0010
0000
0000
0000
,
0010
0000
0000
0000
,
1000
0000
0000
0000
,
1000
0000
0000
0000
,
0001
0000
0000
0000
,
0001
0000
0000
0000
,
0100
0000
0000
0000
,
0100
0000
0000
0000
,
0010
0000
0010
0000
,
0001
0000
0001
0000
,
1000
0000
1000
0000
,
0100
0000
0100
0000
,
0001
0001
0001
0000
,
1000
1000
1000
0000
,
0010
0010
0010
0000
,
0100
0100
0100
0000
,
1001
0000
0000
0000
;
