#TITLE:Space Space Shooter;
#SUBTITLE:Cusimo & Co. Remix;
#ARTIST:Kick & Punch;
#TITLETRANSLIT:;
#SUBTITLETRANSLIT:;
#ARTISTTRANSLIT:;
#GENRE:;
#CREDIT:;
#BANNER:Space Space Shooter (Cusimo & Co. Remix).png;
#BACKGROUND:Space Space Shooter (Cusimo & Co. Remix)-bg.png;
#LYRICSPATH:;
#CDTITLE:./CDTITLES/Dance Dance Revolution UNIVERSE 2.png;
#MUSIC:Space Space Shooter (Cusimo & Co. Remix).mp3;
#OFFSET:-0.030;
#SAMPLESTART:28.020;
#SAMPLELENGTH:13.440;
#SELECTABLE:YES;
#DISPLAYBPM:90.000:180.000;
#BPMS:0.000=179.989,16.000=720.000,17.000=360.000,17.500=180.000,17.750=90.000,18.000=179.989,80.000=720.000,81.000=360.000,81.500=180.000,81.750=90.000,82.000=180.500,84.000=179.989,148.000=90.000,164.000=180.000,192.000=720.000,193.000=360.000,193.500=180.000,193.750=90.000,208.000=180.000;
#STOPS:17.979=0.255
,81.979=0.255
,193.979=0.915
;
#TIMESIGNATURES:0.000=4=4
;
#BGCHANGES:;
#KEYSOUNDS:;

//---------------dance-single - ----------------
#NOTES:
     dance-single:
     :
     Challenge:
     11:
     0.873,0.930,0.133,0.399,0.736,588.000,14.000,42.000,0.000,0.000,0.000,0.873,0.930,0.133,0.399,0.736,588.000,14.000,42.000,0.000,0.000,0.000:
0000
0000
0000
0000
,
0000
0000
0000
0000
,
0000
0000
0000
0000
,
0000
0000
0000
0000
,
2002
0000
0000
0000
3003
0000
0000
0001
,
0100
0100
0010
1000
0100
0200
0000
0310
,
0001
0001
0100
0010
0110
0000
0000
0100
,
0010
1000
0001
1000
0100
1000
0010
0100
,
0001
0000
0010
0000
0110
0000
0000
0000
1100
0000
1000
0000
0100
0010
0001
1000
,
0200
0300
0020
0030
0002
0003
0200
0300
0020
0030
2000
3000
0100
0000
0020
0030
,
0200
0300
2000
3000
0020
0030
0100
0000
0002
0003
0010
0000
0100
0000
0010
0000
,
0002
0003
1000
0000
0020
0030
0100
0000
0002
0003
1000
0000
0200
0300
0020
0030
,
0200
0300
2000
3000
0002
0003
2000
3000
0010
0100
0001
1000
0100
0010
0100
1000
,
0001
0100
0010
0100
0001
0100
0010
0100
,
0001
1000
0100
0010
0001
1000
0001
0020
,
0100
0100
0100
0130
0000
0010
0100
2000
,
0010
0010
0010
3010
0000
0000
0000
0000
,
1000
0100
0010
0100
1000
0100
0010
0100
,
1000
0001
0100
0010
1000
0001
0010
0100
,
1000
0001
0100
0001
1000
0100
0010
0001
,
2002
0000
3003
0000
,
0001
0100
0001
0000
1000
0010
1000
0000
0001
0100
0010
0100
0001
0000
0000
0000
,
1000
0100
0010
0100
1000
0010
0100
0010
1000
0100
1000
0000
0000
0000
0001
0000
,
1000
0010
1000
0000
0100
0000
1000
0000
0001
0010
0001
0000
0100
0000
0001
0000
,
1000
0010
0100
0002
0000
0000
0000
0000
,
1003
0100
1000
0000
0001
0010
0001
0000
1000
0100
0010
0100
1000
0000
0000
0000
,
0001
0100
0010
0100
0001
0010
0100
0010
0001
0100
0001
0000
0000
0000
1000
0000
,
0001
0010
0001
0000
0100
0000
0001
0000
1000
0010
1000
0000
0100
0000
1000
0000
,
0001
0010
0100
2000
0000
0000
0000
0000
,
3001
0100
0010
1000
0001
0100
0010
1000
0001
0000
0010
0001
0000
0100
0001
0000
,
1000
0100
0010
0001
1000
0100
0010
0001
1000
0000
0010
1000
0000
0100
1000
0000
,
0001
0100
0010
1000
0001
0100
0010
1000
0001
0000
0010
0001
0000
0100
0001
0000
,
1000
0100
0010
0002
0000
0000
0000
0000
,
1003
0010
0100
0001
1000
0010
0100
0001
1000
0000
0100
1000
0000
0010
1000
0000
,
0001
0010
0100
1000
0001
0010
0100
1000
0001
0000
0100
0001
0000
0010
0001
0000
,
1000
0010
0100
0001
1000
0010
0100
0001
1000
0000
0100
1000
0000
0010
1000
0000
,
0001
0010
0100
2000
0000
0000
3000
0000
,
1100
0100
0010
0000
0001
0100
0010
0000
1010
0010
0100
0000
0001
0010
0100
0000
,
0110
0100
1000
0000
0010
0100
0001
0000
0101
0100
0010
0000
0100
0010
1000
0000
,
1010
1000
0100
0000
0010
0001
0100
0000
0101
0001
0010
0000
0100
1000
0010
0000
,
1010
1000
0100
0000
0010
0001
1000
0000
2200
0000
0000
0000
0000
0000
3300
0000
,
1000
0100
0010
0100
1000
0100
0010
0100
,
1000
0001
0100
0010
1000
0001
1000
0020
,
0100
0100
0100
0130
0000
0010
0100
0002
,
0010
0010
0010
0013
0000
0000
0000
0000
,
0001
0100
0010
0100
0001
0100
0010
0100
,
0001
1000
0100
0010
0001
1000
0010
0100
,
0001
1000
0100
1000
0001
0100
0010
1000
,
2002
0000
0000
0000
0000
0000
0000
3003
1000
0000
1000
0000
1000
0001
0010
0000
,
0001
0100
0001
0000
1000
0010
1000
0000
0001
0010
0100
0010
0001
0000
0100
0010
,
1000
0000
0100
0010
0001
0000
1000
0010
0100
0000
0100
0000
0100
0010
1000
0000
,
0100
0010
0001
0000
0010
0100
1000
0000
0100
0010
0001
0010
0100
1000
0001
0100
,
0002
0000
0000
0003
,
1000
0100
0010
0000
0001
0010
0100
0000
1000
0100
0010
0001
1000
0000
0000
0000
,
0001
0100
0010
1000
0001
0010
0100
1000
0001
0100
0010
0000
0000
0000
1000
0000
,
0001
0100
0010
0000
0100
0000
0001
0000
1000
0100
0010
0000
0100
0000
1000
0000
,
0001
0100
0010
2000
0000
0000
0000
0000
,
3001
0100
0010
0000
1000
0010
0100
0000
0001
0100
0010
1000
0001
0000
0000
0000
,
1000
0100
0010
0001
1000
0010
0100
0001
1000
0100
0010
0000
0000
0000
0001
0000
,
1000
0010
0100
0000
0010
0000
1000
0000
0001
0010
0100
0000
0010
0000
0001
0000
,
1000
0010
0100
0002
0000
0000
0000
0000
,
1003
0100
0010
0001
1000
0010
0100
0001
1000
0000
0001
0010
0000
0001
0100
0000
,
0001
0100
0010
1000
0001
0010
0100
1000
0001
0000
1000
0010
0000
1000
0100
0000
,
1000
0100
0010
0001
1000
0010
0100
0001
1000
0000
0001
0010
0000
0001
0100
0000
,
0001
0010
0100
2000
0000
0000
0000
0000
,
3001
0010
0100
1000
0001
0100
0010
1000
0001
0000
0100
0001
0000
0010
0001
0000
,
1000
0010
0100
0001
1000
0100
0010
0001
1000
0000
0100
1000
0000
0010
1000
0000
,
0001
0010
0100
1000
0001
0100
0010
1000
0001
0000
0100
0001
0000
0010
0001
0000
,
1000
0000
0010
0000
0100
0000
0001
0000
1000
0100
0010
0100
1000
0010
0100
0001
,
0020
0000
0000
0000
,
0030
0000
0000
0000
;

//---------------dance-single - ----------------
#NOTES:
     dance-single:
     :
     Hard:
     9:
     0.692,0.797,0.351,0.199,0.308,452.000,37.000,21.000,0.000,0.000,0.000,0.692,0.797,0.351,0.199,0.308,452.000,37.000,21.000,0.000,0.000,0.000:
0000
0000
0000
0000
,
0000
0000
0000
0000
,
0000
0000
0000
0000
,
0000
0000
0000
0000
,
2002
0000
0000
0000
3003
0000
0000
0001
,
0100
0100
0001
1000
0100
0200
0000
0310
,
0001
0001
0010
0100
0110
0000
0000
0010
,
0100
1000
0001
1000
0010
1000
0001
0010
,
0001
1000
1100
0000
1100
0000
0000
1000
,
0100
0100
0010
0001
1000
2000
0000
3001
,
1000
0010
0110
0000
0110
0000
0000
0100
,
0020
0000
2030
0000
3001
0010
0100
0010
,
0001
1000
0001
0200
0000
0000
0000
0000
,
0310
0000
0010
0000
0010
1000
0001
1000
,
0100
0010
0100
1000
0100
0010
0001
1000
,
0010
0100
0001
0101
0000
0100
0001
1000
,
0001
0010
0100
1100
0000
0000
0000
1000
,
0100
0000
0100
0000
0100
0010
0001
0010
,
0100
0010
0001
1000
0010
1000
0001
0100
,
0101
0000
1001
0000
1000
0100
0000
2200
,
0000
0000
3300
0000
,
1000
0100
0000
0000
0100
1000
0000
0000
1000
0000
0100
0000
1100
0000
0000
0000
,
1000
1000
0001
0001
0100
0010
1010
0000
,
1000
0001
0101
0000
0001
1000
1100
0000
,
1000
0001
0011
0010
0001
1000
1010
0000
,
0010
1000
0000
0000
1000
0010
0000
0000
0010
0000
1000
0000
1010
0000
0000
0000
,
1000
1000
0001
0001
0010
0100
1100
0000
,
1000
0001
0011
0000
0001
1000
1010
0000
,
1000
0100
0010
0002
0000
0000
0000
0000
,
1003
0000
0100
0000
0010
0000
0100
0000
1000
0000
0001
0100
0000
0001
0100
0000
,
0001
0000
0010
0000
0100
0000
0010
0000
0001
0000
0100
0001
0000
0100
0001
0000
,
1000
0000
0010
0000
0100
0000
0010
0000
1000
0000
0001
0010
0000
0001
0010
0000
,
0001
0100
0010
2000
0000
0000
0000
0000
,
3001
0000
0100
0000
0010
0000
0100
0000
0001
0000
1000
0100
0000
1000
0100
0000
,
1000
0000
0010
0000
0100
0000
0010
0000
1000
0000
0100
1000
0000
0100
1000
0000
,
0001
0000
0010
0000
0100
0000
0010
0000
0001
0000
1000
0010
0000
1000
0010
0000
,
1000
0100
0010
0002
0000
0000
0000
0000
,
1003
0100
1000
0100
0010
0000
0000
0001
0100
0001
1000
0001
0010
0000
0000
0000
,
0001
1000
0001
1000
0010
1000
0010
1000
0100
0010
0001
0010
0100
0000
0000
0000
,
1000
0001
1000
0000
0001
0000
0001
0100
0001
1000
0100
1000
0000
0000
0000
0001
,
1000
0010
1000
0001
0010
0000
0001
0100
0002
0000
0000
0000
0000
0000
0000
0000
,
0103
0000
0100
0000
0100
0001
1000
0001
,
0010
0100
0010
0001
0010
0100
1000
0001
,
0100
0010
1000
1010
0000
0010
1000
0001
,
1000
0100
0010
0011
0000
0000
0000
0001
,
0010
0000
0010
0000
0010
0100
1000
0100
,
0010
0100
1000
0001
0100
0001
1000
0010
,
1010
0000
1001
0000
0001
0010
0000
0022
,
0000
0000
0000
0000
0000
0000
0033
0000
0001
0000
0001
0000
1000
0010
1000
0000
,
0001
0010
0001
0000
1000
0100
1000
0000
0001
0100
0010
0100
0001
0000
1000
0100
,
1000
0000
0001
0100
0001
0000
0000
0000
1000
0000
1000
0000
0001
0010
0001
0000
,
1000
0100
1000
0000
0001
0100
0001
0000
1000
0010
1000
0010
0100
0010
0100
0010
,
2000
0000
0000
0000
,
3001
0010
0000
0000
0010
0100
0000
0000
0100
0000
1000
0000
1001
0000
0000
0000
,
0001
0001
0100
0100
0010
1000
1010
0000
,
1000
0001
0011
0000
0001
1000
1010
0000
,
1000
0001
0011
0010
0100
1000
1001
0000
,
0001
0100
0000
0000
0100
0010
0000
0000
0010
0000
1000
0000
1001
0000
0000
0000
,
0001
0001
0010
0010
0100
1000
1100
0000
,
1000
0001
0101
0000
0001
1000
1100
0000
,
1000
0100
0010
0002
0000
0000
0000
0000
,
1003
0000
0100
0000
0010
0000
0001
0000
1000
0000
0010
0100
0000
0010
0100
0000
,
0001
0000
0010
0000
0100
0000
1000
0000
0001
0000
0100
0010
0000
0100
0010
0000
,
1000
0000
0100
0000
0010
0000
0001
0000
1000
0000
0010
0100
0000
0010
0100
0000
,
0001
0010
0100
2000
0000
0000
0000
0000
,
3001
0000
0100
0000
0010
0000
1000
0000
0001
0000
0010
0100
0000
0010
0100
0000
,
1000
0000
0010
0000
0100
0000
0001
0000
1000
0000
0100
0010
0000
0100
0010
0000
,
0001
0000
0100
0000
0010
0000
1000
0000
0001
0000
0010
0100
0000
0010
0100
0000
,
1000
0010
0100
0002
0000
0000
0003
0000
,
2002
0000
0000
0000
,
3003
0000
0000
0000
;

//---------------dance-single - ----------------
#NOTES:
     dance-single:
     :
     Medium:
     7:
     0.487,0.598,0.237,0.123,0.071,321.000,25.000,13.000,0.000,0.000,0.000,0.487,0.598,0.237,0.123,0.071,321.000,25.000,13.000,0.000,0.000,0.000:
0000
0000
0000
0000
,
0000
0000
0000
0000
,
0000
0000
0000
0000
,
0000
0000
0000
0000
,
2002
0000
0000
0000
3003
0000
0000
0001
,
0100
0001
0100
0001
0100
0001
0000
1000
,
0100
1000
0100
1000
0100
0000
0000
0010
,
0001
0001
1000
1000
,
0010
0100
0010
0000
0110
0000
0000
0000
,
0100
0001
0100
0001
1000
0001
0000
1000
,
0010
1000
0010
0000
1010
0000
0000
1000
,
0100
0100
0010
0010
,
0001
0100
0001
0200
0000
0000
0000
0000
,
0310
0000
0010
0000
0010
0000
0010
1000
,
0000
1000
0000
0001
0000
0001
0000
0000
,
1000
0100
0010
0001
0000
0000
0000
0000
,
0001
0100
0010
1000
0000
0000
0000
0000
,
0100
0000
0100
0000
0100
0000
0100
1000
,
0000
1000
0000
0001
0000
0001
0000
0000
,
0101
1001
0011
0110
,
2200
0000
3300
0000
,
1000
0000
1000
0000
1000
0001
0010
0000
,
0001
1000
0100
1000
0001
1000
0010
0000
,
1000
1000
0001
0001
,
0100
0010
0100
0010
0100
0000
0000
0000
,
0001
0000
0001
0000
0001
1000
0100
0000
,
1000
0001
0010
0001
1000
0001
0100
0000
,
0010
0010
0100
0100
,
0001
1000
0001
2000
0000
0000
0000
0000
,
3001
0000
0010
0000
0001
0000
0000
0000
1000
0000
0000
0010
0000
0000
1000
0000
,
0001
0000
0100
0000
0001
0000
0000
0000
1000
0000
0000
0100
0000
0000
1000
0000
,
0001
0000
0010
0000
0001
0000
0000
0000
1000
0000
0000
0010
0000
0000
1000
0000
,
0001
0010
0100
2000
0000
0000
0000
0000
,
3001
0000
0100
0000
0001
0000
0000
0000
1000
0000
0000
0100
0000
0000
1000
0000
,
0001
0000
0010
0000
0001
0000
0000
0000
1000
0000
0000
0010
0000
0000
1000
0000
,
0001
0000
0100
0000
0001
0000
0000
0000
1000
0000
0000
0100
0000
0000
1000
0000
,
0001
0100
0010
2000
0000
0000
0000
0000
,
3001
0100
0110
0000
1000
0100
0110
0000
,
0001
0010
0110
0000
1000
0010
0110
0000
,
0001
0100
0010
0000
0110
0000
0000
0000
1000
0100
0010
0000
0110
0000
0000
0000
,
0001
0010
0100
0000
0110
0000
0000
0000
0200
0000
0000
0000
0000
0000
0000
0000
,
0310
0000
0010
0000
0010
0000
0010
0001
,
0000
0001
0000
1000
0000
1000
0000
0000
,
0001
0100
0010
1000
0000
0000
0000
0000
,
1000
0100
0010
0001
0000
0000
0000
0000
,
0100
0000
0100
0000
0100
0000
0100
0001
,
0000
0001
0000
1000
0000
1000
0000
0000
,
1001
0101
0110
1010
,
1001
0000
0000
0000
1000
1000
0001
0001
,
1000
0000
0001
0000
0100
0100
0010
0010
,
0100
0000
0010
0000
1000
1000
0001
0001
,
0010
0000
0100
0000
1000
1000
0001
0001
,
0200
0000
0000
0000
,
0310
0000
0010
0000
0010
0100
0001
0000
,
0010
0100
1000
0100
0010
0100
1000
0000
,
0010
0110
0100
0110
,
0010
0100
0010
0100
0001
0000
0000
0000
,
0010
0000
0010
0000
0010
0100
1000
0000
,
0010
0100
0001
0100
0010
0100
0001
0000
,
0010
0110
0100
0110
,
0010
0100
0010
0100
1000
0000
0000
0000
,
0001
0000
0100
0000
0010
0000
0000
0000
1000
0000
0000
1000
0000
0000
1000
0000
,
0001
0000
0010
0000
0100
0000
0000
0000
1000
0000
0000
1000
0000
0000
1000
0000
,
0001
0000
0100
0000
0010
0000
0000
0000
1000
0000
0000
1000
0000
0000
1000
0000
,
0001
0010
0100
2000
0000
0000
0000
0000
,
3001
0000
0100
0000
0010
0000
0000
0000
1000
0000
0000
0100
0000
0000
0010
0000
,
0001
0000
0010
0000
0100
0000
0000
0000
1000
0000
0000
0010
0000
0000
0100
0000
,
0001
0000
0100
0000
0010
0000
0000
0000
1000
0000
0000
0100
0000
0000
0010
0000
,
0001
0100
0010
1000
0000
0000
0000
0000
,
2002
0000
0000
0000
,
3003
0000
0000
0000
;

//---------------dance-single - ----------------
#NOTES:
     dance-single:
     :
     Easy:
     5:
     0.362,0.399,0.152,0.057,0.000,245.000,16.000,6.000,0.000,0.000,0.000,0.362,0.399,0.152,0.057,0.000,245.000,16.000,6.000,0.000,0.000,0.000: // measure 1
0000
0000
0000
0000
,  // measure 2
0000
0000
0000
0000
,  // measure 3
0000
0000
0000
0000
,  // measure 4
0000
0000
0000
0000
,  // measure 5
0000
0000
0000
0000
,  // measure 6
0001
0100
0001
0000
,  // measure 7
1000
0100
1000
0000
,  // measure 8
0001
0001
1000
1000
,  // measure 9
0001
0100
0001
0000
,  // measure 10
1000
0010
1000
0000
,  // measure 11
0001
0010
0001
0000
,  // measure 12
1000
1000
0001
0001
,  // measure 13
2002
0000
3003
0000
,  // measure 14
1000
1000
1000
0000
,  // measure 15
0001
0001
0001
0000
,  // measure 16
1000
0001
1000
0001
0000
0000
0000
0000
,  // measure 17
0100
0010
0100
0010
0000
0000
0000
0000
,  // measure 18
1000
1000
1000
0000
,  // measure 19
0001
0001
0001
0000
,  // measure 20
1000
0001
1000
0001
,  // measure 21
1001
0000
0000
0000
,  // measure 22
1000
0000
1000
0000
0001
0100
0001
0000
,  // measure 23
1000
0010
1000
0010
1000
0010
0000
0000
,  // measure 24
1000
0000
0001
0000
,  // measure 25
1000
0000
0001
0000
,  // measure 26
1000
0000
1000
0000
0001
0010
0001
0000
,  // measure 27
1000
0100
1000
0100
1000
0100
0000
0000
,  // measure 28
1000
0000
0001
0000
,  // measure 29
1000
0000
0001
0000
,  // measure 30
1000
0010
1000
0000
0001
0000
1000
0000
,  // measure 31
0001
0010
0001
0000
1000
0000
0001
0000
,  // measure 32
1000
0010
1000
0000
0001
0000
1000
0000
,  // measure 33
1001
0110
1001
0000
,  // measure 34
0001
0100
0001
0000
1000
0000
0001
0000
,  // measure 35
1000
0100
1000
0000
0001
0000
1000
0000
,  // measure 36
0001
0100
0001
0000
1000
0000
0001
0000
,  // measure 37
1001
0110
1001
0000
,  // measure 38
1000
1000
0001
0001
,  // measure 39
0100
0100
0010
0010
,  // measure 40
1000
1000
0001
0001
,  // measure 41
0010
0010
0200
0000
,  // measure 42
1300
1000
1000
0000
,  // measure 43
0001
0001
0001
0000
,  // measure 44
1000
0001
1000
0001
0000
0000
0000
0000
,  // measure 45
0010
0100
0010
0100
0000
0000
0000
0000
,  // measure 46
1000
1000
1000
0000
,  // measure 47
0001
0001
0001
0000
,  // measure 48
1000
0001
1000
0001
,  // measure 49
1001
0000
0000
0000
1000
0001
1000
0001
,  // measure 50
0100
0000
0100
0000
0010
1000
0010
1000
,  // measure 51
0001
0000
0001
0000
1000
0100
1000
0100
,  // measure 52
0010
0000
0010
0000
0001
0010
0001
0010
,  // measure 53
0200
0000
0000
0000
,  // measure 54
1300
0000
1000
0000
0001
0010
0001
0000
,  // measure 55
1000
0100
1000
0100
1000
0100
0000
0000
,  // measure 56
1000
0000
0010
0000
,  // measure 57
0100
0000
0001
0000
,  // measure 58
1000
0000
1000
0000
0001
0100
0001
0000
,  // measure 59
1000
0010
1000
0010
1000
0010
0000
0000
,  // measure 60
1000
0000
0100
0000
,  // measure 61
0010
0000
0001
0000
,  // measure 62
1000
0010
1000
0000
0100
0000
1000
0000
,  // measure 63
0001
0010
0001
0000
0100
0000
0001
0000
,  // measure 64
1000
0010
1000
0000
0100
0000
1000
0000
,  // measure 65
1001
0110
1001
0000
,  // measure 66
0001
0100
0001
0000
0010
0000
0001
0000
,  // measure 67
1000
0100
1000
0000
0010
0000
1000
0000
,  // measure 68
0001
0100
0001
0000
0010
0000
0001
0000
,  // measure 69
1001
0110
1001
0000
,  // measure 70
2002
0000
0000
0000
,  // measure 71
3003
0000
0000
0000
;

//---------------dance-single - ----------------
#NOTES:
     dance-single:
     :
     Beginner:
     2:
     0.220,0.266,0.066,0.133,0.000,141.000,7.000,14.000,0.000,0.000,0.000,0.220,0.266,0.066,0.133,0.000,141.000,7.000,14.000,0.000,0.000,0.000: // measure 1
0000
0000
0000
0000
,  // measure 2
0000
0000
0000
0000
,  // measure 3
0000
0000
0000
0000
,  // measure 4
0000
0000
0000
0000
,  // measure 5
0000
0000
0000
0000
,  // measure 6
1000
0000
1000
0000
,  // measure 7
0001
0000
0001
0000
,  // measure 8
1000
0000
1000
0000
,  // measure 9
0001
0000
0000
0000
,  // measure 10
0100
0000
0100
0000
,  // measure 11
0010
0000
0010
0000
,  // measure 12
0100
0000
0100
0000
,  // measure 13
0010
0000
0000
0000
,  // measure 14
1000
1000
1000
0000
,  // measure 15
0001
0001
0001
0000
,  // measure 16
2000
0000
3000
0000
,  // measure 17
0002
0000
0003
0000
,  // measure 18
0100
0100
0100
0000
,  // measure 19
0010
0010
0010
0000
,  // measure 20
1000
0000
0001
0000
,  // measure 21
1001
0000
0000
0000
,  // measure 22
1000
1000
1000
0000
,  // measure 23
0001
0001
0001
0000
,  // measure 24
0010
0000
0010
0000
,  // measure 25
0100
0000
0100
0000
,  // measure 26
1000
1000
1000
0000
,  // measure 27
0001
0001
0001
0000
,  // measure 28
0100
0000
0100
0000
,  // measure 29
0010
0000
0010
0000
,  // measure 30
1000
1000
1000
0000
,  // measure 31
0100
0100
0100
0000
,  // measure 32
1000
1000
1000
0000
,  // measure 33
2200
0000
3300
0000
,  // measure 34
0001
0001
0001
0000
,  // measure 35
0100
0100
0100
0000
,  // measure 36
0001
0001
0001
0000
,  // measure 37
0202
0000
0303
0000
,  // measure 38
0001
0000
0001
0000
,  // measure 39
1000
0000
1000
0000
,  // measure 40
0100
0000
0100
0000
,  // measure 41
0010
0000
0010
0000
,  // measure 42
0001
0001
0001
0000
,  // measure 43
1000
1000
1000
0000
,  // measure 44
0002
0000
0003
0000
,  // measure 45
2000
0000
3000
0000
,  // measure 46
0100
0100
0100
0000
,  // measure 47
0010
0010
0010
0000
,  // measure 48
0100
0000
0010
0000
,  // measure 49
0110
0000
0100
0000
,  // measure 50
0000
0000
1000
0000
,  // measure 51
0000
0000
0001
0000
,  // measure 52
0000
0000
1000
0000
,  // measure 53
0000
0000
0000
0000
,  // measure 54
0001
0001
0001
0000
,  // measure 55
1000
1000
1000
0000
,  // measure 56
0010
0000
0010
0000
,  // measure 57
0100
0000
0100
0000
,  // measure 58
0001
0001
0001
0000
,  // measure 59
1000
1000
1000
0000
,  // measure 60
0100
0000
0100
0000
,  // measure 61
0010
0000
0010
0000
,  // measure 62
0001
0001
0001
0000
,  // measure 63
0010
0010
0010
0000
,  // measure 64
0001
0001
0001
0000
,  // measure 65
0022
0000
0033
0000
,  // measure 66
1000
1000
1000
0000
,  // measure 67
0010
0010
0010
0000
,  // measure 68
1000
1000
1000
0000
,  // measure 69
2020
0000
3030
0000
,  // measure 70
2002
0000
0000
0000
,  // measure 71
3003
0000
0000
0000
;
